osu file format v14

[General]
AudioFilename: audio.mp3
AudioLeadIn: 0
PreviewTime: 120802
Countdown: 0
SampleSet: Soft
StackLeniency: 0.9
Mode: 0
LetterboxInBreaks: 0
WidescreenStoryboard: 1

[Editor]
Bookmarks: 141602
DistanceSpacing: 0.9
BeatDivisor: 6
GridSize: 32
TimelineZoom: 1.700001

[Metadata]
Title:Hoshi o Atsumete
TitleUnicode:星をあつめて
Artist:fhana
ArtistUnicode:fhána
Creator:Sotarks
Version:Deca's Expert
Source:劇場版「SHIROBAKO」
Tags:movie anime japanese female vocalist white box p.a. works miyamori aoi yasuhara ema sakaki shizuka imai midori toudou misa miyai kaede Junichi Sato yuxuki waga kevin mitsunaga towana lantis 15th single irohas mugiwarasekai kowari akitoshi corinn -laura- deca
BeatmapID:2328220
BeatmapSetID:1108679

[Difficulty]
HPDrainRate:7
CircleSize:4
OverallDifficulty:8
ApproachRate:9
SliderMultiplier:2.22
SliderTickRate:1

[Events]
//Background and Video events
0,0,"bg.jpg",0,0
//Break Periods
2,89543,90540
2,93406,94387
//Storyboard Layer 0 (Background)
//Storyboard Layer 1 (Fail)
//Storyboard Layer 2 (Pass)
//Storyboard Layer 3 (Foreground)
//Storyboard Layer 4 (Overlay)
//Storyboard Sound Samples

[TimingPoints]
82,458.015267175573,4,2,22,52,1,0
540,491.803278688525,4,2,22,52,1,0
1031,480,4,2,22,52,1,0
1991,472.44094488189,4,2,22,52,1,0
2935,483.870967741935,4,2,22,52,1,0
2935,-121.951219512195,4,2,22,52,0,0
4386,476.190476190476,4,2,22,52,1,0
4386,-121.951219512195,4,2,22,52,0,0
5814,487.80487804878,4,2,22,52,1,0
5814,-121.951219512195,4,2,22,52,0,0
6301,480,4,2,22,52,1,0
6781,-100,4,2,22,52,0,0
7581,-99.009900990099,4,2,22,52,0,0
7741,468.75,4,2,22,52,1,0
8053,535.714285714286,4,2,22,52,1,0
8231,476.190476190476,4,2,22,52,1,0
8231,-100,4,2,22,52,0,0
8707,481.927710843374,4,2,22,52,1,0
9183,-100,4,2,22,52,0,0
9670,480,4,2,22,52,1,0
10150,468.75,4,2,22,52,1,0
10618,483.870967741935,4,2,22,52,1,0
11585,-100,4,2,22,72,0,0
12069,-81.9672131147541,4,2,22,72,0,0
12553,487.80487804878,4,2,22,62,1,0
12553,-142.857142857143,4,2,22,62,0,0
13040,-108.695652173913,4,2,22,62,0,0
13528,481.927710843374,4,2,22,62,1,0
13528,-108.695652173913,4,2,22,62,0,0
14491,479.041916167665,4,2,22,62,1,0
14491,-108.695652173913,4,2,22,62,0,0
15449,465.116279069767,4,2,22,62,1,0
15914,487.80487804878,4,2,22,62,1,0
15914,-108.695652173913,4,2,22,62,0,0
16401,480,4,2,22,62,1,0
16881,-108.695652173913,4,2,22,62,0,0
17361,491.803278688525,4,2,22,62,1,0
17361,-108.695652173913,4,2,22,62,0,0
17852,476.190476190476,4,2,22,62,1,0
18328,476.190476190476,4,2,22,62,1,0
19756,480,4,2,22,62,1,0
20236,480,4,2,22,62,1,0
21676,478.08764940239,4,2,22,62,1,0
22154,478.08764940239,4,2,22,62,1,0
23588,483.870967741935,4,2,22,62,1,0
23588,-100,4,2,22,62,0,0
25039,480,4,2,22,62,1,0
25999,480,4,2,22,62,1,0
26799,495.867768595041,4,2,22,62,1,0
27460,461.538461538462,4,2,22,62,1,0
27921,480,4,2,22,62,1,0
31281,472.44094488189,4,2,22,62,1,0
31753,480,4,2,22,62,1,0
32233,-89.2857142857143,4,2,22,62,0,0
32713,491.803278688525,4,2,22,62,1,0
33204,458.015267175573,4,2,22,62,1,0
33509,491.803278688525,4,2,22,62,1,0
34000,444.444444444444,4,2,22,62,1,0
34148,495.867768595041,4,2,22,62,1,0
34643,461.538461538462,4,2,22,62,1,0
35412,517.241379310345,4,2,22,62,1,0
35584,487.80487804878,4,2,22,62,1,0
36071,476.190476190476,4,2,22,62,1,0
36547,480,4,2,22,62,1,0
37987,483.870967741935,4,2,22,62,1,0
38954,465.116279069767,4,2,22,62,1,0
39419,495.867768595041,4,2,22,62,1,0
39914,487.80487804878,4,2,22,62,1,0
40401,480,4,2,22,62,1,0
41361,480,4,2,22,62,1,0
42801,454.545454545455,4,2,22,62,1,0
43255,487.80487804878,4,2,22,62,1,0
45206,474.308300395257,4,2,22,72,1,0
47103,487.80487804878,4,2,22,82,1,0
47103,-75.7575757575758,4,2,22,82,0,0
48078,476.190476190476,4,2,22,82,1,0
48078,-75.7575757575758,4,2,22,82,0,0
48871,-100,4,2,22,82,0,0
49506,491.803278688525,4,2,22,82,1,0
49997,476.190476190476,4,2,22,82,1,0
50790,-75.7575757575758,4,2,22,82,0,0
51425,481.927710843374,4,2,22,82,1,0
51425,-75.7575757575758,4,2,22,82,0,0
51906,468.75,4,2,22,82,1,0
52374,487.80487804878,4,2,22,82,1,0
53349,479.041916167665,4,2,22,82,1,0
54147,-75.7575757575758,4,2,22,82,0,0
54786,483.870967741935,4,2,22,82,1,0
55269,-75.7575757575758,4,2,22,82,0,0
55753,491.803278688525,4,2,22,82,1,0
55753,-100,4,2,22,82,0,0
56244,480,4,2,22,82,1,0
57684,478.08764940239,4,2,22,82,1,0
58480,480,4,2,22,82,1,0
58480,-75.7575757575758,4,2,22,82,0,0
58640,480,4,2,22,82,1,0
58640,-75.7575757575758,4,2,22,82,0,0
59600,458.015267175573,4,2,22,82,1,0
59600,-75.7575757575758,4,2,22,82,0,0
60058,491.803278688525,4,2,22,82,1,0
61041,476.190476190476,4,2,22,82,1,0
61517,-75.7575757575758,4,2,22,82,0,0
62310,-100,4,2,22,82,0,0
62945,483.870967741935,4,2,22,82,1,0
64396,480,4,2,22,82,1,0
67116,-84.7457627118644,4,2,22,82,0,0
67996,-75.7575757575758,4,2,22,5,0,0
68076,-75.7575757575758,4,2,22,82,0,0
69196,483.870967741935,4,2,22,82,1,0
69196,-75.7575757575758,4,2,22,82,0,0
69518,-70.4225352112676,4,2,22,82,0,0
70002,-75.7575757575758,4,2,22,82,0,0
70647,468.75,4,2,22,82,1,0
71115,480,4,2,22,82,1,0
71915,-75.7575757575758,4,2,22,82,0,0
72555,487.80487804878,4,2,22,82,1,0
73042,480,4,2,22,82,1,0
73522,468.75,4,2,22,82,1,0
73990,481.927710843374,4,2,22,72,1,0
73990,-81.9672131147541,4,2,22,72,0,0
76399,480,4,2,22,72,1,0
76879,-81.9672131147541,4,2,22,72,0,0
77839,484.848484848485,4,2,22,72,1,0
77839,-89.2857142857143,4,2,22,72,0,0
78808,458.015267175573,4,2,22,72,1,0
79266,512.820512820513,4,2,22,72,1,0
79949,454.545454545455,4,2,22,72,1,0
80252,468.75,4,2,22,72,1,0
80720,480,4,2,22,72,1,0
80720,-70.4225352112676,4,2,22,72,0,0
81040,-98.0392156862745,4,2,22,72,0,0
81520,-81.9672131147541,4,2,22,72,0,0
81680,480,4,2,22,72,1,0
82640,487.80487804878,4,2,22,72,1,0
83127,480,4,2,22,72,1,0
83447,-75.7575757575758,4,2,22,72,0,0
83607,480,4,2,22,72,1,0
85367,-70.4225352112676,4,2,22,72,0,0
86007,468.75,4,2,22,72,1,0
86944,491.803278688525,4,2,22,72,1,0
87271,-74.5156482861401,4,2,22,72,0,0
87435,480,4,2,22,72,1,0
88875,468.75,4,2,22,72,1,0
89343,535.714285714286,4,2,22,42,1,0
89343,-100,4,2,22,42,0,0
89700,480,4,2,22,42,1,0
91140,474.308300395257,4,2,22,42,1,0
91140,-312.5,4,2,22,42,0,0
92246,480,4,2,22,42,1,0
93206,512.820512820513,4,2,22,42,1,0
93547,480,4,2,22,42,1,0
94987,478.08764940239,4,2,22,42,1,0
95624,451.127819548872,4,2,22,42,1,0
95624,-138.888888888889,4,2,22,42,0,0
96075,491.803278688525,4,2,22,42,1,0
96075,-138.888888888889,4,2,22,42,0,0
96566,470.588235294118,4,2,22,42,1,0
96566,-138.888888888889,4,2,22,42,0,0
97036,476.190476190476,4,2,22,52,1,0
97036,-138.888888888889,4,2,22,52,0,0
98464,487.80487804878,4,2,22,52,1,0
98789,-108.695652173913,4,2,22,52,0,0
99439,474.308300395257,4,2,22,52,1,0
99755,-138.888888888889,4,2,22,52,0,0
100861,487.80487804878,4,2,22,52,1,0
100861,-138.888888888889,4,2,22,52,0,0
101836,480,4,2,22,52,1,0
102156,-138.888888888889,4,2,22,52,0,0
102476,-138.888888888889,4,2,22,52,0,0
102796,474.308300395257,4,2,22,62,1,0
102796,-89.2857142857143,4,2,22,62,0,0
103586,444.444444444444,4,2,22,62,1,0
103882,504.201680672269,4,2,22,62,1,0
104218,480,4,2,22,62,1,0
104698,483.870967741935,4,2,22,52,1,0
106633,480,4,2,22,52,1,0
108553,483.870967741935,4,2,22,52,1,0
108553,-99.8003992015968,4,2,22,52,0,0
109036,480,4,2,22,52,1,0
110476,476.190476190476,4,2,22,52,1,0
111428,-81.9672131147541,4,2,22,52,0,0
112380,500.834724540902,4,2,22,52,1,0
112380,-98.0392156862745,4,2,22,52,0,0
113047,480,4,2,22,52,1,0
113367,476.190476190476,4,2,22,62,1,0
113367,-95.2380952380952,4,2,22,62,0,0
114001,458.015267175573,4,2,22,62,1,0
114306,476.190476190476,4,2,22,62,1,0
114306,-90.9090909090909,4,2,22,62,0,0
114940,-90.9090909090909,4,2,22,62,0,0
115258,487.80487804878,4,2,22,62,1,0
115908,444.444444444444,4,2,22,62,1,0
116204,487.80487804878,4,2,22,62,1,0
116204,-89.2857142857143,4,2,22,62,0,0
116691,-89.2857142857143,4,2,22,62,0,0
117179,-89.2857142857143,4,2,22,62,0,0
118155,480,4,2,22,62,1,0
118155,-89.2857142857143,4,2,22,62,0,0
119115,472.44094488189,4,2,22,72,1,0
119587,491.803278688525,4,2,22,72,1,0
120078,-100,4,2,22,52,0,0
120406,468.75,4,2,22,52,1,0
120562,480,4,2,22,52,1,0
121042,480,4,2,22,72,1,0
121042,-121.951219512195,4,2,22,72,0,0
122802,483.870967741935,4,2,22,72,1,0
122802,-121.951219512195,4,2,22,72,0,0
124253,441.176470588235,4,2,22,72,1,0
124694,487.80487804878,4,2,22,72,1,0
124694,-100,4,2,22,72,0,0
124856,487.80487804878,4,2,22,72,1,0
125831,-121.951219512195,4,2,22,72,0,0
126644,-100,4,2,22,72,0,0
127295,468.75,4,2,22,72,1,0
127763,480,4,2,22,72,1,0
128083,517.241379310345,4,2,22,72,1,0
128083,-76.3358778625954,4,2,22,72,0,0
128427,410.958904109589,4,2,22,72,1,0
128563,480,4,2,22,72,1,0
128723,480,4,2,22,82,1,0
128723,-75.7575757575758,4,2,22,82,0,0
130483,483.870967741935,4,2,22,82,1,0
130483,-100,4,2,22,82,0,0
131127,478.08764940239,4,2,22,82,1,0
132401,-75.7575757575758,4,2,22,82,0,0
133039,483.870967741935,4,2,22,82,1,0
133039,-75.7575757575758,4,2,22,82,0,0
133522,476.190476190476,4,2,22,82,1,0
133522,-75.7575757575758,4,2,22,82,0,0
135426,491.803278688525,4,2,22,82,1,0
135753,-70.4225352112676,4,2,22,82,0,0
136409,480,4,2,22,82,1,0
136409,-75.7575757575758,4,2,22,82,0,0
138169,-61.7283950617284,4,2,22,82,0,0
138809,468.75,4,2,22,82,1,0
138809,-61.7283950617284,4,2,22,82,0,0
139746,483.870967741935,4,2,22,82,1,0
140068,-70.4225352112676,4,2,22,82,0,0
140229,-70.4225352112676,4,2,22,82,0,0
140713,-70.4225352112676,4,2,22,82,0,0
141681,465.116279069767,4,2,22,82,1,0
141991,491.803278688525,4,2,22,82,1,0
142154,487.80487804878,4,2,22,82,1,0
142641,476.190476190476,4,2,22,82,1,0
143117,-75.7575757575758,4,2,22,82,0,0
143831,-75.7575757575758,4,2,22,5,0,0
143910,-98.0392156862745,4,2,22,82,0,0
144545,483.870967741935,4,2,22,82,1,0
145028,-75.7575757575758,4,2,22,82,0,0
145996,483.870967741935,4,2,22,82,1,0
145996,-75.7575757575758,4,2,22,82,0,0
146963,-98.0392156862745,4,2,22,82,0,0
147448,468.75,4,2,22,82,1,0
147916,480,4,2,22,82,1,0
147916,-75.7575757575758,4,2,22,82,0,0
149356,-108.695652173913,4,2,22,82,0,0
149596,-108.695652173913,4,2,22,5,0,0
149676,-75.7575757575758,4,2,22,82,0,0
150316,466.926070038911,4,2,22,82,1,0
150782,480,4,2,22,82,1,0
150782,-75.7575757575758,4,2,22,82,0,0
151582,487.80487804878,4,2,22,82,1,0
151744,487.80487804878,4,2,22,82,1,0
152719,480,4,2,22,82,1,0
153519,-75.7575757575758,4,2,22,82,0,0
154159,487.80487804878,4,2,22,82,1,0
154646,476.190476190476,4,2,22,82,1,0
155598,483.870967741935,4,2,22,82,1,0
155598,-75.7575757575758,4,2,22,82,0,0
156565,480,4,2,22,82,1,0
156565,-75.7575757575758,4,2,22,82,0,0
157525,-98.0392156862745,4,2,22,82,0,0
158485,487.80487804878,4,2,22,82,1,0
158485,-75.7575757575758,4,2,22,82,0,0
158972,476.190476190476,4,2,22,82,1,0
159448,472.44094488189,4,2,22,82,1,0
159448,-75.7575757575758,4,2,22,82,0,0
160392,487.80487804878,4,2,22,82,1,0
160392,-75.7575757575758,4,2,22,82,0,0
160879,-98.0392156862745,4,2,22,82,0,0
161367,480,4,2,22,82,1,0
161367,-75.7575757575758,4,2,22,82,0,0
162167,485.82995951417,4,2,22,82,1,0
162167,-75.7575757575758,4,2,22,82,0,0
162814,472.44094488189,4,2,22,82,1,0
163286,476.190476190476,4,2,22,72,1,0
164238,487.80487804878,4,2,22,72,1,0
165213,478.08764940239,4,2,22,72,1,0
167603,487.80487804878,4,2,22,72,1,0
168090,472.44094488189,4,2,22,72,1,0
168562,480,4,2,22,72,1,0
169522,491.803278688525,4,2,22,72,1,0
170013,504.201680672269,4,2,22,72,1,0
170349,441.176470588235,4,2,22,72,1,0
170496,480,4,2,22,72,1,0
170976,480,4,2,22,52,1,0
170976,-100,4,2,22,52,0,0
171056,-100,4,2,22,22,0,0
171456,-100,4,2,1,22,0,0
171936,-100,4,2,22,22,0,0
172416,-100,4,2,1,22,0,0
172896,-100,4,2,22,22,0,0
173376,-100,4,2,1,22,0,0
173856,-100,4,2,22,22,0,0
174336,-100,4,2,1,22,0,0
174816,-100,4,2,22,22,0,0
175296,-100,4,2,1,22,0,0
175776,-100,4,2,22,22,0,0
176256,-100,4,2,1,22,0,0
176496,-100,4,2,1,12,0,0

[Colours]
Combo1 : 64,115,170
Combo2 : 71,169,190
Combo3 : 155,241,251
Combo4 : 36,129,204

[HitObjects]
265,125,1031,6,0,P|361:105|415:217,2,222,6|2|2,1:2|1:2|1:2,0:2:0:0:
261,133,2463,1,2,1:2:0:0:
193,180,2620,1,0,3:2:0:0:
125,130,2778,1,0,3:2:0:0:
188,73,2935,2,0,B|303:82|246:133|385:125,1,182.04000277771,6|0,1:2|1:2,0:2:0:0:
432,55,3580,2,0,P|444:108|449:125,1,60.6800009259034,0|0,3:2|3:2,0:0:0:0:
508,238,3902,5,2,1:2:0:0:
427,206,4064,1,0,3:2:0:0:
508,238,4225,1,0,3:2:0:0:
349,260,4386,2,0,P|313:268|268:284,2,60.6800009259034,2|0|0,1:2|3:2|3:2,0:2:0:0:
365,155,4862,2,0,P|393:220|387:337,1,182.04000277771,2|0,1:2|1:2,0:2:0:0:
393,331,5655,1,2,3:2:0:0:
287,285,5814,2,0,B|188:258|221:331|102:293,1,182.04000277771,2|2,1:2|1:2,0:2:0:0:
53,228,6461,1,0,3:2:0:0:
104,161,6621,1,0,3:2:0:0:
264,200,6781,6,0,P|313:217|396:160,1,148,2|2,1:2|1:2,0:2:0:0:
487,336,7261,1,2,1:2:0:0:
487,336,7581,2,0,P|489:243|503:170,1,148,10|0,0:2|0:0,0:2:0:0:
441,57,8053,1,10,0:2:0:0:
308,155,8231,2,0,B|210:141|285:109|153:78,1,148,2|0,1:2|3:2,0:2:0:0:
48,231,8707,6,0,P|42:198|28:148,2,74,6|0|0,1:2|0:0|0:2,0:2:0:0:
120,281,9188,6,0,P|126:248|140:198,2,74,2|0|0,1:2|3:2|3:2,0:0:0:0:
226,321,9670,6,0,P|220:288|206:238,2,74,2|0|0,1:2|3:2|3:2,0:0:0:0:
298,371,10150,6,0,P|304:338|318:288,2,74,2|0|0,1:2|3:2|3:2,0:0:0:0:
470,220,10618,6,0,P|430:210|390:200,1,74,2|0,1:2|0:0,0:2:0:0:
343,139,10940,1,0,0:2:0:0:
155,167,11101,6,0,P|195:157|235:147,1,74,2|0,1:2|3:2,0:0:0:0:
282,86,11424,1,0,3:2:0:0:
458,97,11585,5,10,1:2:0:0:
288,209,11747,1,2,1:2:0:0:
160,86,11908,1,2,1:2:0:0:
328,3,12069,2,0,P|384:20|438:214,1,270.839988841736,14|6,0:2|1:2,0:2:0:0:
447,207,13040,6,0,B|362:211|410:246|298:229,1,136.159995429199,10|2,0:2|1:2,0:0:0:0:
213,303,13528,2,0,P|232:209|233:79,1,204.239993143799,0|10,1:2|0:2,0:2:0:0:
234,100,14331,1,2,0:2:0:0:
159,136,14491,2,0,P|99:141|59:9,2,204.239993143799,0|10|0,1:2|0:2|1:2,0:2:0:0:
234,100,15604,1,2,3:2:0:0:
307,134,15759,1,0,3:2:0:0:
367,212,15914,6,0,P|320:216|216:240,1,136.159995429199,10|2,0:2|0:2,0:0:0:0:
123,219,16401,1,2,1:2:0:0:
123,219,16881,2,0,P|131:260|134:317,1,68.0799977145997,8|0,0:2|0:2,0:2:0:0:
72,157,17201,1,2,1:2:0:0:
13,222,17361,2,0,P|2:260|-10:378,1,136.159995429199,2|0,1:2|0:2,0:2:0:0:
213,326,17852,5,8,0:2:0:0:
213,326,18328,2,0,B|311:340|253:381|357:385,1,148,14|2,0:2|1:2,0:2:0:0:
498,213,18804,1,10,0:2:0:0:
498,213,19121,2,0,P|439:217|415:340,1,185,6|0,1:2|0:0,0:2:0:0:
403,322,19597,1,10,0:2:0:0:
260,246,19756,2,0,P|197:257|92:277,1,148,10|8,0:2|0:3,0:2:0:0:
97,44,20236,6,0,P|153:72|162:158,1,148,6|0,1:2|0:2,0:2:0:0:
69,201,20716,2,0,P|13:173|4:87,1,148,8|0,0:2|1:2,0:2:0:0:
249,181,21196,2,0,P|263:226|238:269,1,74,2|0,1:2|0:2,0:2:0:0:
142,243,21516,1,0,1:2:0:0:
223,100,21676,5,8,0:2:0:0:
223,100,21994,1,0,0:2:0:0:
295,143,22154,2,0,P|349:150|446:154,1,148,2|0,1:2|0:2,0:2:0:0:
498,26,22632,2,0,P|504:71|516:107,1,74,8|0,0:2|0:0,0:2:0:0:
512,189,22950,1,0,1:2:0:0:
435,326,23110,2,0,P|445:290|449:253,2,74,2|0|0,1:2|0:2|1:2,0:0:0:0:
368,224,23588,2,0,B|243:203|285:292|133:231,1,222,10|2,0:2|1:2,0:2:0:0:
153,238,24555,6,0,P|166:198|169:161,1,74,10|0,0:2|0:0,0:2:0:0:
143,77,24878,1,0,1:2:0:0:
232,123,25039,2,0,B|296:134|296:134|318:144|318:144|409:157,1,148,2|0,1:2|1:2,0:2:0:0:
452,116,25519,1,10,0:2:0:0:
452,116,25999,2,0,P|501:148|487:250,1,148,14|0,0:2|1:2,0:2:0:0:
331,312,26479,1,10,0:2:0:0:
331,312,26799,2,0,B|184:296|263:367|108:328,1,222,6|0,1:2|0:0,0:2:0:0:
20,245,27460,5,8,0:3:0:0:
116,171,27613,1,8,0:3:0:0:
20,245,27767,1,8,0:2:0:0:
70,101,27921,6,0,P|152:93|250:203,2,222,2|10|2,1:2|0:2|1:2,0:2:0:0:
74,105,29201,2,0,P|34:123|-4:133,1,74,2|8,1:2|0:2,0:0:0:0:
119,175,29521,1,0,0:2:0:0:
249,84,29681,2,0,B|385:105|309:143|471:155,1,222,6|0,1:2|1:2,0:2:0:0:
416,69,30321,1,10,0:2:0:0:
280,176,30481,2,0,P|232:186|181:198,1,74,0|0,0:2|1:2,0:0:0:0:
92,251,30801,5,2,1:2:0:0:
0,212,30961,1,0,1:2:0:0:
96,255,31121,1,0,1:2:0:0:
141,358,31281,5,10,0:2:0:0:
263,290,31438,1,8,0:2:0:0:
363,353,31595,1,8,0:3:0:0:
261,384,31753,2,0,P|239:325|286:212,1,185,6|0,1:2|0:0,0:2:0:0:
348,177,32233,2,0,P|445:193|525:202,1,165.760002023438,10|0,0:2|1:2,0:2:0:0:
511,200,32713,2,0,P|499:158|490:110,1,74,2|0,1:2|0:2,0:2:0:0:
435,60,33040,1,2,1:2:0:0:
281,216,33204,1,8,0:2:0:0:
281,216,33509,2,0,P|310:150|329:-13,1,222,6|0,1:2|1:2,0:2:0:0:
230,37,34148,5,10,0:2:0:0:
142,85,34313,1,0,1:2:0:0:
234,41,34478,1,0,1:2:0:0:
316,111,34643,5,2,1:2:0:0:
412,171,34796,1,8,0:2:0:0:
400,76,34950,1,0,1:2:0:0:
325,202,35104,6,0,P|277:213|229:227,1,74,10|4,0:2|0:3,0:0:0:0:
105,258,35412,1,6,0:3:0:0:
105,258,35498,1,2,0:0:0:0:
105,258,35584,2,0,B|202:277|125:298|271:323,1,148,6|0,1:2|0:2,0:2:0:0:
462,256,36071,1,10,0:2:0:0:
462,256,36547,2,0,P|451:301|445:348,1,74,2|0,1:2|0:2,0:2:0:0:
397,200,36867,1,2,1:2:0:0:
321,249,37027,2,0,P|269:251|207:157,1,148,8|6,0:2|1:2,0:2:0:0:
207,184,37827,1,0,1:2:0:0:
305,72,37987,5,10,0:2:0:0:
407,108,38148,1,0,1:2:0:0:
305,72,38309,1,0,1:2:0:0:
127,137,38470,5,2,1:2:0:0:
62,87,38632,1,0,1:2:0:0:
106,18,38793,1,0,1:2:0:0:
270,149,38954,5,8,0:2:0:0:
111,232,39109,1,8,0:3:0:0:
270,149,39264,1,4,0:3:0:0:
321,229,39419,6,0,P|309:288|302:389,1,148,6|0,1:2|0:2,0:2:0:0:
394,190,39914,2,0,P|345:201|264:133,1,148,8|0,0:2|1:2,0:0:0:0:
258,46,40401,1,2,1:2:0:0:
258,46,40721,1,2,1:2:0:0:
182,188,40881,5,8,0:2:0:0:
182,188,41201,2,0,B|101:174|126:233|12:192,1,148,2|0,1:2|0:0,0:2:0:0:
62,124,41681,1,0,1:2:0:0:
163,272,41841,2,0,P|209:280|253:293,1,74,8|0,0:2|0:2,0:2:0:0:
119,339,42161,1,0,1:2:0:0:
302,214,42321,2,0,P|327:252|293:361,1,148,2|0,1:2|0:2,0:2:0:0:
408,294,42801,1,8,0:2:0:0:
497,341,42952,1,8,0:3:0:0:
408,294,43104,1,8,0:3:0:0:
512,119,43255,6,0,B|412:121|474:169|340:150,1,148,2|0,1:2|0:2,0:2:0:0:
248,19,43742,2,0,P|265:64|257:222,1,185,8|0,0:2|0:0,0:2:0:0:
252,215,44230,2,0,P|218:198|162:188,1,74,2|0,1:2|0:2,0:2:0:0:
157,307,44555,1,0,1:2:0:0:
359,233,44718,1,8,0:2:0:0:
437,289,44881,1,0,1:0:0:0:
359,233,45043,1,0,1:2:0:0:
257,294,45206,5,10,0:2:0:0:
91,357,45364,1,8,0:2:0:0:
195,222,45522,1,8,0:2:0:0:
323,364,45680,5,8,0:3:0:0:
410,301,45838,1,4,0:3:0:0:
323,364,45996,1,4,0:3:0:0:
201,307,46154,5,10,0:2:0:0:
88,176,46312,1,8,0:2:0:0:
305,228,46470,1,8,0:2:0:0:
349,82,46628,6,0,P|339:63|266:117,1,148,4|0,0:3|1:0,0:0:0:0:
258,135,47024,5,0,1:0:0:0:
258,135,47103,2,0,B|384:166|293:191|468:220,1,195.359999403809,6|0,1:2|0:2,0:2:0:0:
203,27,47590,2,0,P|101:28|115:134,1,195.359999403809,10|0,0:2|1:2,0:2:0:0:
270,332,48078,2,0,P|279:280|296:231,1,97.6799997019043,2|0,1:2|0:2,0:2:0:0:
395,104,48395,1,0,1:2:0:0:
200,205,48554,5,10,0:2:0:0:
200,205,48871,2,0,B|134:233|39:244|13:151|59:132,1,222,6|0,1:2|1:2,0:2:0:0:
131,58,49506,1,8,0:2:0:0:
221,34,49669,1,0,1:2:0:0:
285,100,49833,1,0,1:2:0:0:
402,209,49997,2,0,P|437:224|481:233,1,74,2|0,1:2|0:2,0:2:0:0:
290,222,50314,1,2,1:2:0:0:
487,121,50473,5,8,0:2:0:0:
487,121,50790,2,0,P|424:123|403:336,1,293.039999105713,2|0,1:2|1:2,0:2:0:0:
251,245,51425,2,0,B|127:231|181:312|31:260,1,195.359999403809,10|0,0:2|1:2,0:2:0:0:
19,74,51906,2,0,P|6:121|8:167,1,74,10|0,0:2|0:2,0:2:0:0:
74,10,52218,1,10,0:2:0:0:
140,157,52374,2,0,P|137:120|126:85,1,74,0|0,1:2|0:0,0:0:0:0:
1,294,52699,6,0,B|100:292|26:352|211:328,1,148,6|8,1:2|0:2,0:2:0:0:
139,333,53105,1,8,0:2:0:0:
139,333,53187,1,8,0:2:0:0:
337,264,53349,1,10,0:2:0:0:
234,227,53508,1,4,0:3:0:0:
337,264,53668,1,4,0:3:0:0:
429,84,53828,2,0,P|436:130|442:166,1,74,10|0,0:2|0:0,0:0:0:0:
134,7,54147,2,0,P|121:84|99:168,1,146.519999552856,6|0,1:2|0:2,0:2:0:0:
79,222,54466,1,8,0:2:0:0:
234,88,54626,1,8,0:2:0:0:
0,283,54786,6,0,P|64:262|176:291,1,148,6|0,1:2|0:2,0:2:0:0:
429,285,55269,2,0,P|356:275|322:227,1,97.6799997019043,10|0,0:2|0:0,0:2:0:0:
330,83,55592,1,0,1:2:0:0:
254,189,55753,2,0,P|244:248|244:295,1,74,2|0,1:2|0:2,0:2:0:0:
238,58,56080,1,0,1:2:0:0:
340,260,56244,5,10,0:2:0:0:
340,260,56564,2,0,P|234:278|156:379,1,222,2|0,1:2|1:2,0:2:0:0:
145,233,57204,1,8,0:2:0:0:
29,275,57364,1,0,0:2:0:0:
145,233,57524,1,0,1:2:0:0:
321,336,57684,2,0,P|365:345|414:361,1,74,2|0,1:2|0:2,0:2:0:0:
203,318,58001,1,2,1:2:0:0:
405,247,58162,5,8,0:2:0:0:
405,247,58480,2,0,B|207:294|355:348|134:389,1,293.039999105713,2|0,1:2|1:2,0:2:0:0:
30,289,59120,2,0,P|2:235|139:128,1,195.359999403809,10|0,0:2|1:2,0:2:0:0:
428,20,59600,2,0,P|431:54|444:119,1,97.6799997019043,10|8,0:2|0:2,0:0:0:0:
498,219,59905,1,10,0:2:0:0:
287,11,60058,1,8,0:2:0:0:
287,11,60385,2,0,P|279:62|269:94,1,74,2|8,1:2|0:2,0:0:0:0:
272,83,60631,1,8,0:2:0:0:
272,83,60713,1,8,0:2:0:0:
197,147,60877,1,0,1:2:0:0:
89,256,61041,5,8,0:2:0:0:
12,200,61199,1,4,0:3:0:0:
89,256,61358,1,4,0:3:0:0:
269,191,61517,2,0,P|321:201|383:221,1,97.6799997019043,10|0,0:2|0:0,0:0:0:0:
110,97,61834,5,10,0:2:0:0:
110,97,62310,2,0,P|211:92|353:119,1,222,6|0,1:2|1:2,0:2:0:0:
423,56,62945,1,10,0:2:0:0:
486,138,63106,1,0,0:2:0:0:
404,203,63267,1,0,1:2:0:0:
171,191,63428,2,0,P|182:246|185:302,1,74,2|0,1:2|0:2,0:2:0:0:
238,124,63751,1,2,1:2:0:0:
140,338,63912,5,8,0:2:0:0:
140,338,64235,1,2,1:2:0:0:
317,233,64396,2,0,P|377:240|424:339,1,148,0|2,1:0|1:2,0:0:0:0:
498,255,64876,1,8,0:2:0:0:
346,346,65036,1,0,0:2:0:0:
498,255,65196,1,10,0:2:0:0:
409,138,65356,2,0,B|402:172|402:172|417:230,1,74,0|0,1:2|0:0,0:2:0:0:
502,353,65676,1,0,1:2:0:0:
502,353,65756,1,0,1:2:0:0:
502,353,65836,1,10,0:2:0:0:
352,264,65996,1,8,0:2:0:0:
238,342,66156,5,8,0:2:0:0:
71,373,66316,2,0,P|65:291|44:158,1,185,6|0,1:2|0:0,0:2:0:0:
20,114,66796,1,10,0:2:0:0:
264,264,67116,2,0,P|270:182|287:119,1,130.979995403229,6|0,1:2|0:0,0:2:0:0:
301,53,67436,1,8,0:2:0:0:
400,153,67596,1,8,0:2:0:0:
213,69,67756,5,10,1:3:0:0:
213,69,68076,2,0,P|153:69|100:166,1,146.519999552856,6|0,1:2|0:0,0:2:0:0:
98,231,68396,1,0,1:2:0:0:
32,24,68556,1,8,0:2:0:0:
211,289,68716,1,4,0:3:0:0:
211,289,69196,2,0,P|262:279|312:280,1,97.6799997019043,10|0,0:2|0:0,0:0:0:0:
178,199,69518,2,0,P|259:178|247:60,1,210.159989417603,10|0,0:2|0:0,0:0:0:0:
179,34,70002,6,0,B|55:63|138:87|-9:107,1,195.359999403809,6|0,1:2|0:0,0:2:0:0:
35,15,70486,1,0,1:2:0:0:
85,225,70647,2,0,P|183:243|271:276,1,148,8|0,0:2|1:2,0:2:0:0:
9,361,71115,2,0,P|21:314|24:273,1,74,2|0,1:2|0:2,0:2:0:0:
17,177,71435,1,2,1:2:0:0:
220,370,71595,1,8,0:2:0:0:
220,370,71915,2,0,B|286:397|405:307|349:253,1,195.359999403809,6|0,1:2|0:2,0:2:0:0:
320,205,72395,1,2,1:2:0:0:
503,371,72555,1,8,0:2:0:0:
503,371,72880,1,2,0:2:0:0:
480,205,73042,5,8,0:2:0:0:
362,276,73202,1,4,0:3:0:0:
480,205,73362,1,6,0:3:0:0:
251,100,73522,5,8,0:2:0:0:
365,171,73678,1,8,0:2:0:0:
251,100,73834,1,8,0:2:0:0:
81,311,73990,6,0,B|13:175|229:230|133:55,2,270.839988841736,6|8|0,1:2|0:2|1:2,0:1:0:0:
93,326,75275,1,2,1:2:0:0:
285,159,75435,1,10,0:2:0:0:
285,159,75757,1,6,1:2:0:0:
363,195,75917,2,0,B|467:159|552:306|457:377|457:377,1,270.839988841736,0|8,1:0|0:2,0:0:0:0:
463,369,76879,2,0,B|425:351|368:351|368:351,1,90.2799962805788,0|0,1:2|0:2,0:2:0:0:
260,350,77199,1,0,1:2:0:0:
501,276,77359,5,8,0:2:0:0:
501,276,77679,1,6,1:2:0:0:
380,240,77839,2,0,B|240:242|315:343|153:329,2,248.640003035156,0|10|8,1:0|0:2|0:2,0:0:0:0:
400,255,79113,1,10,0:2:0:0:
233,37,79266,1,2,1:2:0:0:
219,33,79607,2,0,B|203:23|203:23|149:38|149:38|121:79|50:73,1,148,6|8,1:2|0:2,0:2:0:0:
6,56,80024,1,8,0:2:0:0:
6,56,80100,1,12,0:3:0:0:
131,143,80252,1,8,0:3:0:0:
372,114,80408,5,4,0:3:0:0:
280,188,80564,1,4,0:3:0:0:
482,50,80720,2,0,B|433:45|372:10|372:10,1,105.079994708802,10|0,0:2|0:0,0:0:0:0:
479,140,81040,2,0,B|451:124|451:124|365:129|399:229,1,150.960000921387,6|0,1:2|0:0,0:0:0:0:
487,240,81520,6,0,B|273:167|349:388|144:357,1,361.119985122315,6|8,1:2|0:0,0:0:0:0:
156,344,82480,1,0,1:2:0:0:
63,84,82640,2,0,B|119:76|165:130|134:195,1,148,2|0,1:2|1:2,0:2:0:0:
62,260,83127,2,0,B|24:248|-26:237,1,74,8|0,0:0|0:0,0:0:0:0:
267,198,83447,6,0,B|432:154|522:246|476:357|393:364|342:307|357:251,1,390.719998807617,6|8,1:2|0:2,0:2:0:0:
471,76,84407,1,0,1:2:0:0:
402,29,84567,2,0,P|358:43|307:47,1,74,2|0,1:2|0:2,0:2:0:0:
493,152,84887,1,0,1:2:0:0:
224,3,85047,5,10,0:2:0:0:
224,3,85367,1,6,1:2:0:0:
179,75,85527,2,0,B|210:154|195:290|195:290,1,210.159989417603,0|0,1:2|1:2,0:1:0:0:
197,369,86007,5,10,0:2:0:0:
303,332,86163,1,0,0:2:0:0:
201,373,86319,1,0,1:2:0:0:
312,248,86475,5,10,0:2:0:0:
316,252,86788,1,10,0:2:0:0:
503,354,86944,1,6,1:2:0:0:
445,237,87107,1,0,1:2:0:0:
445,237,87189,1,0,1:2:0:0:
445,237,87271,2,0,B|396:329|246:323|206:212,1,293.039999105713,6|4,1:2|0:3,0:1:0:0:
280,138,87915,5,10,0:2:0:0:
170,0,88075,1,0,1:2:0:0:
348,71,88235,1,0,1:2:0:0:
160,103,88395,5,10,0:0:0:0:
21,175,88555,1,8,0:0:0:0:
54,69,88715,1,8,0:0:0:0:
242,227,88875,5,10,0:3:0:0:
319,275,89031,5,4,0:3:0:0:
360,190,89187,5,4,0:3:0:0:
281,145,89343,5,6,1:2:0:0:
281,145,91140,6,0,P|285:196|297:313,1,165.76,2|0,0:0|0:0,0:0:0:0:
281,145,93206,5,2,0:2:0:0:
281,145,94987,5,2,0:2:0:0:
281,145,95624,2,0,P|310:153|350:157,2,53.2800013007813,0|0|0,3:2|3:2|3:2,3:2:0:0:
228,209,96075,2,0,P|255:221|293:232,2,53.2800013007813,0|0|0,3:2|3:2|3:2,3:2:0:0:
164,262,96566,2,0,P|188:279|224:296,2,53.2800013007813,0|0|0,3:2|3:2|3:2,3:2:0:0:
118,178,97036,2,0,P|281:180|324:319,1,319.680007804688,6|0,1:2|1:2,0:2:0:0:
326,308,98147,1,0,3:0:0:0:
326,308,98305,1,0,3:2:0:0:
326,308,98464,1,0,3:2:0:0:
326,308,98626,1,0,3:2:0:0:
258,266,98789,6,0,B|87:252|171:327|-7:297,1,272.319990858399,2|0,1:2|0:0,0:2:0:0:
236,164,99755,2,0,P|242:141|245:126,1,26.6400006503906,2|0,0:2|0:0,0:0:0:0:
180,98,99913,2,0,P|248:83|344:226,1,266.400006503906,2|0,1:2|0:2,0:2:0:0:
435,384,100861,2,0,P|424:316|423:213,1,159.840003902344,2|0,1:2|0:0,0:2:0:0:
142,251,101836,5,2,1:2:0:0:
127,155,102156,5,0,3:2:0:0:
240,108,102476,5,0,3:2:0:0:
348,243,102796,5,10,0:2:0:0:
489,130,103112,5,8,0:2:0:0:
304,23,103428,5,4,0:3:0:0:
228,80,103586,1,4,0:3:0:0:
408,323,103734,5,8,0:2:0:0:
475,237,103882,5,8,0:2:0:0:
323,135,104050,5,4,0:3:0:0:
262,265,104218,5,4,0:3:0:0:
297,333,104378,1,4,0:3:0:0:
419,160,104538,5,4,0:3:0:0:
419,160,104618,1,4,0:3:0:0:
419,160,104698,2,0,P|293:157|140:354,1,370,6|0,1:2|0:2,0:2:0:0:
0,51,105665,2,0,B|48:144|215:180|249:83|197:38,1,296,10|0,0:2|3:2,0:2:0:0:
128,24,106472,1,0,3:2:0:0:
61,221,106633,6,0,P|38:273|104:353,1,148,2|0,1:2|0:0,0:2:0:0:
166,328,107113,2,0,P|189:276|123:196,1,148,0|0,3:2|3:2,0:0:0:0:
400,139,107593,6,0,P|423:191|357:271,1,148,10|0,0:2|3:2,0:2:0:0:
295,246,108073,2,0,P|272:194|338:114,1,148,0|0,3:2|3:2,0:2:0:0:
512,273,108553,6,0,B|290:307|437:345|221:364,1,296,6|0,1:2|3:2,0:2:0:0:
71,325,109356,2,0,P|94:320|109:318,1,37,0|0,3:2|0:0,0:0:0:0:
145,383,109516,2,0,P|139:289|122:69,1,296,10|0,0:2|3:2,0:2:0:0:
385,164,110316,6,0,P|355:159|338:152,1,37,0|0,3:2|0:0,0:0:0:0:
310,230,110476,2,0,P|318:157|346:66,1,148,2|0,1:2|3:2,0:2:0:0:
394,301,110952,5,0,3:2:0:0:
223,193,111110,1,0,3:2:0:0:
63,297,111269,1,0,3:2:0:0:
309,246,111428,6,0,B|196:277|271:315|126:330,1,180.559992561158,10|0,0:2|0:2,0:2:0:0:
89,158,111904,5,8,0:2:0:0:
129,80,112063,1,8,0:2:0:0:
214,104,112222,1,8,0:2:0:0:
379,201,112380,6,0,P|426:185|512:179,1,113.22000069104,6|0,1:2|0:2,0:2:0:0:
512,95,112713,6,0,P|475:61|424:0,1,113.22000069104,8|0,1:3|0:2,0:2:0:0:
354,33,113047,6,0,P|343:81|307:158,1,111,4|0,1:3|0:2,0:2:0:0:
357,217,113367,6,0,P|408:209|499:217,1,116.549996443176,6|0,1:2|0:2,0:2:0:0:
512,131,113684,6,0,P|480:90|439:19,1,116.549996443176,8|0,1:3|0:2,0:2:0:0:
361,39,114001,6,0,P|341:86|290:160,1,111,4|0,1:3|0:2,0:2:0:0:
341,232,114306,6,0,P|392:233|478:256,1,122.100003726196,6|0,1:2|0:2,0:2:0:0:
508,174,114623,6,0,P|483:128|455:51,1,122.100003726196,4|0,2:3|0:3,0:3:0:0:
375,57,114940,6,0,P|347:100|283:165,1,122.100003726196,4|0,2:3|0:2,0:2:0:0:
37,77,115258,6,0,P|49:123|52:158,1,74,10|0,0:3|0:0,0:0:0:0:
189,233,115583,2,0,P|176:279|174:312,1,74,8|0,0:3|0:0,0:0:0:0:
0,304,115908,1,8,0:2:0:0:
149,145,116056,1,8,0:2:0:0:
298,306,116204,2,0,B|366:364|453:355|463:315,1,165.760002023438,6|0,1:2|0:2,0:2:0:0:
394,56,116691,2,0,P|346:88|377:201,1,165.760002023438,8|0,0:2|1:2,0:2:0:0:
503,218,117179,2,0,P|487:172|477:122,1,82.8800010117188,2|0,1:2|0:2,0:2:0:0:
473,29,117504,1,0,1:2:0:0:
249,165,117667,2,0,B|149:197|217:218|94:246,1,165.760002023438,8|0,0:2|0:2,0:2:0:0:
305,30,118155,6,0,P|368:74|352:170,1,165.760002023438,6|0,1:2|0:2,0:2:0:0:
148,334,118635,1,8,0:2:0:0:
0,275,118795,1,8,0:2:0:0:
32,189,118955,1,4,0:3:0:0:
126,107,119115,5,10,0:2:0:0:
23,46,119272,1,4,0:3:0:0:
118,198,119429,1,4,0:3:0:0:
231,60,119587,5,8,0:3:0:0:
316,227,119750,1,8,0:3:0:0:
156,28,119914,1,8,0:3:0:0:
112,101,120078,5,8,0:2:0:0:
112,101,120160,1,8,0:2:0:0:
112,101,120242,1,8,0:2:0:0:
185,133,120406,1,8,0:2:0:0:
363,57,120562,5,8,0:2:0:0:
436,89,120722,1,8,0:2:0:0:
392,162,120882,1,8,0:2:0:0:
392,162,120962,1,8,0:2:0:0:
392,162,121042,2,0,B|133:97|289:364|2:388|-46:63|141:94|191:167|153:233,1,546.12000833313,6|0,1:2|0:2,0:2:0:0:
498,206,122802,2,0,B|559:171|581:-7|397:-68|357:-44|321:96|448:80,1,424.760006481323,6|0,1:2|0:2,0:2:0:0:
421,80,124253,1,0,0:0:0:0:
297,68,124400,5,8,0:3:0:0:
297,68,124694,2,0,B|315:267|316:363,1,296,6|0,1:2|0:0,0:2:0:0:
323,365,125831,2,0,L|319:305,1,60.6800009259034,8|0,0:3|0:0,0:0:0:0:
483,95,126156,2,0,P|443:101|385:171,1,121.360001851807,4|0,0:3|0:0,0:0:0:0:
237,322,126644,6,0,B|174:371|42:338|87:254,1,222,6|8,1:2|0:2,0:2:0:0:
401,299,127295,2,0,B|472:348|526:306|523:249,1,148,8|4,0:2|0:3,0:0:0:0:
326,362,127763,1,8,0:2:0:0:
326,362,128083,2,0,B|325:266|307:79,1,270.839988841736,4|8,1:2|0:2,0:2:0:0:
309,66,128643,1,8,0:3:0:0:
311,70,128723,2,0,P|265:45|183:161,1,195.359999403809,6|0,1:2|0:2,0:2:0:0:
80,279,129203,6,0,B|176:243|176:243|184:282|212:309,1,146.519999552856,10|0,0:2|0:0,0:2:0:0:
207,296,129523,1,0,1:2:0:0:
452,191,129683,2,0,B|334:175|382:233|254:203,1,195.359999403809,2|0,1:2|1:2,0:2:0:0:
472,310,130163,1,10,0:2:0:0:
477,316,130483,2,0,P|487:218|512:86,1,222,2|0,1:2|1:2,0:2:0:0:
275,360,131127,1,8,0:2:0:0:
217,226,131286,1,0,1:0:0:0:
365,271,131445,1,0,1:0:0:0:
293,366,131605,2,0,P|291:323|283:281,1,74,2|0,1:2|0:2,0:2:0:0:
236,128,131923,1,2,1:2:0:0:
31,344,132083,5,8,0:2:0:0:
31,344,132401,2,0,P|123:353|163:184,1,293.039999105713,6|0,1:2|1:2,0:2:0:0:
0,106,133039,2,0,B|116:128|69:62|199:76,1,195.359999403809,10|0,0:2|1:2,0:2:0:0:
459,20,133522,2,0,P|445:59|435:130,1,97.6799997019043,10|0,0:2|0:2,0:2:0:0:
409,280,133839,1,10,0:2:0:0:
308,26,133998,5,0,1:2:0:0:
308,26,134315,2,0,P|336:85|342:238,1,195.359999403809,6|8,1:2|0:2,0:2:0:0:
258,360,134791,1,8,0:2:0:0:
120,230,134950,1,8,0:2:0:0:
39,368,135109,1,4,0:3:0:0:
124,328,135268,1,6,0:3:0:0:
260,206,135426,2,0,P|310:221|359:231,1,74,10|0,0:2|0:0,0:0:0:0:
113,97,135753,2,0,P|194:93|300:68,1,157.619992063202,14|0,0:2|0:2,0:2:0:0:
354,46,136081,1,8,0:2:0:0:
461,197,136245,1,8,0:2:0:0:
368,354,136409,6,0,P|353:311|391:160,1,195.359999403809,6|0,1:2|0:2,0:2:0:0:
428,0,136889,1,10,0:2:0:0:
511,62,137049,1,0,0:0:0:0:
428,0,137209,1,0,1:2:0:0:
266,133,137369,2,0,P|219:143|154:172,1,97.6799997019043,2|0,1:2|0:2,0:2:0:0:
383,169,137689,1,0,1:2:0:0:
143,79,137849,5,10,0:2:0:0:
143,79,138169,2,0,B|163:10|70:-32|-59:57|-8:218|94:236,1,359.640008780274,4|0,1:2|1:0,0:0:0:0:
339,139,138809,2,0,P|277:158|204:170,1,119.880002926758,8|0,0:0|0:0,0:0:0:0:
314,332,139121,1,2,1:2:0:0:
429,178,139277,5,0,1:2:0:0:
503,244,139434,1,0,1:2:0:0:
429,178,139590,1,2,1:2:0:0:
326,228,139746,5,8,0:2:0:0:
190,283,139907,1,0,1:2:0:0:
137,154,140068,1,6,1:2:0:0:
137,154,140149,1,0,1:0:0:0:
137,154,140229,2,0,B|276:159|197:229|344:228,1,210.159989417603,2|0,1:2|1:2,0:0:0:0:
449,22,140713,2,0,B|518:65|518:65|549:140|472:178,1,210.159989417603,10|0,0:2|1:0,0:2:0:0:
481,174,141197,1,14,0:2:0:0:
385,87,141358,1,8,0:2:0:0:
274,155,141520,5,10,0:2:0:0:
87,219,141681,1,10,0:2:0:0:
87,219,141991,1,6,0:3:0:0:
169,158,142154,1,12,0:2:0:0:
169,158,142235,1,8,0:2:0:0:
169,158,142316,1,8,0:2:0:0:
244,236,142479,1,4,0:3:0:0:
326,328,142641,5,8,0:2:0:0:
465,284,142799,1,8,0:2:0:0:
385,212,142958,1,6,0:3:0:0:
121,384,143117,6,0,P|144:332|156:222,1,146.519999552856,14|0,0:2|0:0,0:0:0:0:
169,158,143434,1,14,0:2:0:0:
169,158,143910,2,0,P|243:181|357:90,1,226.44000138208,6|0,0:2|1:2,0:2:0:0:
369,26,144545,1,8,0:2:0:0:
455,6,144706,1,0,1:2:0:0:
511,74,144867,1,0,1:2:0:0:
347,260,145028,2,0,P|340:297|331:360,1,97.6799997019043,2|0,1:2|0:2,0:2:0:0:
311,182,145351,1,2,1:2:0:0:
415,384,145512,5,8,0:2:0:0:
415,384,145835,1,2,1:2:0:0:
266,260,145996,2,0,P|201:242|109:330,1,195.359999403809,0|0,1:0|0:0,0:0:0:0:
76,382,146479,1,8,0:2:0:0:
11,339,146641,1,0,1:2:0:0:
77,52,146802,5,10,0:2:0:0:
147,135,146963,2,0,P|158:186|173:233,1,75.4800004606934,0|0,1:2|0:0,0:2:0:0:
86,62,147286,1,0,1:2:0:0:
17,123,147448,2,0,P|6:176|-14:225,1,74,8|8,0:2|0:2,0:0:0:0:
0,194,147682,1,8,0:0:0:0:
0,194,147760,1,8,0:2:0:0:
290,151,147916,6,0,B|407:166|339:217|508:221,1,195.359999403809,6|0,1:2|0:2,0:2:0:0:
254,17,148396,1,8,0:2:0:0:
254,17,148716,2,0,P|202:29|209:233,1,293.039999105713,6|8,1:2|0:2,0:2:0:0:
456,312,149356,2,0,P|444:263|444:240,1,68.0799977145997,10|0,0:3|0:0,0:2:0:0:
504,187,149676,2,0,B|337:190|434:244|252:223,1,244.199999254761,6|8,1:2|0:2,0:2:0:0:
245,223,150156,1,8,0:2:0:0:
59,174,150316,5,8,0:2:0:0:
123,112,150471,1,4,0:3:0:0:
208,147,150627,1,4,0:3:0:0:
374,356,150782,6,0,P|370:314|358:241,1,97.6799997019043,10|0,0:2|0:0,0:0:0:0:
306,26,151102,1,10,0:2:0:0:
306,26,151422,1,2,0:0:0:0:
306,26,151502,1,2,0:0:0:0:
306,26,151582,2,0,P|403:45|456:175,1,222,6|0,1:2|0:2,0:2:0:0:
283,302,152231,2,0,P|280:264|306:216,1,74,8|0,0:2|0:2,0:2:0:0:
353,154,152557,1,2,1:2:0:0:
413,241,152719,2,0,P|426:275|423:312,1,74,2|0,1:2|0:2,0:2:0:0:
252,160,153039,5,2,1:2:0:0:
54,241,153199,1,8,0:2:0:0:
54,241,153519,2,0,B|79:209|182:224|246:266,1,195.359999403809,6|8,1:2|0:2,0:2:0:0:
336,247,153999,1,10,0:2:0:0:
397,120,154159,1,8,1:3:0:0:
316,91,154321,1,8,0:3:0:0:
260,158,154484,1,10,0:3:0:0:
168,303,154646,5,8,0:2:0:0:
51,334,154804,1,8,0:2:0:0:
2,218,154963,1,10,0:2:0:0:
176,148,155122,5,8,0:2:0:0:
351,286,155280,1,8,0:2:0:0:
176,148,155439,1,8,0:2:0:0:
243,375,155598,6,0,P|247:303|292:166,1,195.359999403809,6|0,1:2|0:2,0:2:0:0:
395,4,156081,2,0,P|426:66|441:208,1,195.359999403809,10|0,0:2|1:2,0:2:0:0:
139,187,156565,2,0,P|177:142|327:108,1,195.359999403809,2|0,1:2|0:2,0:2:0:0:
512,330,157045,2,0,B|383:310|474:262|316:229,1,195.359999403809,10|0,0:2|0:2,0:2:0:0:
102,43,157525,2,0,P|116:135|121:271,1,226.44000138208,6|8,1:2|0:2,0:2:0:0:
58,317,158165,1,0,1:0:0:0:
0,263,158325,1,0,1:2:0:0:
196,129,158485,6,0,P|287:117|365:184,1,195.359999403809,2|0,1:2|0:2,0:2:0:0:
385,350,158972,1,10,0:2:0:0:
448,255,159130,1,8,0:2:0:0:
385,350,159289,1,8,0:2:0:0:
209,194,159448,6,0,B|100:247|-47:174|52:40|123:103,1,293.039999105713,6|8,1:2|0:2,0:2:0:0:
92,88,160235,1,2,1:2:0:0:
305,251,160392,2,0,B|353:277|485:235|425:153,1,195.359999403809,2|0,1:2|0:2,0:2:0:0:
222,278,160879,2,0,P|228:319|231:362,1,75.4800004606934,10|0,0:2|1:0,0:2:0:0:
231,351,161123,1,0,1:0:0:0:
231,351,161205,1,0,1:2:0:0:
29,189,161367,6,0,P|55:212|188:218,1,146.519999552856,14|0,0:2|0:0,0:0:0:0:
216,163,161687,1,2,1:2:0:0:
466,196,161847,1,10,0:2:0:0:
466,196,162167,2,0,P|454:155|297:107,1,195.359999403809,2|0,1:2|1:0,0:0:0:0:
261,60,162652,1,2,1:2:0:0:
104,40,162814,1,8,0:2:0:0:
138,126,162971,1,8,0:2:0:0:
104,40,163128,1,8,0:2:0:0:
3,186,163286,6,0,P|48:198|87:215,2,74,6|0|0,1:2|0:0|0:0,0:0:0:0:
37,301,163762,6,0,P|81:288|124:284,2,74,10|0|0,0:2|1:2|1:2,0:0:0:0:
168,226,164238,6,0,P|213:238|252:255,2,74,2|0|0,1:2|1:2|1:2,0:0:0:0:
202,341,164725,6,0,P|246:328|289:324,2,74,10|0|0,0:2|1:2|1:2,0:0:0:0:
502,344,165213,6,0,P|495:313|495:268,1,74,6|0,1:2|0:0,0:0:0:0:
512,194,165531,1,0,0:0:0:0:
359,286,165691,6,0,P|368:256|390:217,1,74,10|0,0:2|1:2,0:0:0:0:
442,161,166009,1,0,1:2:0:0:
264,164,166169,6,0,P|287:143|325:120,1,74,2|0,1:2|1:2,0:0:0:0:
399,97,166487,1,0,1:2:0:0:
243,11,166647,6,0,P|273:4|318:4,1,74,10|0,0:2|1:2,0:0:0:0:
394,20,166965,1,0,1:2:0:0:
166,115,167125,5,6,1:2:0:0:
136,30,167284,1,0,1:0:0:0:
166,115,167444,1,0,1:0:0:0:
252,185,167603,5,10,0:2:0:0:
282,100,167765,1,0,1:2:0:0:
252,185,167928,1,0,1:2:0:0:
370,271,168090,5,2,1:2:0:0:
340,186,168247,1,0,1:2:0:0:
370,271,168404,1,0,1:2:0:0:
456,341,168562,5,10,0:2:0:0:
486,256,168722,1,0,1:2:0:0:
456,341,168882,1,0,1:2:0:0:
263,199,169042,5,2,1:2:0:0:
121,298,169202,1,2,1:2:0:0:
182,144,169362,1,2,1:2:0:0:
317,318,169522,5,10,0:2:0:0:
106,210,169685,1,0,1:0:0:0:
317,108,169849,1,0,1:0:0:0:
232,384,170013,6,0,P|225:325|208:230,1,148,10|2,0:2|1:2,0:0:0:0:
182,144,170422,1,0,1:0:0:0:
182,144,170496,2,0,B|312:147|225:204|418:205,1,222,14|6,0:2|1:2,0:2:0:0:
256,192,171056,12,0,176496,0:2:0:0:
