osu file format v14

[General]
AudioFilename: audio.mp3
AudioLeadIn: 0
PreviewTime: 47630
Countdown: 0
SampleSet: Soft
StackLeniency: 0.7
Mode: 0
LetterboxInBreaks: 0
WidescreenStoryboard: 0

[Editor]
Bookmarks: 243688
DistanceSpacing: 1.3
BeatDivisor: 4
GridSize: 32
TimelineZoom: 1

[Metadata]
Title:Hoshi no Kakera
TitleUnicode:ホシノカケラ
Artist:fhana
ArtistUnicode:fhána
Creator:Sotarks
Version:Hard
Source:天体のメソッド
Tags:sora no celestial method ending ED tv size akitoshi corinn
BeatmapID:1555291
BeatmapSetID:736954

[Difficulty]
HPDrainRate:5
CircleSize:3.5
OverallDifficulty:6
ApproachRate:7.5
SliderMultiplier:1.52
SliderTickRate:1

[Events]
//Background and Video events
0,0,"BG.jpg",0,0
//Break Periods
2,81489,82659
//Storyboard Layer 0 (Background)
//Storyboard Layer 1 (Fail)
//Storyboard Layer 2 (Pass)
//Storyboard Layer 3 (Foreground)
//Storyboard Sound Samples

[TimingPoints]
4460,731.707317073171,3,2,22,52,1,0
4460,-98.0392156862745,3,2,22,52,0,0
48362,-75.7575757575758,3,2,22,62,0,1
65923,-70.4225352112676,3,2,22,62,0,1
81289,-70.4225352112676,3,2,22,52,0,0
83484,-98.0392156862745,3,2,22,52,0,0

[Colours]
Combo1 : 254,192,192
Combo2 : 204,210,255
Combo3 : 255,224,193
Combo4 : 129,232,254

[HitObjects]
163,90,4460,6,0,P|204:102|239:142,1,77.5200004731445,6|0,1:2|0:0,0:0:0:0:
319,132,5008,2,0,P|329:189|329:198,2,38.7600002365723,10|2|8,0:2|3:2|3:0,0:0:0:0:
419,89,5557,1,14,0:2:0:0:
419,89,5740,2,0,L|414:203,1,77.5200004731445,0|8,0:0|0:0,0:0:0:0:
370,240,6289,2,0,L|380:305,1,38.7600002365723,2|0,0:0|1:0,0:0:0:0:
309,349,6655,6,0,P|268:305|238:292,1,77.5200004731445,6|0,1:2|0:0,0:0:0:0:
211,219,7203,2,0,P|166:235|152:244,2,38.7600002365723,10|2|8,0:2|3:2|3:0,0:0:0:0:
115,166,7752,2,0,P|166:128|192:93,1,77.5200004731445,14|10,0:2|3:2,0:0:0:0:
279,150,8301,2,0,P|239:175|213:219,1,77.5200004731445,0|0,3:0|1:0,0:0:0:0:
361,201,8850,5,6,1:2:0:0:
189,323,9216,1,0,0:0:0:0:
115,269,9399,2,0,L|65:262,2,38.7600002365723,10|2|8,0:2|3:2|3:0,0:0:0:0:
199,215,9947,2,0,L|187:115,1,77.5200004731445,14|2,0:2|1:2,0:0:0:0:
252,63,10496,1,8,0:0:0:0:
252,63,10679,2,0,L|306:61,1,38.7600002365723,2|0,0:0|1:0,0:0:0:0:
383,116,11045,6,0,P|323:143|304:167,1,77.5200004731445,6|0,1:2|0:0,0:0:0:0:
271,241,11594,2,0,P|228:255|212:253,2,38.7600002365723,10|2|8,0:2|3:2|3:0,0:0:0:0:
185,188,12142,1,12,0:0:0:0:
185,188,12325,2,0,L|93:205,1,77.5200004731445,8|8,3:0|3:0,0:0:0:0:
106,120,12874,2,0,L|159:113,1,38.7600002365723,2|2,3:2|1:2,0:0:0:0:
279,44,13240,6,0,P|310:34|376:68,1,77.5200004731445,6|0,1:0|0:0,0:0:0:0:
408,114,13789,2,0,L|414:159,2,38.7600002365723,8|0|8,0:0|0:0|3:0,0:0:0:0:
499,75,14338,2,0,L|495:183,1,77.5200004731445,10|0,0:0|1:0,0:0:0:0:
453,225,14886,2,0,L|464:298,1,38.7600002365723,8|0,0:0|3:0,0:0:0:0:
409,345,15252,1,0,1:0:0:0:
329,285,15435,6,0,P|271:258|229:263,1,77.5200004731445,6|0,1:0|0:0,0:0:0:0:
158,275,15984,2,0,P|117:289|97:288,2,38.7600002365723,8|0|8,0:0|0:0|3:0,0:0:0:0:
184,183,16533,1,8,0:0:0:0:
184,183,16899,2,0,L|177:128,1,38.7600002365723,2|8,1:0|0:0,0:0:0:0:
269,99,17264,2,0,L|260:136,1,38.7600002365723,2|0,3:0|0:0,0:0:0:0:
364,117,17630,6,0,P|422:128|456:165,1,77.5200004731445,6|0,1:0|0:0,0:0:0:0:
474,226,18179,2,0,L|481:277,2,38.7600002365723,8|0|8,0:0|3:0|3:0,0:0:0:0:
379,207,18728,2,0,L|376:316,1,77.5200004731445,10|0,0:0|3:0,0:0:0:0:
304,342,19277,2,0,L|296:290,1,38.7600002365723,8|0,0:0|3:0,0:0:0:0:
226,247,19642,1,0,1:0:0:0:
144,334,19825,5,6,1:0:0:0:
144,334,20191,2,0,P|90:320|83:320,1,38.7600002365723,2|8,0:0|0:0,0:0:0:0:
44,255,20557,2,0,P|66:250|86:242,1,38.7600002365723,0|8,0:0|3:0,0:0:0:0:
145,170,20923,2,0,P|122:165|104:160,1,38.7600002365723,8|0,0:0|0:0,0:0:0:0:
45,94,21289,2,0,P|67:89|87:81,1,38.7600002365723,2|8,1:0|0:0,0:0:0:0:
173,87,21655,2,0,P|194:78|216:74,1,38.7600002365723,2|0,3:0|0:0,0:0:0:0:
302,42,22020,6,0,L|292:151,1,77.5200004731445,6|0,1:0|0:0,0:0:0:0:
320,208,22569,2,0,L|368:195,2,38.7600002365723,8|0|8,0:0|0:0|3:0,0:0:0:0:
231,179,23118,2,0,P|203:175|182:177,1,38.7600002365723,10|0,0:0|0:0,0:0:0:0:
127,259,23484,2,0,P|149:255|170:256,1,38.7600002365723,2|8,1:0|0:0,0:0:0:0:
234,342,23850,2,0,P|204:338|186:339,1,38.7600002365723,0|0,3:0|1:0,0:0:0:0:
90,341,24216,6,0,P|52:310|44:252,1,77.5200004731445,6|0,1:0|0:0,0:0:0:0:
71,187,24764,2,0,L|64:115,2,38.7600002365723,8|0|8,0:0|0:0|3:0,0:0:0:0:
127,259,25313,2,0,P|177:255|221:270,1,77.5200004731445,10|2,0:0|1:0,0:0:0:0:
283,228,25862,2,0,L|290:161,2,38.7600002365723,8|2|0,0:0|3:0|0:0,0:0:0:0:
381,272,26411,6,0,L|392:163,1,77.5200004731445,6|0,1:0|0:0,0:0:0:0:
440,113,26960,2,0,P|478:102|494:102,2,38.7600002365723,8|0|8,0:0|0:0|3:0,0:0:0:0:
351,91,27508,2,0,P|309:81|291:72,1,38.7600002365723,10|0,0:0|0:0,0:0:0:0:
223,34,27874,2,0,P|180:45|163:53,1,38.7600002365723,0|8,3:0|0:0,0:0:0:0:
129,111,28240,2,0,P|109:104|84:101,1,38.7600002365723,0|0,3:0|1:0,0:0:0:0:
0,50,28606,6,0,L|18:189,1,116.280000709717,6|8,1:0|0:0,0:0:0:0:
97,222,29338,2,0,L|80:278,1,38.7600002365723,0|8,0:0|3:0,0:0:0:0:
64,355,29703,1,8,0:0:0:0:
64,355,30069,2,0,P|95:355|115:347,1,38.7600002365723,2|8,1:0|0:0,0:0:0:0:
191,294,30435,2,0,P|214:293|234:297,1,38.7600002365723,2|0,3:0|0:0,0:0:0:0:
324,323,30801,6,0,L|315:215,1,77.5200004731445,6|0,1:0|0:0,0:0:0:0:
370,170,31350,2,0,L|417:161,2,38.7600002365723,8|0|8,0:0|0:0|3:0,0:0:0:0:
288,123,31899,1,10,0:0:0:0:
288,123,32264,1,0,1:0:0:0:
203,170,32447,2,0,L|148:182,2,38.7600002365723,8|0|0,0:0|3:0|1:0,0:0:0:0:
119,113,32996,5,6,1:0:0:0:
119,113,33362,2,0,P|86:160|87:174,1,38.7600002365723,0|8,0:0|0:0,0:0:0:0:
60,226,33728,2,0,L|72:296,1,38.7600002365723,0|8,0:0|3:0,0:0:0:0:
142,325,34094,2,0,L|148:282,1,38.7600002365723,8|0,0:0|0:0,0:0:0:0:
222,226,34460,2,0,P|264:221|278:224,1,38.7600002365723,2|8,1:0|0:0,0:0:0:0:
336,278,34825,2,0,P|362:279|381:273,1,38.7600002365723,2|0,3:0|0:0,0:0:0:0:
465,306,35191,6,0,L|473:196,1,77.5200004731445,6|0,1:0|0:0,0:0:0:0:
437,146,35740,2,0,L|439:73,2,38.7600002365723,8|0|8,0:0|0:0|3:0,0:0:0:0:
358,187,36289,2,0,P|317:200|290:197,1,38.7600002365723,10|0,0:0|0:0,0:0:0:0:
238,147,36655,2,0,P|218:149|193:158,1,38.7600002365723,0|8,1:0|0:0,0:0:0:0:
120,218,37020,2,0,L|111:153,1,38.7600002365723,0|0,3:0|1:0,0:0:0:0:
35,121,37386,6,0,L|26:226,1,77.5200004731445,6|0,1:0|0:0,0:0:0:0:
71,289,37935,2,0,P|124:272|174:283,1,77.5200004731445,10|0,0:0|1:0,0:0:0:0:
241,313,38484,2,0,P|278:329|329:324,1,77.5200004731445,10|0,0:0|0:0,0:0:0:0:
404,277,39033,2,0,P|424:270|470:267,2,38.7600002365723,8|2|0,0:0|3:0|0:0,0:0:0:0:
340,207,39581,6,0,L|330:114,1,77.5200004731445,4|0,1:0|3:0,0:0:0:0:
253,68,40130,2,0,L|245:22,2,38.7600002365723,8|0|8,0:0|0:0|3:0,0:0:0:0:
179,120,40679,2,0,L|125:110,1,38.7600002365723,10|0,0:0|0:0,0:0:0:0:
90,203,41045,2,0,L|144:196,1,38.7600002365723,2|8,3:0|0:0,0:0:0:0:
180,293,41411,2,0,L|128:282,1,38.7600002365723,2|0,3:0|1:0,0:0:0:0:
230,210,41777,6,0,P|293:198|338:201,1,77.5200004731445,6|0,1:0|0:0,0:0:0:0:
400,236,42325,2,0,P|413:289|414:300,2,38.7600002365723,8|0|8,0:0|0:0|3:0,0:0:0:0:
409,145,42874,2,0,P|404:76|413:37,1,77.5200004731445,8|2,0:0|1:0,0:0:0:0:
323,22,43423,1,8,0:0:0:0:
269,89,43606,2,0,P|240:97|203:91,1,38.7600002365723,2|0,3:0|0:0,0:0:0:0:
129,76,43972,6,0,P|151:141|154:184,1,77.5200004731445,6|0,1:0|0:0,0:0:0:0:
207,240,44520,2,0,P|200:286|190:314,2,38.7600002365723,8|0|0,0:0|0:0|0:0,0:0:0:0:
268,167,45069,2,0,L|374:155,1,77.5200004731445,10|0,0:0|3:0,0:0:0:0:
407,253,45618,2,0,L|301:236,1,77.5200004731445,8|0,0:0|1:0,0:0:0:0:
278,344,46167,6,0,L|264:282,1,38.7600002365723,6|0,1:0|0:0,0:0:0:0:
197,207,46533,2,0,L|189:251,1,38.7600002365723,2|8,3:0|0:0,0:0:0:0:
113,319,46899,2,0,L|103:273,1,38.7600002365723,2|8,0:0|3:0,0:0:0:0:
34,194,47264,2,0,L|26:235,1,38.7600002365723,10|8,0:0|0:0,0:0:0:0:
117,149,47630,5,8,3:0:0:0:
41,103,47813,1,0,1:0:0:0:
135,57,47996,5,8,3:0:0:0:
47,72,48179,1,0,1:0:0:0:
216,24,48362,6,0,P|230:86|224:166,1,100.319999693848,6|2,1:0|0:0,0:0:0:0:
306,209,48911,2,0,P|310:154|315:137,1,50.1599998469238,8|0,3:0|0:0,0:0:0:0:
381,95,49277,1,0,1:0:0:0:
416,218,49460,1,10,0:0:0:0:
416,218,49825,2,0,L|407:285,1,50.1599998469238,2|8,1:0|0:0,0:0:0:0:
321,287,50191,2,0,L|328:345,1,50.1599998469238,2|0,0:0|1:0,0:0:0:0:
225,311,50557,5,4,1:0:0:0:
225,311,50740,2,0,P|165:275|113:275,1,100.319999693848,0|8,3:0|0:0,0:0:0:0:
40,218,51289,2,0,P|94:198|101:192,1,50.1599998469238,0|8,1:0|3:0,0:0:0:0:
155,100,51655,1,10,0:0:0:0:
155,100,52020,2,0,L|214:89,1,50.1599998469238,2|8,1:0|0:0,0:0:0:0:
299,48,52386,2,0,L|351:55,1,50.1599998469238,2|8,1:0|3:0,0:0:0:0:
451,148,52752,5,6,1:0:0:0:
451,148,52935,2,0,P|385:156|339:205,1,100.319999693848,8|0,3:0|3:0,0:0:0:0:
299,278,53484,2,0,P|246:296|214:290,1,50.1599998469238,2|8,0:0|3:0,0:0:0:0:
133,271,53850,1,10,0:0:0:0:
133,271,54216,2,0,L|124:205,1,50.1599998469238,2|8,1:0|0:0,0:0:0:0:
163,118,54581,2,0,L|172:65,1,50.1599998469238,2|0,1:0|1:0,0:0:0:0:
300,28,54947,6,0,P|262:86|263:160,1,100.319999693848,6|0,1:0|0:0,0:0:0:0:
329,222,55496,2,0,P|265:225|247:237,1,50.1599998469238,8|0,0:0|0:0,0:0:0:0:
199,286,55862,1,8,3:0:0:0:
317,336,56045,1,10,0:0:0:0:
317,336,56411,2,0,L|378:325,1,50.1599998469238,2|8,1:0|0:0,0:0:0:0:
473,314,56777,1,2,1:0:0:0:
411,249,56960,1,2,1:0:0:0:
487,204,57142,6,0,P|420:212|401:205,1,50.1599998469238,6|8,1:0|3:0,0:0:0:0:
349,180,57508,2,0,P|320:178|291:192,1,50.1599998469238,2|0,0:0|1:0,0:0:0:0:
202,251,57874,2,0,L|210:188,1,50.1599998469238,2|8,1:0|3:0,0:0:0:0:
134,142,58240,2,0,L|126:84,1,50.1599998469238,10|0,0:0|0:0,0:0:0:0:
209,28,58606,1,2,1:0:0:0:
209,28,58789,1,8,0:0:0:0:
261,102,58972,1,2,1:0:0:0:
261,102,59155,1,0,1:0:0:0:
370,35,59338,6,0,P|430:67|440:78,1,50.1599998469238,6|0,1:0|0:0,0:0:0:0:
476,128,59703,2,0,P|418:160|406:171,1,50.1599998469238,2|0,0:0|1:0,0:0:0:0:
399,246,60069,2,0,L|342:220,1,50.1599998469238,2|8,0:0|3:0,0:0:0:0:
258,184,60435,2,0,L|204:205,1,50.1599998469238,10|0,0:0|0:0,0:0:0:0:
157,300,60801,1,2,3:0:0:0:
157,300,60984,1,8,0:0:0:0:
95,224,61167,1,10,3:0:0:0:
95,224,61350,1,0,1:0:0:0:
0,302,61533,6,0,P|17:248|19:228,1,50.1599998469238,6|0,1:0|0:0,0:0:0:0:
30,150,61899,2,0,P|38:119|52:94,1,50.1599998469238,2|8,3:0|3:0,0:0:0:0:
138,34,62264,2,0,P|149:63|155:90,1,50.1599998469238,2|8,1:0|3:0,0:0:0:0:
169,186,62630,2,0,P|175:216|186:242,1,50.1599998469238,10|0,0:0|0:0,0:0:0:0:
274,300,62996,1,2,1:0:0:0:
274,300,63179,1,8,0:0:0:0:
303,207,63362,1,2,1:0:0:0:
303,207,63545,1,8,3:0:0:0:
384,280,63728,5,2,1:0:0:0:
439,196,63911,2,0,L|445:56,1,100.319999693848,12|0,0:0|1:0,0:0:0:0:
348,85,64460,2,0,L|289:69,1,50.1599998469238,12|0,0:0|3:0,0:0:0:0:
216,123,64825,5,14,3:0:0:0:
178,29,65008,1,8,0:0:0:0:
116,131,65191,5,14,3:0:0:0:
167,49,65374,1,8,0:0:0:0:
199,158,65557,5,2,1:0:0:0:
99,125,65740,1,0,1:0:0:0:
34,203,65923,5,6,1:0:0:0:
34,203,66106,2,0,P|59:271|66:334,1,107.919994565796,8|8,0:0|3:0,0:0:0:0:
150,364,66655,2,0,P|186:315|201:303,1,53.9599972828981,0|0,0:0|1:0,0:0:0:0:
303,281,67020,1,10,0:0:0:0:
303,281,67386,2,0,L|281:220,1,53.9599972828981,2|8,1:0|0:0,0:0:0:0:
328,133,67752,2,0,L|346:82,1,53.9599972828981,2|0,0:0|1:0,0:0:0:0:
253,29,68118,5,4,1:0:0:0:
253,29,68484,2,0,P|196:57|178:58,1,53.9599972828981,0|8,0:0|0:0,0:0:0:0:
180,146,68850,2,0,P|127:110|117:95,1,53.9599972828981,0|8,1:0|3:0,0:0:0:0:
122,32,69216,1,10,0:0:0:0:
122,32,69581,2,0,L|49:46,1,53.9599972828981,2|8,1:0|0:0,0:0:0:0:
0,109,69947,2,0,L|73:123,1,53.9599972828981,2|8,1:0|3:0,0:0:0:0:
97,208,70313,6,0,P|137:258|202:256,1,107.919994565796,6|0,1:0|0:0,0:0:0:0:
259,314,70862,2,0,P|272:259|270:248,1,53.9599972828981,8|0,0:0|1:0,0:0:0:0:
226,189,71228,1,8,3:0:0:0:
219,102,71411,2,0,P|221:75|232:50,1,53.9599972828981,10|0,0:0|0:0,0:0:0:0:
326,25,71777,1,0,1:0:0:0:
326,25,71960,2,0,L|336:152,1,107.919994565796,10|0,0:0|1:0,0:0:0:0:
403,204,72508,6,0,P|331:226|308:277,1,107.919994565796,6|0,1:0|3:0,0:0:0:0:
229,221,73057,2,0,P|224:283|234:300,1,53.9599972828981,10|0,0:0|1:0,0:0:0:0:
291,331,73423,1,0,0:0:0:0:
169,364,73606,1,10,0:0:0:0:
169,364,73972,2,0,L|113:335,1,53.9599972828981,10|8,3:0|0:0,0:0:0:0:
109,249,74338,2,0,L|61:273,1,53.9599972828981,10|8,3:0|0:0,0:0:0:0:
35,360,74703,5,6,1:0:0:0:
35,360,74886,2,0,L|18:225,1,107.919994565796,8|0,0:0|1:0,0:0:0:0:
60,171,75435,2,0,L|70:104,1,53.9599972828981,0|8,1:0|3:0,0:0:0:0:
13,29,75801,1,8,0:0:0:0:
13,29,76167,2,0,P|66:38|85:32,1,53.9599972828981,2|8,1:0|0:0,0:0:0:0:
161,76,76533,2,0,P|187:76|213:85,1,53.9599972828981,10|0,3:0|1:0,0:0:0:0:
294,30,76899,6,0,L|309:170,1,107.919994565796,6|0,1:0|0:0,0:0:0:0:
401,144,77447,2,0,L|374:207,1,53.9599972828981,8|0,0:0|1:0,0:0:0:0:
295,222,77813,1,8,3:0:0:0:
409,291,77996,1,10,0:0:0:0:
409,291,78362,2,0,P|354:313|335:327,1,53.9599972828981,0|8,1:0|0:0,0:0:0:0:
286,364,78728,1,10,3:0:0:0:
286,364,78911,1,2,1:0:0:0:
212,290,79094,6,0,P|164:251|88:241,1,107.919994565796,6|0,1:0|3:0,0:0:0:0:
39,194,79642,2,0,P|16:179|0:158,2,53.9599972828981,10|0|0,0:0|1:0|0:0,0:0:0:0:
86,99,80191,1,14,0:0:0:0:
161,157,80374,1,0,1:0:0:0:
218,63,80557,5,8,3:0:0:0:
178,173,80740,1,0,3:0:0:0:
267,144,80923,1,8,3:0:0:0:
267,144,81106,1,10,3:0:0:0:
150,253,81289,5,6,1:0:0:0:
349,294,83484,6,0,P|308:282|273:242,1,77.5200004731445,6|0,1:2|0:0,0:0:0:0:
193,252,84033,2,0,P|183:195|183:186,2,38.7600002365723,10|2|8,0:2|3:2|3:0,0:0:0:0:
93,295,84581,1,14,0:2:0:0:
93,295,84764,2,0,L|98:181,1,77.5200004731445,0|8,0:0|0:0,0:0:0:0:
142,144,85313,2,0,L|132:79,1,38.7600002365723,2|0,0:0|1:0,0:0:0:0:
203,35,85679,6,0,P|244:79|274:92,1,77.5200004731445,6|0,1:2|0:0,0:0:0:0:
301,165,86228,2,0,P|346:149|360:140,2,38.7600002365723,10|2|8,0:2|3:2|3:0,0:0:0:0:
397,218,86777,2,0,P|346:256|320:291,1,77.5200004731445,14|10,0:2|3:2,0:0:0:0:
233,234,87325,2,0,P|273:209|299:165,1,77.5200004731445,0|0,3:0|1:0,0:0:0:0:
151,183,87874,5,6,1:2:0:0:
323,61,88240,1,0,0:0:0:0:
397,115,88423,2,0,L|447:122,2,38.7600002365723,10|2|8,0:2|3:2|3:0,0:0:0:0:
313,169,88972,2,0,L|325:269,1,77.5200004731445,14|2,0:2|1:2,0:0:0:0:
260,321,89520,1,8,0:0:0:0:
260,321,89703,2,0,L|206:323,1,38.7600002365723,2|0,0:0|1:0,0:0:0:0:
129,268,90069,6,0,P|189:241|208:217,1,77.5200004731445,6|0,1:2|0:0,0:0:0:0:
241,143,90618,2,0,P|284:129|300:131,2,38.7600002365723,10|2|8,0:2|3:2|3:0,0:0:0:0:
327,196,91166,1,8,0:0:0:0:
327,196,91350,2,0,L|419:179,1,77.5200004731445,8|8,3:0|3:0,0:0:0:0:
406,264,91898,2,0,L|353:271,1,38.7600002365723,2|2,3:2|1:2,0:0:0:0:
286,314,92264,6,0,P|275:272|293:222,1,77.5200004731445,6|0,1:2|0:0,0:0:0:0:
245,159,92813,2,0,P|289:121|297:117,2,38.7600002365723,10|2|8,0:2|3:2|3:0,0:0:0:0:
156,82,93361,1,14,0:2:0:0:
156,82,93545,2,0,P|202:76|243:38,1,77.5200004731445,0|8,0:0|0:0,0:0:0:0:
313,61,94094,2,0,L|364:19,1,38.7600002365723,2|0,0:0|1:0,0:0:0:0:
438,59,94460,6,0,L|424:148,1,77.5200004731445,6|0,1:2|0:0,0:0:0:0:
381,222,95008,2,0,L|357:174,2,38.7600002365723,10|2|8,0:2|3:2|3:0,0:0:0:0:
377,319,95557,2,0,L|275:288,1,77.5200004731445,14|10,0:2|3:2,0:0:0:0:
275,204,96106,2,0,L|367:226,1,77.5200004731445,0|0,3:0|1:0,0:0:0:0:
318,120,96654,5,6,1:2:0:0:
399,148,96838,1,0,0:0:0:0:
476,176,97020,1,0,0:0:0:0:
466,267,97203,2,0,L|484:313,2,38.7600002365723,10|2|8,0:2|3:2|3:0,0:0:0:0:
377,222,97752,2,0,L|296:282,1,77.5200004731445,14|2,0:2|1:2,0:0:0:0:
219,252,98300,1,8,0:0:0:0:
219,252,98484,2,0,L|190:206,1,38.7600002365723,2|0,0:0|1:0,0:0:0:0:
199,112,98850,6,0,P|252:150|282:154,1,77.5200004731445,6|0,1:2|0:0,0:0:0:0:
364,146,99398,2,0,P|397:176|403:191,2,38.7600002365723,10|2|8,0:2|3:2|3:0,0:0:0:0:
361,247,99946,1,8,0:0:0:0:
361,247,100130,2,0,L|421:318,1,77.5200004731445,8|8,3:0|3:0,0:0:0:0:
341,350,100679,2,0,L|308:307,1,38.7600002365723,2|2,3:2|1:2,0:0:0:0:
224,307,101045,5,6,1:2:0:0:
224,307,101228,2,0,L|204:207,2,77.5200004731445,0|10|8,0:0|0:2|3:0,0:0:0:0:
140,310,102142,1,14,0:2:0:0:
140,310,102325,2,0,L|120:210,2,77.5200004731445,0|8|0,0:0|0:0|1:0,0:0:0:0:
40,256,103240,6,0,P|45:202|70:176,1,77.5200004731445,6|0,1:2|0:0,0:0:0:0:
141,139,103789,2,0,P|160:106|159:67,1,77.5200004731445,10|8,0:2|3:0,0:0:0:0:
241,31,104338,2,0,L|253:92,1,38.7600002365723,14|0,0:2|0:0,0:0:0:0:
328,69,104703,2,0,L|316:130,1,38.7600002365723,10|0,3:2|3:0,0:0:0:0:
247,148,105069,2,0,L|259:209,1,38.7600002365723,2|0,0:0|1:0,0:0:0:0:
297,276,105435,6,0,L|204:269,1,77.5200004731445,6|0,1:2|0:0,0:0:0:0:
129,268,105984,2,0,L|135:315,2,38.7600002365723,10|2|8,0:2|3:2|3:0,0:0:0:0:
182,144,106533,1,14,0:2:0:0:
71,198,106716,1,8,0:0:0:0:
99,109,106899,5,2,1:2:0:0:
99,109,107081,1,8,0:0:0:0:
182,144,107264,1,2,0:0:0:0:
182,144,107447,1,0,1:0:0:0:
254,97,107630,5,2,0:0:0:0:
256,192,107813,12,0,112020,0:0:0:0:
