osu file format v14

[General]
AudioFilename: audio.mp3
AudioLeadIn: 0
PreviewTime: 47630
Countdown: 0
SampleSet: Soft
StackLeniency: 0.7
Mode: 0
LetterboxInBreaks: 0
WidescreenStoryboard: 0

[Editor]
Bookmarks: 4460,13240,22020,30801,39581,48362,57142,65923,74703,83484,92264,101045,107630,112020,243688
DistanceSpacing: 1
BeatDivisor: 4
GridSize: 32
TimelineZoom: 1

[Metadata]
Title:Hoshi no Kakera
TitleUnicode:ホシノカケラ
Artist:fhana
ArtistUnicode:fhána
Creator:Sotarks
Version:Akitoshi's Normal
Source:天体のメソッド
Tags:sora no celestial method ending ED tv size akitoshi corinn
BeatmapID:1555290
BeatmapSetID:736954

[Difficulty]
HPDrainRate:3
CircleSize:3.3
OverallDifficulty:4
ApproachRate:5
SliderMultiplier:2
SliderTickRate:1

[Events]
//Background and Video events
0,0,"BG.jpg",0,0
//Break Periods
2,81489,82284
//Storyboard Layer 0 (Background)
//Storyboard Layer 1 (Fail)
//Storyboard Layer 2 (Pass)
//Storyboard Layer 3 (Foreground)
//Storyboard Sound Samples

[TimingPoints]
4460,731.707317073171,3,2,22,52,1,0
4460,-100,3,2,22,52,0,0
48362,-90.9090909090909,3,2,22,62,0,1
81289,-100,3,2,22,52,0,0
83484,-100,3,2,22,52,0,0

[Colours]
Combo1 : 254,192,192
Combo2 : 204,210,255
Combo3 : 255,224,193
Combo4 : 129,232,254

[HitObjects]
78,116,4460,6,0,P|121:103|192:114,1,100,6|0,1:2|0:0,0:0:0:0:
221,126,5008,2,0,L|355:115,1,100,10|8,0:2|3:0,0:0:0:0:
370,112,5557,1,14,0:2:0:0:
452,169,5923,1,2,1:2:0:0:
468,267,6289,1,2,0:0:0:0:
410,348,6655,6,0,P|356:359|283:343,1,100,6|0,1:2|0:0,0:0:0:0:
269,327,7203,2,0,L|260:226,1,100,10|8,0:2|3:0,0:0:0:0:
254,177,7752,1,14,0:2:0:0:
194,96,8118,1,10,3:2:0:0:
95,81,8484,1,2,0:0:0:0:
12,138,8850,6,0,P|2:190|13:240,1,100,6|0,1:2|0:0,0:0:0:0:
31,281,9399,2,0,P|83:271|133:282,1,100,10|8,0:2|3:0,0:0:0:0:
172,303,9947,1,14,0:2:0:0:
264,341,10313,1,2,1:2:0:0:
363,327,10679,1,2,0:0:0:0:
430,252,11045,6,0,L|422:142,1,100,6|0,1:2|0:0,0:0:0:0:
418,102,11594,2,0,P|365:83|302:89,1,100,10|8,0:2|3:0,0:0:0:0:
275,102,12142,1,12,0:0:0:0:
207,175,12508,1,0,3:0:0:0:
107,187,12874,2,0,L|49:183,1,50,2|2,3:2|1:2,0:0:0:0:
7,177,13240,6,0,B|0:39|0:39|70:69,1,200,6|0,1:0|0:0,0:0:0:0:
154,87,14338,2,0,L|272:81,1,100,10|0,0:0|1:0,0:0:0:0:
308,81,14886,1,8,0:0:0:0:
308,81,15069,1,0,0:0:0:0:
408,79,15435,6,0,P|421:133|408:183,1,100,6|0,1:0|0:0,0:0:0:0:
372,207,15984,2,0,P|359:261|372:311,1,100,8|8,0:0|3:0,0:0:0:0:
383,351,16533,1,8,0:0:0:0:
285,373,16899,1,2,1:0:0:0:
189,344,17264,2,0,L|183:284,1,50,2|0,3:0|0:0,0:0:0:0:
150,256,17630,6,0,L|169:53,1,200,6|0,1:0|3:0,0:0:0:0:
70,37,18728,2,0,P|34:80|25:131,1,100,10|0,0:0|3:0,0:0:0:0:
41,174,19277,1,8,0:0:0:0:
41,174,19460,1,0,3:0:0:0:
94,258,19825,6,0,L|217:250,1,100,6|2,1:0|0:0,0:0:0:0:
242,237,20374,2,0,L|365:245,1,100,8|8,0:0|3:0,0:0:0:0:
392,243,20923,1,8,0:0:0:0:
479,195,21289,1,2,1:0:0:0:
509,99,21655,2,0,L|501:42,1,50,2|0,3:0|0:0,0:0:0:0:
468,13,22020,6,0,P|413:17|352:23,1,100,6|0,1:0|0:0,0:0:0:0:
323,34,22569,1,8,0:0:0:0:
323,34,22752,1,0,0:0:0:0:
238,87,23118,2,0,P|226:132|243:198,1,100,10|2,0:0|1:0,0:0:0:0:
262,233,23667,1,8,0:0:0:0:
262,233,23850,1,0,3:0:0:0:
306,322,24216,6,0,L|178:329,1,100,6|0,1:0|0:0,0:0:0:0:
161,350,24764,2,0,P|105:329|28:329,1,100,8|8,0:0|3:0,0:0:0:0:
15,330,25313,1,10,0:0:0:0:
3,230,25679,1,2,1:0:0:0:
65,151,26045,2,0,L|130:154,1,50,2|0,3:0|0:0,0:0:0:0:
157,180,26411,6,0,L|297:173,1,100,6|0,1:0|0:0,0:0:0:0:
311,175,26960,1,8,0:0:0:0:
311,175,27142,1,0,0:0:0:0:
337,78,27508,2,0,P|275:54|223:59,1,100,10|0,0:0|3:0,0:0:0:0:
198,72,28057,1,8,0:0:0:0:
198,72,28240,1,0,3:0:0:0:
118,132,28606,6,0,L|128:258,1,100,6|0,1:0|0:0,0:0:0:0:
132,281,29155,2,0,P|183:273|240:285,1,100,8|8,0:0|3:0,0:0:0:0:
273,306,29703,1,8,0:0:0:0:
365,342,30069,1,2,1:0:0:0:
462,320,30435,2,0,L|465:261,1,50,2|0,3:0|0:0,0:0:0:0:
462,219,30801,6,0,P|375:163|276:166,1,200,6|0,1:0|0:0,0:0:0:0:
182,183,31899,2,0,L|70:191,1,100,10|0,0:0|1:0,0:0:0:0:
36,196,32447,1,8,0:0:0:0:
36,196,32630,1,0,0:0:0:0:
35,96,32996,6,0,P|79:76|148:80,1,100,6|0,1:0|0:0,0:0:0:0:
179,83,33545,2,0,P|223:103|292:99,1,100,8|8,0:0|3:0,0:0:0:0:
322,92,34094,1,8,0:0:0:0:
420,107,34460,1,2,1:0:0:0:
483,183,34825,2,0,L|479:245,1,50,2|0,3:0|0:0,0:0:0:0:
474,282,35191,6,0,P|409:293|356:276,1,100,6|0,1:0|0:0,0:0:0:0:
335,268,35740,1,8,0:0:0:0:
335,268,35923,1,0,0:0:0:0:
261,200,36289,2,0,P|196:189|143:206,1,100,10|0,0:0|1:0,0:0:0:0:
122,220,36838,1,8,0:0:0:0:
122,220,37021,1,0,3:0:0:0:
103,318,37386,6,0,L|208:324,1,100,6|0,1:0|0:0,0:0:0:0:
247,347,37935,2,0,L|352:341,1,100,10|0,0:0|1:0,0:0:0:0:
396,336,38484,1,10,0:0:0:0:
464,263,38850,1,0,0:0:0:0:
436,166,39216,2,0,L|437:107,1,50,2|0,3:0|0:0,0:0:0:0:
436,65,39581,6,0,P|380:51|322:63,1,100,4|0,1:0|3:0,0:0:0:0:
297,81,40130,1,8,0:0:0:0:
297,81,40313,1,0,0:0:0:0:
220,145,40679,2,0,P|164:159|106:147,1,100,10|2,0:0|3:0,0:0:0:0:
81,136,41228,1,8,0:0:0:0:
81,136,41411,1,2,3:0:0:0:
100,37,41777,6,0,L|211:30,1,100,6|0,1:0|0:0,0:0:0:0:
247,15,42325,2,0,L|358:22,1,100,8|8,0:0|3:0,0:0:0:0:
396,28,42874,1,8,0:0:0:0:
480,81,43240,1,2,1:0:0:0:
504,178,43606,2,0,L|498:238,1,50,2|0,3:0|0:0,0:0:0:0:
488,276,43972,6,0,P|425:283|381:267,1,100,6|0,1:0|0:0,0:0:0:0:
356,245,44520,1,8,0:0:0:0:
356,245,44703,1,0,0:0:0:0:
291,168,45069,2,0,L|148:176,1,100,10|0,0:0|3:0,0:0:0:0:
145,183,45618,1,8,0:0:0:0:
145,183,45801,1,0,3:0:0:0:
53,223,46167,6,0,P|45:275|58:327,1,100,6|2,1:0|3:0,0:0:0:0:
139,375,46899,1,2,0:0:0:0:
218,314,47264,2,0,L|278:315,1,50,10|8,0:0|0:0,0:0:0:0:
309,343,47630,2,0,L|369:342,1,50,8|0,3:0|1:0,0:0:0:0:
407,330,47996,1,8,3:0:0:0:
456,231,48362,6,0,L|510:237,2,55.0000016784668,6|0|2,1:0|0:0|0:0,0:0:0:0:
416,191,48911,2,0,P|360:169|296:175,1,110.000003356934,8|0,3:0|1:0,0:0:0:0:
262,197,49460,1,10,0:0:0:0:
165,249,49825,1,2,1:0:0:0:
61,211,50191,1,2,0:0:0:0:
53,101,50557,6,0,L|-16:104,2,55.0000016784668,4|0|0,1:0|3:0|0:0,0:0:0:0:
100,71,51106,2,0,P|142:50|217:56,1,110.000003356934,8|8,0:0|3:0,0:0:0:0:
256,67,51655,1,10,0:0:0:0:
310,162,52020,1,2,1:0:0:0:
264,262,52386,1,2,1:0:0:0:
165,310,52752,6,0,L|169:373,2,55.0000016784668,6|8|0,1:0|3:0|0:0,0:0:0:0:
129,267,53301,2,0,P|111:213|127:154,1,110.000003356934,0|8,3:0|3:0,0:0:0:0:
152,116,53850,1,10,0:0:0:0:
249,65,54216,1,2,1:0:0:0:
356,86,54581,1,2,1:0:0:0:
436,160,54947,6,0,L|527:155,2,55.0000016784668,6|0|0,1:0|0:0|0:0,0:0:0:0:
391,192,55496,2,0,P|333:210|264:183,1,110.000003356934,8|8,0:0|3:0,0:0:0:0:
241,166,56045,1,10,0:0:0:0:
142,115,56411,1,2,1:0:0:0:
43,163,56777,2,0,L|37:222,1,55.0000016784668,2|0,1:0|0:0,0:0:0:0:
32,275,57142,5,6,1:0:0:0:
32,275,57325,2,0,P|82:293|142:283,1,110.000003356934,8|0,3:0|1:0,0:0:0:0:
184,256,57874,1,2,1:0:0:0:
236,159,58240,2,0,L|365:151,1,110.000003356934,10|2,0:0|1:0,0:0:0:0:
405,150,58789,1,8,0:0:0:0:
405,150,58972,1,2,1:0:0:0:
495,212,59338,6,0,P|499:277|478:328,1,110.000003356934,6|2,1:0|0:0,0:0:0:0:
453,364,59886,1,8,0:0:0:0:
453,364,60069,1,2,0:0:0:0:
347,332,60435,2,0,L|233:337,1,110.000003356934,10|2,0:0|3:0,0:0:0:0:
186,346,60984,1,8,0:0:0:0:
186,346,61167,1,10,3:0:0:0:
110,266,61533,6,0,P|96:213|110:157,2,110.000003356934,6|2|2,1:0|3:0|1:0,0:0:0:0:
205,211,62630,1,10,0:0:0:0:
202,100,62996,1,2,1:0:0:0:
103,51,63362,1,2,1:0:0:0:
10,110,63728,5,2,1:0:0:0:
10,110,63911,2,0,L|16:231,1,110.000003356934,12|0,0:0|1:0,0:0:0:0:
19,275,64460,1,12,0:0:0:0:
108,338,64825,2,0,L|172:342,1,55.0000016784668,14|8,3:0|0:0,0:0:0:0:
214,360,65191,2,0,L|278:356,1,55.0000016784668,14|8,3:0|0:0,0:0:0:0:
321,338,65557,1,6,1:0:0:0:
411,275,65923,6,0,L|475:279,2,55.0000016784668,6|8|0,1:0|0:0|0:0,0:0:0:0:
369,238,66472,2,0,P|317:227|257:248,1,110.000003356934,8|0,3:0|1:0,0:0:0:0:
220,277,67020,1,10,0:0:0:0:
110,266,67386,1,2,1:0:0:0:
66,164,67752,1,2,0:0:0:0:
123,69,68118,6,0,L|120:8,2,55.0000016784668,4|0|0,1:0|3:0|0:0,0:0:0:0:
151,116,68667,2,0,P|207:125|268:102,1,110.000003356934,8|8,0:0|3:0,0:0:0:0:
303,80,69216,1,10,0:0:0:0:
411,64,69581,1,2,1:0:0:0:
495,134,69947,1,2,1:0:0:0:
509,246,70313,5,6,1:0:0:0:
509,246,70496,2,0,P|453:257|392:242,1,110.000003356934,8|8,3:0|0:0,0:0:0:0:
353,219,71045,1,0,1:0:0:0:
276,140,71411,2,0,L|154:143,1,110.000003356934,10|0,0:0|1:0,0:0:0:0:
115,149,71960,1,10,0:0:0:0:
115,149,72142,1,0,0:0:0:0:
19,203,72508,5,6,1:0:0:0:
19,203,72691,2,0,P|8:263|23:311,1,110.000003356934,0|10,3:0|0:0,0:0:0:0:
53,354,73240,1,0,1:0:0:0:
161,373,73606,1,10,0:0:0:0:
266,341,73972,1,10,3:0:0:0:
312,241,74338,1,10,3:0:0:0:
279,136,74703,6,0,L|213:140,2,55.0000016784668,6|8|0,1:0|0:0|0:0,0:0:0:0:
326,107,75252,2,0,P|370:80|451:80,1,110.000003356934,0|8,1:0|3:0,0:0:0:0:
479,91,75801,1,8,0:0:0:0:
512,195,76167,1,2,1:0:0:0:
457,290,76533,1,10,3:0:0:0:
349,313,76899,6,0,L|358:385,2,55.0000016784668,6|0|0,1:0|3:0|0:0,0:0:0:0:
316,268,77447,2,0,P|248:260|201:279,1,110.000003356934,8|8,0:0|3:0,0:0:0:0:
165,306,77996,1,10,0:0:0:0:
56,289,78362,1,0,1:0:0:0:
29,182,78728,2,0,L|33:117,1,55.0000016784668,10|0,3:0|0:0,0:0:0:0:
44,77,79094,5,6,1:0:0:0:
44,77,79277,2,0,P|97:58|170:70,1,110.000003356934,0|10,3:0|0:0,0:0:0:0:
198,88,79825,1,0,1:0:0:0:
283,156,80191,2,0,L|373:152,1,55.0000016784668,14|0,0:0|1:0,0:0:0:0:
390,135,80557,2,0,L|480:139,1,55.0000016784668,8|0,3:0|3:0,0:0:0:0:
499,144,80923,1,8,3:0:0:0:
476,253,81289,5,6,1:0:0:0:
476,253,83484,6,0,L|465:143,1,100,6|0,1:2|0:0,0:0:0:0:
457,103,84033,2,0,P|405:91|352:107,1,100,10|8,0:2|3:0,0:0:0:0:
316,126,84581,1,14,0:2:0:0:
223,163,84947,1,2,1:2:0:0:
125,140,85313,1,2,0:0:0:0:
114,40,85679,6,0,L|241:46,1,100,6|0,1:2|0:0,0:0:0:0:
260,63,86228,2,0,L|387:57,1,100,10|8,0:2|3:0,0:0:0:0:
410,54,86777,1,14,0:2:0:0:
475,129,87142,1,10,3:2:0:0:
430,217,87508,1,2,0:0:0:0:
341,266,87874,6,0,P|289:248|231:253,1,100,6|0,1:2|0:0,0:0:0:0:
195,258,88423,2,0,L|202:151,1,100,10|8,0:2|3:0,0:0:0:0:
205,108,88972,1,14,0:2:0:0:
133,38,89338,1,2,1:2:0:0:
34,54,89703,1,2,0:0:0:0:
0,148,90069,6,0,P|7:199|17:263,1,100,6|0,1:2|0:0,0:0:0:0:
26,295,90618,2,0,P|75:286|130:298,1,100,10|8,0:2|3:0,0:0:0:0:
168,318,91167,1,8,0:0:0:0:
261,353,91533,1,0,3:0:0:0:
357,327,91899,1,2,3:2:0:0:
426,255,92264,6,0,B|434:113|434:113|375:143,1,200,6|2,1:2|3:2,0:0:0:0:
293,185,93362,1,14,0:2:0:0:
193,196,93728,1,2,1:2:0:0:
97,167,94094,1,2,0:0:0:0:
56,75,94460,6,0,B|158:29|158:116|260:61,1,200,6|2,1:2|3:2,0:0:0:0:
338,22,95557,1,14,0:2:0:0:
436,40,95923,1,10,3:2:0:0:
481,128,96289,1,2,0:0:0:0:
475,227,96655,6,0,B|406:240|349:186|349:186|270:200,1,200,6|2,1:2|3:2,0:0:0:0:
188,216,97752,1,14,0:2:0:0:
88,209,98118,1,2,1:2:0:0:
28,128,98484,1,2,0:0:0:0:
70,37,98850,6,0,P|176:33|278:28,1,200,6|2,1:2|3:2,0:0:0:0:
369,24,99947,1,8,0:0:0:0:
450,82,100313,1,0,3:0:0:0:
473,179,100679,1,2,3:2:0:0:
421,264,101045,6,0,L|252:270,1,150,6|10,1:2|0:2,0:0:0:0:
220,270,101777,1,2,3:2:0:0:
129,227,102142,2,0,P|72:242|9:227,2,100,14|2|2,0:2|1:2|0:0,0:0:0:0:
196,152,103240,6,0,P|255:122|354:141,1,150,6|10,1:2|0:2,0:0:0:0:
379,156,103972,1,2,3:2:0:0:
412,250,104338,2,0,L|511:255,2,100,14|10|2,0:2|3:2|0:0,0:0:0:0:
312,236,105435,6,0,B|243:235|251:289|174:288,1,150,6|10,1:2|0:2,0:0:0:0:
125,286,106167,1,2,3:2:0:0:
32,247,106533,2,0,L|35:179,1,50,14|8,0:2|0:0,0:0:0:0:
71,163,106899,2,0,L|68:95,1,50,2|8,1:2|0:0,0:0:0:0:
68,63,107264,1,2,0:0:0:0:
154,11,107630,5,2,0:0:0:0:
256,192,107813,12,0,112020,0:0:0:0:
