osu file format v14

[General]
AudioFilename: audio.mp3
AudioLeadIn: 0
PreviewTime: 46549
Countdown: 1
SampleSet: Soft
StackLeniency: 0.7
Mode: 0
LetterboxInBreaks: 0
WidescreenStoryboard: 1

[Editor]
DistanceSpacing: 2
BeatDivisor: 4
GridSize: 8
TimelineZoom: 1

[Metadata]
Title:Hello!my world!
TitleUnicode:Hello!my world!
Artist:fhana
ArtistUnicode:fhana
Creator:gu0910
Version:Insane
Source:ナイツ&マジック
Tags:
BeatmapID:1363038
BeatmapSetID:642858

[Difficulty]
HPDrainRate:5
CircleSize:4
OverallDifficulty:5
ApproachRate:9
SliderMultiplier:1.4
SliderTickRate:1

[Events]
//Background and Video events
Video,0,"video.avi"
0,0,"bg.png",0,0
//Break Periods
//Storyboard Layer 0 (Background)
//Storyboard Layer 1 (Fail)
//Storyboard Layer 2 (Pass)
//Storyboard Layer 3 (Foreground)
//Storyboard Sound Samples

[TimingPoints]
592.241379310345,425.531914893617,4,2,0,100,1,0
46571,-66.6666666666667,4,2,0,100,0,1
87424,-66.6666666666667,4,2,0,100,0,0

[HitObjects]
128,48,592,6,0,P|160:104|240:88,1,140,4|0,0:0|0:0,0:0:0:0:
104,320,1230,1,0,0:0:0:0:
192,48,1443,1,0,0:0:0:0:
328,208,1656,1,0,0:0:0:0:
328,208,1762,1,0,0:0:0:0:
328,208,1868,1,0,0:0:0:0:
216,144,2081,1,0,0:0:0:0:
216,144,2294,6,0,P|176:192|80:192,1,140,4|0,0:0|0:0,0:0:0:0:
272,336,2932,1,0,0:0:0:0:
152,136,3145,1,0,0:0:0:0:
320,56,3358,2,0,B|376:104|376:104|448:104,2,140,0|0|4,0:0|0:0|0:0,0:0:0:0:
144,272,4528,6,0,L|240:176,1,105
288,256,5166,1,0,0:0:0:0:
192,120,5485,1,0,0:0:0:0:
192,120,5698,1,0,0:0:0:0:
320,64,5911,6,0,L|320:192,2,105,4|0|0,0:0|0:0|0:0,0:0:0:0:
104,176,6762,5,0,0:0:0:0:
352,88,6975,1,0,0:0:0:0:
352,88,7081,1,0,0:0:0:0:
352,88,7187,1,0,0:0:0:0:
312,136,7294,1,0,0:0:0:0:
248,152,7400,1,4,0:0:0:0:
56,88,7613,5,0,0:0:0:0:
88,144,7719,1,0,0:0:0:0:
120,200,7826,1,0,0:0:0:0:
384,56,8039,5,0,0:0:0:0:
384,56,8145,1,0,0:0:0:0:
384,56,8251,1,0,0:0:0:0:
200,72,8464,5,0,0:0:0:0:
400,224,8677,1,0,0:0:0:0:
400,224,8783,1,0,0:0:0:0:
120,240,8890,5,0,0:0:0:0:
304,64,9102,1,4,0:0:0:0:
304,64,9209,1,0,0:0:0:0:
304,64,9315,1,0,0:0:0:0:
224,320,9528,5,0,0:0:0:0:
128,112,9741,1,0,0:0:0:0:
128,112,9847,1,0,0:0:0:0:
352,176,9953,1,0,0:0:0:0:
96,256,10166,5,0,0:0:0:0:
152,248,10273,1,0,0:0:0:0:
208,240,10379,1,0,0:0:0:0:
184,104,10592,1,0,0:0:0:0:
184,104,10805,6,0,L|200:168,1,35
256,312,11017,2,0,P|320:256|376:264,1,140,4|0,0:0|0:0,0:0:0:0:
400,256,11549,5,0,0:0:0:0:
424,224,11656,1,0,0:0:0:0:
408,192,11762,1,0,0:0:0:0:
384,160,11868,1,0,0:0:0:0:
408,128,11975,1,0,0:0:0:0:
392,96,12081,1,0,0:0:0:0:
360,72,12187,1,0,0:0:0:0:
320,80,12294,1,0,0:0:0:0:
288,112,12400,1,0,0:0:0:0:
296,160,12507,1,0,0:0:0:0:
112,216,12719,5,4,0:0:0:0:
112,232,13039,1,0,0:0:0:0:
112,248,13358,1,0,0:0:0:0:
240,48,13570,5,0,0:0:0:0:
232,96,13677,1,0,0:0:0:0:
240,144,13783,1,0,0:0:0:0:
272,176,13890,1,0,0:0:0:0:
320,192,13996,1,0,0:0:0:0:
80,120,14315,6,0,P|88:160|136:200,1,105
232,128,14847,5,0,0:0:0:0:
288,112,14953,1,0,0:0:0:0:
344,96,15060,1,0,0:0:0:0:
240,328,15166,2,0,L|304:224,1,105
112,136,15698,5,0,0:0:0:0:
168,112,15805,1,0,0:0:0:0:
216,80,15911,1,0,0:0:0:0:
240,296,16017,2,0,P|336:296|344:288,1,105
368,136,16549,5,0,0:0:0:0:
368,136,16656,1,0,0:0:0:0:
368,136,16762,1,0,0:0:0:0:
128,112,16868,2,0,P|136:160|176:136,1,105
208,248,17294,5,0,0:0:0:0:
232,272,17400,1,0,0:0:0:0:
256,288,17507,1,0,0:0:0:0:
296,280,17613,1,0,0:0:0:0:
320,256,17719,2,0,P|328:192|384:176,1,105
128,112,18251,5,0,0:0:0:0:
136,144,18358,1,0,0:0:0:0:
152,176,18464,1,0,0:0:0:0:
168,208,18570,2,0,P|224:208|288:184,1,105
344,72,19102,5,0,0:0:0:0:
288,272,19209,1,0,0:0:0:0:
144,216,19315,1,0,0:0:0:0:
144,216,19422,1,0,0:0:0:0:
152,200,20592,6,0,L|192:200,2,35
264,72,21017,2,0,P|304:88|344:120,1,70
240,168,21443,5,0,0:0:0:0:
200,312,21656,1,0,0:0:0:0:
240,168,21868,1,0,0:0:0:0:
240,168,22081,2,0,L|144:184,2,70
400,40,22719,6,0,P|440:120|504:152,1,140
112,264,23358,1,0,0:0:0:0:
472,56,23570,1,0,0:0:0:0:
304,168,23783,6,0,L|184:224,1,105
200,240,24209,1,0,0:0:0:0:
400,256,24422,1,0,0:0:0:0:
400,280,24634,1,0,0:0:0:0:
160,40,24847,6,0,L|160:128,2,70
80,96,25485,1,0,0:0:0:0:
336,104,25698,1,0,0:0:0:0:
288,208,25911,1,0,0:0:0:0:
288,208,26124,6,0,P|248:280|304:320,1,140
128,256,26762,5,0,0:0:0:0:
160,256,26868,1,0,0:0:0:0:
192,256,26975,1,0,0:0:0:0:
0,264,27187,5,0,0:0:0:0:
256,0,27400,1,0,0:0:0:0:
512,272,27613,1,0,0:0:0:0:
64,80,27826,6,0,P|72:128|160:144,1,140,4|0,0:0|0:0,0:0:0:0:
80,192,28464,2,0,L|136:112,1,70
256,88,28890,5,0,0:0:0:0:
208,184,29102,1,0,0:0:0:0:
256,80,29315,1,0,0:0:0:0:
104,280,29528,6,0,P|192:248|248:264,1,140
384,80,30166,6,0,P|384:144|360:160,2,70
344,48,30698,1,0,0:0:0:0:
296,40,30805,1,0,0:0:0:0:
320,216,31017,5,0,0:0:0:0:
152,128,31230,2,0,P|120:168|152:256,1,140
144,336,31868,6,0,L|224:296,1,70
280,136,32294,5,0,0:0:0:0:
224,248,32507,1,0,0:0:0:0:
144,152,32719,1,0,0:0:0:0:
240,32,32932,6,0,P|296:80|384:72,1,140,4|0,0:0|0:0,0:0:0:0:
320,32,33570,5,0,0:0:0:0:
224,192,33996,1,0,0:0:0:0:
104,96,34209,1,0,0:0:0:0:
104,96,34315,1,0,0:0:0:0:
104,96,34422,1,0,0:0:0:0:
128,296,34634,6,0,P|168:240|240:264,1,140,4|0,0:0|0:0,0:0:0:0:
192,304,35273,5,0,0:0:0:0:
112,120,35698,1,0,0:0:0:0:
272,200,35911,1,0,0:0:0:0:
272,200,36017,1,0,0:0:0:0:
272,200,36124,1,0,0:0:0:0:
272,72,36336,6,0,P|248:112|160:96,1,140,4|0,0:0|0:0,0:0:0:0:
256,288,36975,2,0,L|200:224,1,70
112,304,37400,1,0,0:0:0:0:
336,72,37613,5,0,0:0:0:0:
328,112,37719,1,0,0:0:0:0:
296,152,37826,1,0,0:0:0:0:
320,200,37932,1,0,0:0:0:0:
288,240,38039,1,0,0:0:0:0:
96,128,38251,5,0,0:0:0:0:
448,208,38677,1,0,0:0:0:0:
128,288,38890,5,0,0:0:0:0:
200,56,39102,1,0,0:0:0:0:
296,280,39315,1,0,0:0:0:0:
96,168,39528,1,0,0:0:0:0:
320,136,39741,1,0,0:0:0:0:
32,264,39953,5,0,0:0:0:0:
456,136,40379,5,0,0:0:0:0:
216,112,40592,1,0,0:0:0:0:
352,320,40805,1,0,0:0:0:0:
112,232,41018,1,0,0:0:0:0:
368,176,41230,1,0,0:0:0:0:
192,352,41443,1,0,0:0:0:0:
56,136,41656,5,0,0:0:0:0:
392,256,42081,6,0,L|320:232,2,70
112,192,42932,5,0,0:0:0:0:
376,88,43145,1,0,0:0:0:0:
256,320,43358,1,0,0:0:0:0:
176,56,43570,1,0,0:0:0:0:
448,160,43783,1,0,0:0:0:0:
256,320,43996,1,0,0:0:0:0:
176,56,44209,1,0,0:0:0:0:
448,160,44422,1,0,0:0:0:0:
256,320,44634,1,0,0:0:0:0:
176,56,44847,1,0,0:0:0:0:
336,112,45273,5,0,0:0:0:0:
312,96,45379,1,0,0:0:0:0:
264,80,45485,1,0,0:0:0:0:
232,80,45592,1,0,0:0:0:0:
208,120,45698,1,0,0:0:0:0:
176,128,45805,1,0,0:0:0:0:
160,160,45911,1,0,0:0:0:0:
120,160,46017,1,0,0:0:0:0:
120,216,46124,1,0,0:0:0:0:
80,224,46230,1,0,0:0:0:0:
48,264,46336,1,0,0:0:0:0:
306,292,46549,6,0,P|352:240|362:148,1,140,4|0,0:0|0:0,0:0:0:0:
112,128,47187,1,0,0:0:0:0:
152,160,47294,1,0,0:0:0:0:
152,208,47400,1,0,0:0:0:0:
416,64,47613,5,0,0:0:0:0:
144,296,47826,1,0,0:0:0:0:
144,296,47932,1,0,0:0:0:0:
144,296,48039,1,0,0:0:0:0:
264,136,48251,6,0,P|304:200|416:144,1,210.000008010865,4|0,0:0|0:0,0:0:0:0:
352,136,48890,5,0,0:0:0:0:
336,168,48996,1,0,0:0:0:0:
328,208,49102,1,0,0:0:0:0:
288,224,49209,1,0,0:0:0:0:
248,200,49315,1,0,0:0:0:0:
112,80,49528,5,0,0:0:0:0:
208,320,49741,1,0,0:0:0:0:
208,320,49847,1,0,0:0:0:0:
208,320,49953,1,0,0:0:0:0:
120,232,50166,6,0,L|280:200,2,157.500006008148,4|0|0,0:0|0:0|0:0,0:0:0:0:
320,192,50911,1,0,0:0:0:0:
352,216,51017,1,0,0:0:0:0:
384,216,51124,1,0,0:0:0:0:
408,184,51230,1,0,0:0:0:0:
448,192,51336,1,0,0:0:0:0:
464,240,51443,1,0,0:0:0:0:
440,272,51549,1,0,0:0:0:0:
448,312,51656,1,0,0:0:0:0:
40,72,51868,5,4,0:0:0:0:
320,224,52081,1,0,0:0:0:0:
320,224,52187,1,0,0:0:0:0:
320,224,52294,1,0,0:0:0:0:
152,176,52507,6,0,L|184:312,1,105.000004005432
216,304,52826,1,0,0:0:0:0:
272,288,52932,1,0,0:0:0:0:
320,312,53039,1,0,0:0:0:0:
368,272,53145,1,0,0:0:0:0:
376,224,53251,1,0,0:0:0:0:
416,184,53358,1,4,0:0:0:0:
80,80,53570,5,0,0:0:0:0:
80,80,53677,1,0,0:0:0:0:
80,80,53783,1,0,0:0:0:0:
168,248,53996,6,0,L|240:144,1,105.000004005432
360,144,54422,2,0,L|320:200,2,52.5000020027161
192,120,54847,1,0,0:0:0:0:
128,320,55060,5,4,0:0:0:0:
128,320,55166,1,0,0:0:0:0:
128,320,55273,1,0,0:0:0:0:
200,232,55485,6,0,L|272:144,1,105.000004005432
336,288,55911,1,0,0:0:0:0:
112,112,56124,5,0,0:0:0:0:
112,112,56230,1,0,0:0:0:0:
112,112,56336,1,0,0:0:0:0:
408,96,56549,6,0,L|368:208,1,105.000004005432
264,176,56975,6,0,P|208:168|136:248,2,157.500006008148,4|0|0,0:0|0:0|0:0,0:0:0:0:
248,256,57826,5,0,0:0:0:0:
248,256,57933,1,0,0:0:0:0:
248,256,58039,1,0,0:0:0:0:
80,104,58251,5,0,0:0:0:0:
336,144,58464,1,0,0:0:0:0:
80,48,58677,5,4,0:0:0:0:
168,360,58996,1,0,0:0:0:0:
464,280,59315,1,0,0:0:0:0:
384,8,59528,5,0,0:0:0:0:
88,232,59741,1,0,0:0:0:0:
128,216,59847,1,0,0:0:0:0:
168,248,59953,1,0,0:0:0:0:
216,240,60060,1,0,0:0:0:0:
352,264,60273,6,0,P|384:184|464:200,1,157.500006008148,4|0,0:0|0:0,0:0:0:0:
160,120,60805,5,0,0:0:0:0:
296,80,60911,1,0,0:0:0:0:
296,88,61124,6,0,P|304:160|200:192,1,157.500006008148,4|0,0:0|0:0,0:0:0:0:
392,248,61656,5,0,0:0:0:0:
152,296,61762,1,0,0:0:0:0:
144,304,61975,6,0,B|96:224|96:224|144:120,1,157.500006008148,4|0,0:0|0:0,0:0:0:0:
256,208,62507,5,0,0:0:0:0:
272,64,62613,1,0,0:0:0:0:
272,64,62826,6,0,L|416:152,1,157.500006008148,4|0,0:0|0:0,0:0:0:0:
432,176,63251,5,0,0:0:0:0:
416,200,63358,1,0,0:0:0:0:
432,232,63464,1,0,0:0:0:0:
416,256,63570,1,0,0:0:0:0:
376,272,63677,2,0,L|304:248,1,52.5000020027161
104,152,63996,5,0,0:0:0:0:
192,288,64102,1,0,0:0:0:0:
192,288,64209,2,0,P|248:208|304:216,1,157.500006008148
304,88,64741,5,0,0:0:0:0:
304,88,64847,1,0,0:0:0:0:
136,232,65273,2,0,L|264:216,1,105.000004005432
208,80,65592,1,0,0:0:0:0:
240,218,65698,1,0,0:0:0:0:
240,218,65805,1,0,0:0:0:0:
240,218,66017,2,0,L|368:200,1,105.000004005432
296,48,66336,5,0,0:0:0:0:
296,96,66443,1,0,0:0:0:0:
304,152,66549,1,0,0:0:0:0:
280,200,66656,1,0,0:0:0:0:
312,248,66762,1,0,0:0:0:0:
288,288,66868,1,0,0:0:0:0:
248,320,66975,2,0,L|392:320,2,105.000004005432
72,72,67613,5,0,0:0:0:0:
264,272,67719,1,0,0:0:0:0:
264,272,67826,2,0,L|184:192,2,105.000004005432
360,72,68464,5,0,0:0:0:0:
240,264,68570,1,0,0:0:0:0:
240,264,68677,2,0,L|312:168,2,105.000004005432
88,160,69315,5,0,0:0:0:0:
424,264,69528,1,0,0:0:0:0:
424,264,69634,2,0,P|368:304|248:272,2,157.500006008148
424,232,70379,1,0,0:0:0:0:
224,40,71017,5,0,0:0:0:0:
272,296,71124,1,0,0:0:0:0:
272,296,71230,2,0,L|248:176,2,105.000004005432
384,104,71868,5,0,0:0:0:0:
80,240,71975,1,0,0:0:0:0:
80,240,72081,2,0,L|208:184,2,105.000004005432
232,80,72719,2,0,P|288:128|360:120,1,105.000004005432
256,312,73145,2,0,P|272:248|344:232,2,105.000004005432
328,72,73783,2,0,P|280:120|112:96,1,210.000008010865,4|0,0:0|0:0,0:0:0:0:
104,264,74422,5,0,0:0:0:0:
368,168,74528,1,0,0:0:0:0:
368,168,74634,2,0,L|256:208,2,105.000004005432
160,56,75273,5,0,0:0:0:0:
224,320,75379,1,0,0:0:0:0:
224,320,75485,2,0,L|200:216,2,105.000004005432
112,128,76124,5,0,0:0:0:0:
320,208,76336,1,0,0:0:0:0:
320,208,76443,1,0,0:0:0:0:
120,192,76762,6,0,P|144:264|272:256,2,210.000008010865,0|4|0,0:0|0:0|0:0,0:0:0:0:
192,208,77826,5,0,0:0:0:0:
368,48,78039,1,0,0:0:0:0:
328,320,78251,1,0,0:0:0:0:
368,48,78464,1,0,0:0:0:0:
136,184,78677,5,0,0:0:0:0:
136,184,78783,1,0,0:0:0:0:
136,184,78890,2,0,P|232:104|320:136,1,210.000008010865,4|0,0:0|0:0,0:0:0:0:
200,32,79528,1,0,0:0:0:0:
256,304,79741,1,0,0:0:0:0:
344,56,79953,1,0,0:0:0:0:
256,304,80166,1,0,0:0:0:0:
184,160,80379,1,0,0:0:0:0:
184,160,80592,2,0,P|256:232|336:160,1,210.000008010865
96,72,81230,5,4,0:0:0:0:
96,72,81336,1,0,0:0:0:0:
96,72,81443,1,0,0:0:0:0:
176,280,81656,2,0,L|280:208,1,105.000004005432
296,72,82081,6,0,L|176:152,2,105.000004005432
80,256,82719,5,0,0:0:0:0:
80,256,82826,1,0,0:0:0:0:
80,256,82932,1,0,0:0:0:0:
240,224,83145,2,0,L|272:168,1,52.5000020027161
328,112,83570,6,0,P|280:80|208:112,2,105.000004005432
168,80,84634,5,4,0:0:0:0:
256,320,84741,1,0,0:0:0:0:
256,320,84847,2,0,L|216:216,2,105.000004005432
360,72,85485,5,0,0:0:0:0:
104,224,85698,2,0,L|208:160,1,105.000004005432
232,176,86017,5,0,0:0:0:0:
264,208,86124,1,0,0:0:0:0:
296,200,86230,1,0,0:0:0:0:
336,200,86336,1,0,0:0:0:0:
352,240,86443,1,0,0:0:0:0:
360,272,86549,1,0,0:0:0:0:
408,288,86656,1,0,0:0:0:0:
448,264,86762,1,0,0:0:0:0:
464,224,86868,2,0,L|424:168,5,52.5000020027161,0|0|0|0|0|4,0:0|0:0|0:0|0:0|0:0|0:0,0:0:0:0:
