osu file format v14

[General]
AudioFilename: audio.mp3
AudioLeadIn: 0
PreviewTime: 127966
Countdown: 0
SampleSet: Soft
StackLeniency: 0.7
Mode: 0
LetterboxInBreaks: 0
WidescreenStoryboard: 0

[Editor]
DistanceSpacing: 0.7
BeatDivisor: 4
GridSize: 32
TimelineZoom: 2.799999

[Metadata]
Title:Hello!My World!!
TitleUnicode:Hello!My World!!
Artist:fhana
ArtistUnicode:fhána
Creator:Sotarks
Version:Sotarks' Melancholy
Source:ナイツ&マジック
Tags:Knight's & Magic ending ed full ver version lantis Junichi Sato yuxuki waga kevin mitsunaga towana doormat akitoshi corinn kalibe irohas mugiwarasekai toybot haruto haruto_aizawa
BeatmapID:1413113
BeatmapSetID:657341

[Difficulty]
HPDrainRate:5.2
CircleSize:3.2
OverallDifficulty:8.5
ApproachRate:9.4
SliderMultiplier:1.42
SliderTickRate:1

[Events]
//Background and Video events
0,0,"BG.jpg",0,0
//Break Periods
2,113604,119021
//Storyboard Layer 0 (Background)
//Storyboard Layer 1 (Fail)
//Storyboard Layer 2 (Pass)
//Storyboard Layer 3 (Foreground)
//Storyboard Sound Samples

[TimingPoints]
625,425.531914893617,4,2,22,52,1,0
5944,-100,4,2,22,52,0,0
6051,-100,4,2,22,52,0,0
6263,-100,4,2,22,52,0,0
8923,-89.2857142857143,4,2,22,62,0,0
15838,-52.0833333333333,4,2,22,72,0,0
20944,-192.307692307692,4,2,22,52,0,0
22115,-75.7575757575758,4,2,22,52,0,0
22540,-65.7894736842105,4,2,22,52,0,0
38923,-65.7894736842105,4,2,22,62,0,0
39242,-65.7894736842105,4,2,22,72,0,0
39561,-75.7575757575758,4,2,22,52,0,0
39774,-75.7575757575758,4,2,2,52,0,0
46583,-75.7575757575758,4,2,22,52,0,0
47434,-192.307692307692,4,2,22,52,0,0
47859,-32.307692307692,4,2,22,52,0,0
48072,-47.1698113207547,4,2,22,82,0,0
68923,-49.5049504950495,4,2,22,72,0,0
95732,-47.1698113207547,4,2,22,82,0,0
112753,-47.1698113207547,4,2,22,92,0,0
119561,-47.1698113207547,4,2,2,52,0,0
127434,-47.1698113207547,4,2,22,52,0,0
128072,-444.487507428364,4,2,22,32,0,0
128497,-23.696682464455,4,2,22,92,0,1
129029,-19.1570881226054,4,2,22,92,0,1
129349,-23.696682464455,4,2,22,92,0,1
129773,-65.7894736842105,4,2,22,52,0,0
130200,-47.1698113207547,4,2,22,82,0,0
148497,-47.1698113207547,4,2,22,82,0,1
162114,-161.290322580645,4,2,22,82,0,0
162540,-98.0392156862745,4,2,22,82,0,0
162753,-47.1698113207547,4,2,22,82,0,0
162966,-161.290322580645,4,2,22,82,0,0
163391,-98.0392156862745,4,2,22,82,0,0
163604,-47.1698113207547,4,2,22,82,0,0
163817,-192.307692307692,4,2,22,82,0,0
164242,-47.1698113207547,4,2,22,82,0,0
165519,-161.290322580645,4,2,22,82,0,0
165944,-98.0392156862745,4,2,22,82,0,0
166157,-47.1698113207547,4,2,22,82,0,0
166370,-161.290322580645,4,2,22,82,0,0
166795,-98.0392156862745,4,2,22,82,0,0
167008,-47.1698113207547,4,2,22,82,0,0
168923,-192.307692307692,4,2,22,82,0,0
170838,-52.0833333333333,4,2,22,82,0,0
171476,-52.0833333333333,4,2,22,82,0,0
171688,425.531914893617,4,2,22,82,1,0
171688,-52.0833333333333,4,2,22,82,0,0
183496,-31.055900621118,4,2,22,92,0,1
186900,-23.696682464455,4,2,22,92,0,1
190305,-23.696682464455,4,2,22,92,0,0

[Colours]
Combo1 : 177,97,44
Combo2 : 130,126,192
Combo3 : 111,189,200
Combo4 : 163,158,158
Combo5 : 128,38,87
SliderBorder : 255,255,240
SliderTrackOverride : 0,0,20

[HitObjects]
73,131,2115,6,0,P|127:120|223:118,1,142,6|2,0:0|0:0,0:0:0:0:
277,41,2753,2,0,P|309:74|328:111,1,71,2|2,0:0|0:0,0:0:0:0:
411,45,3178,2,0,P|412:104|404:198,1,142,2|2,0:0|0:0,0:0:0:0:
437,313,3817,2,0,P|324:296|276:292,1,142,2|2,0:0|0:0,0:0:0:0:
256,213,4455,2,0,P|202:229|172:247,1,71,2|2,0:0|0:0,0:0:0:0:
117,319,4880,2,0,L|92:161,1,142,2|2,0:0|0:0,0:0:0:0:
178,36,5732,6,0,L|252:34,1,71,2|0,0:0|0:0,0:0:0:0:
275,70,6051,2,0,L|345:71,1,71,2|0,0:0|0:0,0:0:0:0:
355,116,6370,2,0,L|483:119,2,106.5,2|2|2,0:0|0:0|0:0,0:0:0:0:
271,155,7221,1,2,0:0:0:0:
346,338,7434,2,0,P|334:285|323:261,1,71,2|0,0:0|0:0,0:0:0:0:
268,257,7753,2,0,P|255:290|249:325,1,71,2|0,0:0|0:0,0:0:0:0:
216,356,8072,1,2,0:0:0:0:
165,103,8285,53,10,0:0:0:0:
59,235,8497,1,8,0:0:0:0:
117,218,8604,1,8,0:0:0:0:
176,201,8710,1,8,0:0:0:0:
233,183,8817,1,8,0:0:0:0:
318,223,8923,6,0,L|384:228,1,39.7600004853516,2|0,1:0|0:0,0:0:0:0:
408,134,9136,2,0,L|368:137,1,39.7600004853516,8|0,0:0|0:0,0:0:0:0:
475,194,9349,2,0,P|496:146|484:91,1,79.5200009707031,10|2,0:0|1:0,0:0:0:0:
438,43,9668,1,0,1:0:0:0:
382,35,9774,2,0,L|329:32,1,39.7600004853516,10|0,0:0|0:0,0:0:0:0:
255,79,9987,2,0,L|215:81,1,39.7600004853516,2|0,1:0|0:0,0:0:0:0:
117,40,10200,1,8,0:0:0:0:
123,101,10306,1,0,1:0:0:0:
130,162,10412,1,10,0:0:0:0:
135,221,10519,1,8,0:0:0:0:
110,307,10625,54,0,L|59:303,1,39.7600004853516,2|0,1:0|0:0,0:0:0:0:
193,354,10838,2,0,L|244:350,1,39.7600004853516,8|0,0:0|0:0,0:0:0:0:
230,182,11051,2,0,L|220:295,1,79.5200009707031,10|2,0:0|1:0,0:0:0:0:
309,297,11370,1,0,1:0:0:0:
339,263,11476,2,0,P|385:254|399:253,1,39.7600004853516,10|0,0:0|0:0,0:0:0:0:
458,315,11689,2,0,P|477:311|496:306,1,39.7600004853516,2|0,1:0|0:0,0:0:0:0:
497,212,11902,1,8,0:0:0:0:
390,49,12115,5,10,0:0:0:0:
390,64,12221,1,8,0:0:0:0:
389,82,12327,1,8,0:0:0:0:
388,95,12434,1,8,0:0:0:0:
388,186,12540,54,0,L|335:178,1,39.7600004853516,2|0,1:0|0:0,0:0:0:0:
231,256,12753,1,0,1:0:0:0:
247,216,12859,1,0,0:0:0:0:
248,169,12966,1,0,1:0:0:0:
233,126,13072,1,0,0:0:0:0:
202,93,13178,2,0,L|145:102,1,39.7600004853516,2|0,1:0|0:0,0:0:0:0:
138,261,13391,1,0,1:0:0:0:
160,322,13497,1,2,0:0:0:0:
216,353,13604,1,0,1:0:0:0:
282,346,13710,1,0,0:0:0:0:
354,284,13817,2,0,L|361:235,1,39.7600004853516,10|8,0:0|0:0,0:0:0:0:
391,148,14029,2,0,L|385:108,1,39.7600004853516,10|8,0:0|0:0,0:0:0:0:
308,42,14242,5,6,1:0:0:0:
309,55,14561,1,2,1:0:0:0:
309,71,14880,1,2,1:0:0:0:
194,233,15093,1,2,1:0:0:0:
120,173,15306,54,8,P|163:147|175:146,1,39.7600004853516
245,152,15519,1,6,3:0:0:0:
280,184,15625,1,4,3:0:0:0:
287,228,15732,1,4,3:0:0:0:
258,315,15838,6,0,P|287:250|375:292,1,136.320003328125,6|0,1:0|0:0,0:0:0:0:
432,290,16157,2,0,L|436:176,1,68.1600016640625,0|0,1:0|0:0,0:0:0:0:
312,78,16370,53,8,0:0:0:0:
328,163,16477,1,8,0:0:0:0:
344,251,16583,1,8,0:0:0:0:
448,87,16689,6,0,L|258:74,1,136.320003328125,4|0,1:0|0:0,0:0:0:0:
229,136,17008,2,0,L|129:113,1,68.1600016640625,0|0,1:0|0:0,0:0:0:0:
34,60,17221,53,8,0:0:0:0:
74,135,17327,1,8,0:0:0:0:
79,226,17434,1,8,0:0:0:0:
203,43,17540,6,0,B|230:135|230:135|222:241,1,136.320003328125,0|0,1:0|0:0,0:0:0:0:
189,319,17859,2,0,L|206:251,1,68.1600016640625,0|0,1:0|0:0,0:0:0:0:
400,157,18072,53,8,0:0:0:0:
313,165,18178,1,8,0:0:0:0:
226,175,18285,1,8,0:0:0:0:
430,73,18391,6,0,P|484:128|479:196,1,136.320003328125,4|8,1:0|0:0,0:0:0:0:
404,357,18710,1,0,1:0:0:0:
359,314,18817,1,8,0:0:0:0:
348,228,18923,53,8,0:0:0:0:
389,151,19029,1,8,0:0:0:0:
430,73,19136,1,8,0:0:0:0:
483,242,19242,6,0,L|302:222,1,136.320003328125,4|0,1:0|0:0,0:0:0:0:
221,300,19561,2,0,P|289:280|293:275,1,68.1600016640625,0|0,1:0|0:0,0:0:0:0:
254,40,19774,53,8,0:0:0:0:
247,125,19880,1,8,0:0:0:0:
239,212,19987,1,8,0:0:0:0:
79,63,20093,6,0,P|139:122|143:188,1,136.320003328125,4|0,1:0|0:0,0:0:0:0:
54,290,20412,2,0,P|116:251|133:251,1,68.1600016640625,0|0,1:0|0:0,0:0:0:0:
302,328,20625,53,8,0:0:0:0:
223,358,20732,1,8,0:0:0:0:
134,337,20838,1,8,0:0:0:0:
372,177,20944,22,0,B|340:270|420:250|399:344,1,166.139998985962,4|0,1:0|0:0,0:0:0:0:
454,210,22115,54,0,L|493:214,3,31.2399999046631,8|4|4|4,0:0|3:0|3:0|3:0,0:0:0:0:
256,53,22540,53,4,1:0:0:0:
136,319,22966,1,2,1:0:0:0:
360,191,23178,1,10,0:0:0:0:
271,162,23391,1,2,3:0:0:0:
186,132,23604,1,2,1:0:0:0:
106,177,23817,1,2,3:0:0:0:
315,29,24029,1,8,0:0:0:0:
385,312,24242,1,2,1:0:0:0:
385,312,24668,5,2,1:0:0:0:
315,29,24880,1,10,0:0:0:0:
272,116,25093,1,2,3:0:0:0:
300,207,25306,1,2,1:0:0:0:
205,185,25519,1,2,3:0:0:0:
205,185,25625,1,0,3:0:0:0:
205,185,25732,1,10,0:0:0:0:
112,164,25944,1,2,3:0:0:0:
112,164,26051,1,0,3:0:0:0:
112,164,26157,53,0,1:0:0:0:
125,268,26370,1,2,3:0:0:0:
97,26,26583,1,10,0:0:0:0:
186,43,26795,1,2,3:0:0:0:
171,134,27008,1,2,1:0:0:0:
79,119,27221,1,2,3:0:0:0:
368,161,27434,1,10,0:0:0:0:
79,119,27646,5,2,1:0:0:0:
368,161,28072,53,2,1:0:0:0:
79,119,28285,1,10,0:0:0:0:
176,133,28497,1,0,3:0:0:0:
271,147,28710,1,2,1:0:0:0:
368,161,28923,1,10,0:0:0:0:
368,161,29029,1,0,3:0:0:0:
368,161,29136,1,10,0:0:0:0:
165,38,29349,5,4,1:0:0:0:
197,300,29774,53,2,1:0:0:0:
360,67,29987,1,10,0:0:0:0:
368,161,30200,1,2,3:0:0:0:
275,170,30412,1,2,1:0:0:0:
264,76,30625,1,2,3:0:0:0:
292,341,30838,1,8,0:0:0:0:
119,111,31051,5,2,1:0:0:0:
292,341,31476,53,2,1:0:0:0:
119,111,31689,1,10,0:0:0:0:
177,191,31902,1,2,3:0:0:0:
233,266,32114,1,2,1:0:0:0:
292,341,32327,1,2,3:0:0:0:
292,341,32434,1,0,3:0:0:0:
292,341,32540,1,10,0:0:0:0:
448,72,32753,5,2,1:0:0:0:
292,341,33178,53,2,1:0:0:0:
448,72,33391,1,10,0:0:0:0:
398,159,33604,1,2,3:0:0:0:
318,112,33817,1,2,1:0:0:0:
287,201,34029,1,2,3:0:0:0:
63,118,34242,1,10,0:0:0:0:
378,237,34455,5,6,1:0:0:0:
63,118,34880,53,2,1:0:0:0:
378,237,35093,1,10,0:0:0:0:
287,203,35306,1,0,3:0:0:0:
322,119,35519,1,2,1:0:0:0:
413,153,35732,1,0,3:0:0:0:
413,153,35838,1,0,3:0:0:0:
413,153,35944,1,8,0:0:0:0:
108,275,36157,5,6,1:0:0:0:
413,153,36583,53,2,1:0:0:0:
108,275,36795,1,10,0:0:0:0:
200,235,37008,1,0,3:0:0:0:
287,203,37221,1,2,1:0:0:0:
289,295,37434,1,0,3:0:0:0:
289,295,37540,1,0,3:0:0:0:
289,295,37646,1,8,0:0:0:0:
284,40,37859,5,6,1:0:0:0:
199,304,38072,1,8,0:0:0:0:
239,291,38178,1,8,0:0:0:0:
289,295,38285,1,10,0:0:0:0:
331,318,38391,1,8,0:0:0:0:
379,335,38497,1,10,0:0:0:0:
434,319,38604,1,8,0:0:0:0:
464,266,38710,1,10,0:0:0:0:
458,198,38817,1,8,0:0:0:0:
407,144,38923,53,10,0:0:0:0:
324,134,39029,1,8,0:0:0:0:
259,193,39136,1,10,0:0:0:0:
173,227,39242,1,8,0:0:0:0:
76,208,39349,1,10,0:0:0:0:
35,123,39455,1,8,0:0:0:0:
79,43,39561,1,10,0:0:0:0:
396,57,39774,5,8,0:0:0:0:
396,57,40200,53,8,0:0:0:0:
396,57,40412,2,0,L|333:66,1,46.8599998569946,2|0,0:0|0:0,0:0:0:0:
259,46,40625,2,0,L|212:39,1,46.8599998569946,10|0,0:0|0:0,0:0:0:0:
131,77,40838,2,0,L|84:83,1,46.8599998569946,2|0,0:0|0:0,0:0:0:0:
20,149,41051,2,0,L|36:207,1,46.8599998569946,10|0,0:0|0:0,0:0:0:0:
24,285,41263,1,2,0:0:0:0:
24,285,41476,1,8,0:0:0:0:
24,285,41902,5,8,0:0:0:0:
24,285,42115,2,0,P|80:299|88:299,1,46.8599998569946,2|0,0:0|0:0,0:0:0:0:
162,263,42327,2,0,P|184:267|206:276,1,46.8599998569946,10|0,0:0|0:0,0:0:0:0:
280,337,42540,2,0,P|302:332|324:323,1,46.8599998569946,2|0,0:0|0:0,0:0:0:0:
356,240,42753,2,0,P|377:231|400:226,1,46.8599998569946,10|0,0:0|0:0,0:0:0:0:
487,250,42966,1,2,0:0:0:0:
487,250,43178,1,8,0:0:0:0:
487,250,43604,54,0,L|495:180,1,46.8599998569946,10|0,0:0|0:0,0:0:0:0:
441,132,43817,2,0,L|433:62,1,46.8599998569946,2|0,0:0|0:0,0:0:0:0:
358,41,44029,1,10,0:0:0:0:
358,41,44455,2,0,P|292:54|288:54,1,46.8599998569946,10|0,0:0|0:0,0:0:0:0:
222,43,44668,1,2,0:0:0:0:
222,43,44880,1,8,0:0:0:0:
297,290,45093,5,10,0:0:0:0:
209,272,45306,1,10,0:0:0:0:
121,254,45519,1,10,0:0:0:0:
417,132,45732,53,10,0:0:0:0:
403,220,45945,1,10,0:0:0:0:
390,309,46156,1,10,0:0:0:0:
433,41,46370,5,0,0:0:0:0:
186,132,46583,1,8,0:0:0:0:
269,93,46689,1,8,0:0:0:0:
343,141,46795,1,10,0:0:0:0:
342,226,46902,1,8,0:0:0:0:
270,272,47008,1,10,0:0:0:0:
192,223,47115,1,8,0:0:0:0:
186,132,47221,1,10,0:0:0:0:
269,93,47327,1,8,0:0:0:0:
343,141,47434,6,0,B|344:170|344:170|321:158,1,55.3799996619873,0|0,3:0|0:0,0:0:0:0:
453,92,47859,6,0,L|461:279,1,109.880948388928,8|0,1:0|0:0,0:0:0:0:
423,290,48072,22,0,B|308:262|317:353|185:312,1,225.780000344513,6|0,1:0|1:0,0:0:0:0:
66,260,48497,2,0,P|145:238|153:229,1,75.2600001148377,10|0,0:0|0:0,0:0:0:0:
232,60,48710,1,2,1:0:0:0:
226,145,48817,1,0,1:0:0:0:
218,229,48923,2,0,L|303:224,1,75.2600001148377,10|0,0:0|1:0,0:0:0:0:
385,112,49136,2,0,L|310:108,1,75.2600001148377,2|0,1:0|1:0,0:0:0:0:
139,182,49349,1,8,0:0:0:0:
464,55,49561,1,2,1:0:0:0:
464,55,49774,6,0,B|482:168|482:168|463:252,1,150.520000229675,2|0,1:0|0:0,0:0:0:0:
408,312,50093,1,0,1:0:0:0:
372,237,50200,2,0,L|292:232,1,75.2600001148377,10|0,0:0|0:0,0:0:0:0:
145,332,50412,2,0,L|220:327,1,75.2600001148377,2|0,1:0|0:0,0:0:0:0:
178,93,50625,1,10,0:0:0:0:
112,172,50732,2,0,P|179:191|275:131,1,150.520000229675,0|0,1:0|1:0,0:0:0:0:
421,48,51051,2,0,L|400:131,1,75.2600001148377,8|2,0:0|0:0,0:0:0:0:
274,180,51263,2,0,L|295:263,1,75.2600001148377,0|0,1:0|0:0,0:0:0:0:
378,354,51476,1,8,0:0:0:0:
378,354,51689,54,0,L|289:348,1,75.2600001148377,2|0,1:0|0:0,0:0:0:0:
138,314,51902,1,8,0:0:0:0:
165,273,52008,2,0,L|240:278,1,75.2600001148377,2|0,0:0|1:0,0:0:0:0:
373,194,52221,1,0,1:0:0:0:
292,181,52327,1,10,0:0:0:0:
207,167,52434,2,0,B|133:147|135:215|-7:156,1,150.520000229675,0|0,1:0|1:0,0:0:0:0:
198,69,52753,2,0,P|271:91|278:99,1,75.2600001148377,10|0,0:0|0:0,0:0:0:0:
209,242,52966,2,0,L|206:145,1,75.2600001148377,0|0,1:0|0:0,0:0:0:0:
354,40,53178,2,0,L|349:141,1,75.2600001148377,10|0,0:0|0:0,0:0:0:0:
308,304,53391,6,0,P|345:232|362:227,1,75.2600001148377,2|0,1:0|0:0,0:0:0:0:
421,203,53604,1,8,0:0:0:0:
474,281,53710,2,0,P|437:353|420:358,1,75.2600001148377,2|0,0:0|1:0,0:0:0:0:
365,381,53923,1,0,1:0:0:0:
290,336,54029,1,8,0:0:0:0:
208,286,54136,2,0,L|107:303,1,75.2600001148377,0|2,1:0|0:0,0:0:0:0:
36,192,54349,1,0,1:0:0:0:
120,174,54455,2,0,L|213:159,1,75.2600001148377,8|0,0:0|1:0,0:0:0:0:
324,37,54668,1,8,0:0:0:0:
318,133,54774,1,8,0:0:0:0:
312,226,54880,54,0,P|353:153|444:228,1,225.780000344513,6|0,1:0|1:0,0:0:0:0:
330,319,55306,2,0,L|227:293,1,75.2600001148377,10|0,0:0|0:0,0:0:0:0:
128,124,55519,1,2,1:0:0:0:
193,178,55625,1,0,1:0:0:0:
180,264,55732,2,0,P|92:242|80:230,1,75.2600001148377,10|0,0:0|1:0,0:0:0:0:
208,89,55944,2,0,P|296:111|308:123,1,75.2600001148377,2|0,0:0|1:0,0:0:0:0:
333,221,56157,1,8,0:0:0:0:
49,77,56370,1,2,1:0:0:0:
49,77,56583,6,0,P|119:157|137:235,1,150.520000229675,6|0,1:0|0:0,0:0:0:0:
73,347,56902,1,0,1:0:0:0:
142,287,57008,2,0,P|234:278|255:278,1,75.2600001148377,10|0,0:0|0:0,0:0:0:0:
351,340,57221,2,0,P|259:349|238:349,1,75.2600001148377,2|0,1:0|0:0,0:0:0:0:
287,122,57434,1,10,0:0:0:0:
305,256,57540,2,0,P|267:181|301:108,1,150.520000229675,0|0,1:0|1:0,0:0:0:0:
427,181,57859,2,0,P|345:175|336:168,1,75.2600001148377,8|0,0:0|0:0,0:0:0:0:
246,45,58072,2,0,P|282:36|318:44,1,75.2600001148377,2|0,1:0|0:0,0:0:0:0:
388,98,58285,1,8,0:0:0:0:
66,335,58497,54,0,B|50:256|112:271|95:165,1,150.520000229675,6|8,1:0|0:0,0:0:0:0:
35,33,58817,2,0,P|33:115|37:129,1,75.2600001148377,2|0,0:0|1:0,0:0:0:0:
187,168,59029,1,0,1:0:0:0:
243,102,59135,1,10,0:0:0:0:
336,88,59242,2,0,P|360:168|384:280,1,150.520000229675,0|2,1:0|0:0,0:0:0:0:
368,344,59561,1,8,0:0:0:0:
111,215,59774,2,0,P|110:129|120:117,1,75.2600001148377,2|0,1:0|0:0,0:0:0:0:
266,120,59987,2,0,P|267:206|257:218,1,75.2600001148377,10|0,0:0|0:0,0:0:0:0:
204,280,60200,5,2,1:0:0:0:
205,304,60519,53,2,1:0:0:0:
206,329,60838,5,2,1:0:0:0:
187,168,61051,1,2,1:0:0:0:
378,258,61263,53,8,0:0:0:0:
293,270,61370,1,8,0:0:0:0:
328,200,61476,5,10,3:0:0:0:
333,239,61583,1,4,3:0:0:0:
339,275,61689,1,4,3:0:0:0:
178,59,61795,54,0,B|293:31|293:31|324:59,1,150.520000229675,6|0,1:0|0:0,0:0:0:0:
185,148,62115,2,0,L|80:126,1,75.2600001148377,2|0,1:0|0:0,0:0:0:0:
330,130,62327,5,10,0:0:0:0:
346,218,62434,1,10,0:0:0:0:
363,307,62540,1,8,0:0:0:0:
144,269,62646,54,0,P|231:244|278:305,1,150.520000229675,6|0,1:0|0:0,0:0:0:0:
132,366,62966,2,0,P|68:321|65:302,1,75.2600001148377,2|0,1:0|0:0,0:0:0:0:
132,102,63178,5,10,0:0:0:0:
137,184,63285,1,10,0:0:0:0:
144,269,63391,1,8,0:0:0:0:
54,63,63497,54,0,L|226:47,1,150.520000229675,6|0,1:0|0:0,0:0:0:0:
294,147,63817,2,0,L|204:136,1,75.2600001148377,2|0,1:0|0:0,0:0:0:0:
368,74,64029,5,10,0:0:0:0:
392,156,64136,1,10,0:0:0:0:
352,234,64242,1,8,0:0:0:0:
107,198,64349,54,0,P|195:129|248:163,1,150.520000229675,6|8,1:0|0:0,0:0:0:0:
224,219,64668,1,0,1:0:0:0:
228,267,64774,1,0,1:0:0:0:
163,344,64880,5,8,0:0:0:0:
256,333,64987,1,8,0:0:0:0:
347,317,65093,1,10,0:0:0:0:
440,303,65200,1,10,0:0:0:0:
470,215,65306,54,0,L|392:208,1,75.2600001148377,6|0,1:0|0:0,0:0:0:0:
305,78,65519,1,10,0:0:0:0:
313,123,65625,2,0,L|414:104,1,75.2600001148377,2|0,0:0|1:0,0:0:0:0:
182,57,65838,2,0,L|67:43,1,75.2600001148377,2|8,1:0|0:0,0:0:0:0:
119,276,66051,2,0,P|139:186|136:168,1,75.2600001148377,2|0,1:0|0:0,0:0:0:0:
32,301,66263,1,0,1:0:0:0:
57,339,66370,2,0,P|137:361|146:355,1,75.2600001148377,10|0,0:0|0:0,0:0:0:0:
233,241,66583,2,0,P|313:219|322:225,1,75.2600001148377,0|0,1:0|0:0,0:0:0:0:
437,318,66795,1,10,0:0:0:0:
443,232,66902,1,2,0:0:0:0:
448,144,67008,6,0,L|401:54,1,75.2600001148377,6|0,1:0|0:0,0:0:0:0:
353,279,67221,1,10,0:0:0:0:
297,212,67327,2,0,L|332:146,1,75.2600001148377,2|0,1:0|0:0,0:0:0:0:
233,336,67540,1,10,0:0:0:0:
145,316,67646,1,8,0:0:0:0:
55,293,67753,2,0,P|75:218|36:131,1,150.520000229675,4|0,1:0|1:0,0:0:0:0:
8,36,68072,1,10,0:0:0:0:
90,62,68178,1,8,0:0:0:0:
176,64,68285,1,10,0:0:0:0:
257,34,68391,1,8,0:0:0:0:
475,93,68497,54,0,L|155:61,1,301.040000459351,4|2,1:0|0:0,0:0:0:0:
296,349,69136,1,6,3:0:0:0:
298,333,69242,1,0,3:0:0:0:
298,320,69349,2,0,P|304:243|303:234,1,71.7099985775299,2|0,0:0|0:0,0:0:0:0:
158,76,69561,2,0,P|158:111|179:230,1,143.41999715506,6|0,3:0|0:0,0:0:0:0:
381,191,69880,2,0,P|302:153|233:187,1,143.41999715506,12|0,3:0|0:0,0:0:0:0:
89,265,70200,6,0,L|350:245,1,215.12999573259,6|0,1:0|0:0,0:0:0:0:
157,105,70625,2,0,L|169:211,1,71.7099985775299,10|0,3:0|0:0,0:0:0:0:
303,333,70838,1,10,3:0:0:0:
310,305,70944,2,0,L|286:132,1,143.41999715506,2|2,0:0|0:0,0:0:0:0:
399,33,71263,2,0,L|411:139,1,71.7099985775299,6|0,3:0|0:0,0:0:0:0:
510,225,71476,1,10,0:0:0:0:
435,204,71583,1,4,3:0:0:0:
362,184,71689,1,2,1:0:0:0:
290,162,71795,1,2,1:0:0:0:
141,226,71902,54,0,P|221:254|288:153,1,215.12999573259,6|0,1:0|0:0,0:0:0:0:
206,144,72327,1,0,1:0:0:0:
206,172,72434,1,0,1:0:0:0:
284,301,72540,2,0,L|292:61,1,215.12999573259,14|0,0:0|3:0,0:0:0:0:
449,216,72966,2,0,P|369:237|327:193,1,143.41999715506,14|0,3:0|0:0,0:0:0:0:
396,55,73285,1,6,3:0:0:0:
415,89,73391,2,0,L|394:170,1,71.7099985775299,4|0,3:0|3:0,3:0:0:0:
133,240,73604,6,0,B|219:182|219:182|366:205,1,215.12999573259,6|0,1:0|0:0,0:0:0:0:
233,344,74029,2,0,L|238:251,1,71.7099985775299,14|0,3:0|0:0,0:0:0:0:
311,63,74242,1,10,0:0:0:0:
372,129,74349,2,0,L|192:96,1,143.41999715506,2|0,1:0|0:0,0:0:0:0:
10,251,74668,2,0,P|90:273|144:203,1,143.41999715506,14|0,3:0|0:0,0:0:0:0:
79,53,74987,2,0,L|67:204,1,143.41999715506,14|0,0:0|0:0,0:0:0:0:
166,24,75306,54,0,L|144:276,1,215.12999573259,6|0,1:0|0:0,0:0:0:0:
222,304,75732,1,2,1:0:0:0:
225,276,75838,1,0,1:0:0:0:
341,259,75944,2,0,P|245:288|143:233,1,215.12999573259,14|0,0:0|3:0,0:0:0:0:
309,76,76370,1,6,3:0:0:0:
330,124,76476,2,0,L|235:104,1,71.7099985775299,2|0,0:0|0:0,0:0:0:0:
119,109,76689,1,2,1:0:0:0:
98,157,76795,2,0,L|193:137,1,71.7099985775299,12|0,0:0|0:0,0:0:0:0:
212,11,77008,6,0,L|206:263,1,215.12999573259,6|0,1:0|0:0,0:0:0:0:
202,384,77434,2,0,L|205:283,1,71.7099985775299,6|0,3:0|0:0,0:0:0:0:
294,156,77646,2,0,L|291:227,1,71.7099985775299,14|0,0:0|0:0,0:0:0:0:
291,352,77859,1,2,1:0:0:0:
292,317,77966,1,0,1:0:0:0:
291,286,78072,2,0,P|368:278|428:331,1,143.41999715506,14|2,0:0|3:0,0:0:0:0:
206,226,78391,2,0,P|129:218|69:271,1,143.41999715506,14|2,0:0|3:0,0:0:0:0:
298,135,78710,53,6,1:0:0:0:
298,135,79136,1,2,1:0:0:0:
256,130,79242,1,0,1:0:0:0:
176,72,79349,2,0,P|247:43|335:41,1,143.41999715506,14|0,0:0|0:0,0:0:0:0:
379,207,79668,1,0,3:0:0:0:
392,243,79774,2,0,L|397:93,1,143.41999715506,6|0,3:0|0:0,0:0:0:0:
256,130,80093,2,0,L|260:273,1,143.41999715506,14|0,3:0|0:0,0:0:0:0:
412,374,80412,6,0,L|142:347,1,215.12999573259,6|0,1:0|0:0,0:0:0:0:
30,331,80838,2,0,P|107:314|119:307,1,71.7099985775299,6|0,3:0|0:0,0:0:0:0:
260,273,81051,2,0,P|176:264|99:203,1,143.41999715506,10|0,0:0|0:0,0:0:0:0:
178,71,81370,1,0,3:0:0:0:
202,104,81476,2,0,L|190:188,1,71.7099985775299,14|0,0:0|3:0,0:0:0:0:
281,40,81689,1,0,1:0:0:0:
305,73,81795,2,0,L|293:157,1,71.7099985775299,14|0,0:0|3:0,0:0:0:0:
384,10,82008,1,0,1:0:0:0:
411,42,82115,54,0,L|374:294,1,215.12999573259,14|8,1:2|0:0,0:0:0:0:
251,353,82540,2,0,L|156:328,1,71.7099985775299,2|0,1:0|1:0,0:0:0:0:
208,99,82753,2,0,L|218:263,1,143.41999715506,14|2,0:0|1:0,0:0:0:0:
77,315,83072,1,8,0:0:0:0:
58,278,83178,2,0,L|66:150,1,71.7099985775299,6|8,3:0|0:0,0:0:0:0:
137,104,83391,1,2,1:0:0:0:
208,99,83497,1,0,3:0:0:0:
280,94,83603,1,10,0:0:0:0:
351,89,83710,1,8,0:0:0:0:
445,123,83817,6,0,B|324:118|395:231|216:197,1,215.12999573259,14|8,1:2|0:0,0:0:0:0:
229,45,84242,2,0,P|283:101|286:112,1,71.7099985775299,6|0,3:0|0:0,0:0:0:0:
268,304,84455,2,0,P|223:236|279:200,1,143.41999715506,10|2,0:0|1:0,0:0:0:0:
416,256,84774,1,8,0:0:0:0:
438,291,84880,2,0,L|412:361,1,71.7099985775299,6|8,3:0|0:0,0:0:0:0:
465,130,85093,2,0,L|491:200,1,71.7099985775299,2|0,1:0|1:0,0:0:0:0:
400,54,85306,1,10,0:0:0:0:
317,41,85412,1,10,0:0:0:0:
191,61,85519,54,0,B|256:57|256:57|312:92|312:92|404:87,1,215.12999573259,6|0,1:0|0:0,0:0:0:0:
194,154,85944,1,0,1:0:0:0:
158,147,86051,1,0,1:0:0:0:
102,76,86157,2,0,L|118:270,1,143.41999715506,14|0,0:0|1:0,0:0:0:0:
222,347,86476,1,8,0:0:0:0:
241,310,86583,2,0,L|237:232,1,71.7099985775299,6|8,3:0|0:0,0:0:0:0:
332,356,86795,1,0,1:0:0:0:
351,319,86902,2,0,L|347:241,1,71.7099985775299,6|8,3:0|0:0,0:0:0:0:
433,366,87115,1,8,0:0:0:0:
456,330,87221,6,0,L|447:103,1,215.12999573259,6|0,1:0|0:0,0:0:0:0:
269,146,87646,2,0,P|301:161|372:161,1,71.7099985775299,6|0,3:0|3:0,0:0:0:0:
447,66,87859,2,0,P|362:81|292:59,1,143.41999715506,14|0,0:0|1:0,0:0:0:0:
112,82,88178,1,8,0:0:0:0:
153,31,88285,2,0,P|132:126|144:207,1,143.41999715506,14|0,0:0|1:0,0:0:0:0:
286,286,88604,2,0,P|265:191|277:110,1,143.41999715506,14|0,0:0|1:0,0:0:0:0:
142,328,88923,54,0,P|55:323|53:268,1,143.41999715506,14|0,1:2|0:0,0:0:0:0:
135,171,89242,1,8,0:0:0:0:
143,203,89349,1,6,3:0:0:0:
150,238,89455,1,2,0:0:0:0:
55,137,89561,2,0,L|211:113,1,143.41999715506,14|2,0:0|1:0,0:0:0:0:
349,209,89880,1,10,0:0:0:0:
306,204,89987,1,6,3:0:0:0:
265,200,90093,2,0,B|298:162|298:162|299:257,1,143.41999715506,10|2,0:0|1:0,0:0:0:0:
304,82,90412,2,0,L|304:9,1,71.7099985775299,8|8,0:0|0:0,0:0:0:0:
376,283,90625,6,0,P|296:338|219:240,1,215.12999573259,6|8,1:0|0:0,0:0:0:0:
45,155,91051,2,0,P|93:213|96:228,1,71.7099985775299,6|0,3:0|3:0,0:0:0:0:
185,32,91263,2,0,P|212:114|202:202,1,143.41999715506,14|2,0:0|1:0,0:0:0:0:
112,332,91583,1,8,0:0:0:0:
70,314,91689,2,0,P|143:278|160:276,1,71.7099985775299,6|8,3:0|0:0,0:0:0:0:
210,170,91902,2,0,P|243:183|272:203,1,71.7099985775299,2|0,1:0|3:0,0:0:0:0:
408,100,92115,1,10,0:0:0:0:
434,145,92221,1,10,0:0:0:0:
448,196,92327,54,0,P|431:288|401:357,1,143.41999715506,4|0,1:0|0:0,0:0:0:0:
305,348,92646,1,8,0:0:0:0:
248,344,92753,1,8,0:0:0:0:
206,312,92859,1,8,0:0:0:0:
150,193,92966,5,12,3:0:0:0:
175,141,93072,1,8,0:0:0:0:
226,118,93178,1,8,0:0:0:0:
282,118,93285,1,8,0:0:0:0:
358,208,93391,53,12,3:0:0:0:
402,168,93497,1,8,0:0:0:0:
424,113,93604,1,8,0:0:0:0:
416,60,93710,1,8,0:0:0:0:
377,25,93817,2,0,L|285:26,1,71.7099985775299,10|10,0:0|0:0,0:0:0:0:
275,244,94029,6,0,P|306:163|270:108,1,143.41999715506,6|0,1:0|0:0,0:0:0:0:
177,271,94349,1,0,1:0:0:0:
223,329,94455,1,0,1:0:0:0:
291,338,94561,1,0,1:0:0:0:
351,305,94668,2,0,P|373:242|370:220,1,71.7099985775299,12|0,0:0|0:0,0:0:0:0:
354,28,94880,1,0,1:0:0:0:
297,89,94986,1,8,0:0:0:0:
271,164,95092,1,0,1:0:0:0:
272,247,95200,1,8,0:0:0:0:
291,338,95306,53,8,0:0:0:0:
239,260,95412,1,10,0:0:0:0:
164,197,95519,1,6,3:0:0:0:
73,171,95625,1,6,3:0:0:0:
11,247,95732,6,0,B|47:164|47:164|40:73,1,150.520000229675,6|0,1:0|0:0,0:0:0:0:
171,47,96051,1,0,1:0:0:0:
130,73,96157,2,0,L|137:173,1,75.2600001148377,10|0,0:0|0:0,0:0:0:0:
231,313,96370,2,0,L|236:237,1,75.2600001148377,2|0,1:0|1:0,0:0:0:0:
328,65,96583,1,10,0:0:0:0:
373,139,96689,2,0,P|287:142|245:91,1,150.520000229675,6|0,1:0|1:0,0:0:0:0:
483,41,97008,2,0,L|473:127,1,75.2600001148377,8|0,0:0|0:0,0:0:0:0:
388,301,97221,2,0,L|379:226,1,75.2600001148377,2|0,1:0|0:0,0:0:0:0:
247,97,97434,1,10,0:0:0:0:
183,167,97540,54,0,L|356:140,1,150.520000229675,6|0,1:0|1:0,0:0:0:0:
117,99,97859,2,0,P|89:176|96:199,1,75.2600001148377,8|0,0:0|0:0,0:0:0:0:
212,339,98072,1,0,1:0:0:0:
227,290,98178,1,2,1:0:0:0:
222,242,98285,1,10,0:0:0:0:
145,284,98391,2,0,L|355:270,1,150.520000229675,6|0,1:0|1:0,0:0:0:0:
432,336,98710,2,0,P|370:289|368:285,1,75.2600001148377,8|0,0:0|0:0,0:0:0:0:
426,85,98923,2,0,P|416:168|409:179,1,75.2600001148377,0|0,1:0|0:0,0:0:0:0:
249,196,99136,1,8,0:0:0:0:
287,123,99242,6,0,L|297:330,1,150.520000229675,6|0,1:0|1:0,0:0:0:0:
198,102,99561,2,0,P|249:42|259:41,1,75.2600001148377,8|0,0:0|0:0,0:0:0:0:
153,194,99774,1,0,1:0:0:0:
111,189,99880,1,0,1:0:0:0:
74,184,99987,1,8,0:0:0:0:
82,98,100093,2,0,B|111:189|111:189|109:290,1,150.520000229675,6|0,1:0|1:0,0:0:0:0:
45,365,100412,2,0,L|35:282,1,75.2600001148377,8|0,0:0|0:0,0:0:0:0:
205,221,100625,2,0,L|195:295,1,75.2600001148377,2|0,1:0|0:0,0:0:0:0:
224,94,100838,1,8,0:0:0:0:
254,127,100944,53,6,1:0:0:0:
298,136,101051,1,0,0:0:0:0:
342,121,101157,1,0,1:0:0:0:
398,57,101263,2,0,P|427:131|425:137,1,75.2600001148377,8|0,0:0|0:0,0:0:0:0:
401,319,101476,1,2,1:0:0:0:
358,308,101583,1,0,1:0:0:0:
321,296,101689,1,8,0:0:0:0:
240,240,101795,2,0,P|277:319|220:348,1,150.520000229675,6|0,1:0|1:0,0:0:0:0:
101,163,102115,2,0,L|115:75,1,75.2600001148377,8|0,0:0|1:0,0:0:0:0:
364,45,102327,1,8,0:0:0:0:
348,137,102434,1,8,0:0:0:0:
331,231,102540,1,10,3:0:0:0:
206,280,102646,6,0,B|289:274|262:347|402:319,1,150.520000229675,6|0,1:0|1:0,0:0:0:0:
483,245,102966,2,0,P|405:264|395:262,1,75.2600001148377,8|0,0:0|0:0,0:0:0:0:
210,181,103178,2,0,P|288:200|298:198,1,75.2600001148377,2|0,1:0|1:0,0:0:0:0:
440,138,103391,1,8,0:0:0:0:
476,106,103497,2,0,P|391:111|313:77,1,150.520000229675,6|0,1:0|1:0,0:0:0:0:
173,59,103817,2,0,P|210:55|243:39,1,75.2600001148377,8|0,0:0|0:0,0:0:0:0:
438,35,104029,2,0,P|400:31|367:15,1,75.2600001148377,2|0,1:0|0:0,0:0:0:0:
134,40,104242,1,10,0:0:0:0:
173,59,104348,54,0,L|188:264,1,150.520000229675,6|0,1:0|1:0,1:0:0:0:
230,359,104668,2,0,L|237:284,1,75.2600001148377,8|0,0:0|0:0,0:0:0:0:
264,120,104880,2,0,L|271:201,1,75.2600001148377,2|0,1:0|1:0,0:0:0:0:
350,318,105093,1,10,0:0:0:0:
340,358,105200,2,0,L|350:207,1,150.520000229675,6|0,1:0|1:0,0:0:0:0:
450,109,105519,2,0,L|442:190,1,75.2600001148377,8|0,0:0|0:0,0:0:0:0:
455,353,105732,2,0,L|447:278,1,75.2600001148377,2|0,1:0|0:0,0:0:0:0:
358,116,105944,1,10,0:0:0:0:
230,177,106051,6,0,P|320:166|353:226,1,150.520000229675,6|0,1:0|1:0,0:0:0:0:
141,291,106370,2,0,L|67:258,1,75.2600001148377,8|0,0:0|0:0,0:0:0:0:
128,74,106583,1,2,1:0:0:0:
132,118,106689,1,2,1:0:0:0:
136,162,106795,1,10,0:0:0:0:
54,107,106902,2,0,L|268:89,1,150.520000229675,6|0,1:0|1:0,0:0:0:0:
364,202,107221,2,0,L|259:194,1,75.2600001148377,8|0,0:0|0:0,0:0:0:0:
455,61,107434,2,0,L|466:150,1,75.2600001148377,2|0,1:0|0:0,0:0:0:0:
464,246,107646,1,8,0:0:0:0:
365,186,107753,54,0,L|354:366,1,150.520000229675,6|0,1:0|0:0,0:0:0:0:
355,336,108072,1,0,1:0:0:0:
355,336,108285,5,8,0:0:0:0:
261,345,108391,1,8,3:0:0:0:
176,303,108497,1,4,3:0:0:0:
258,100,108604,54,0,P|282:204|261:246,1,150.520000229675,6|0,1:0|0:0,0:0:0:0:
265,239,108923,1,0,1:0:0:0:
265,239,109136,5,8,0:0:0:0:
180,195,109242,1,8,3:0:0:0:
130,114,109348,1,4,3:0:0:0:
389,116,109455,54,0,B|305:158|305:158|240:135,1,150.520000229675,6|0,1:0|0:0,0:0:0:0:
251,139,109774,1,0,1:0:0:0:
251,139,109987,5,8,0:0:0:0:
302,58,110093,1,8,3:0:0:0:
387,15,110199,1,4,3:0:0:0:
420,237,110306,54,0,P|366:174|379:109,1,150.520000229675,6|8,1:0|0:0,0:0:0:0:
470,141,110625,1,0,1:0:0:0:
444,157,110732,1,4,3:0:0:0:
416,246,110838,5,8,0:0:0:0:
355,316,110944,1,8,0:0:0:0:
262,316,111051,1,8,0:0:0:0:
34,236,111157,54,0,B|106:213|110:260|197:237,1,150.520000229675,6|0,1:0|1:0,0:0:0:0:
325,187,111476,1,12,0:0:0:0:
272,178,111583,1,0,0:0:0:0:
149,161,111689,2,0,P|231:145|242:140,1,75.2600001148377,12|0,0:0|0:0,0:0:0:0:
438,104,111902,5,0,1:0:0:0:
350,106,112008,1,12,0:0:0:0:
279,40,112115,1,8,0:0:0:0:
189,28,112221,1,8,0:0:0:0:
109,68,112328,1,12,0:0:0:0:
58,140,112434,1,8,0:0:0:0:
61,233,112540,54,0,L|71:296,2,50.1733334098918,4|4|8,3:0|3:0|3:0,0:0:0:0:
121,352,112753,5,4,1:0:0:0:
255,191,119561,5,4,1:0:0:0:
329,36,119774,1,8,0:0:0:0:
341,349,120200,37,8,0:0:0:0:
238,76,120412,2,0,P|224:28|192:7,1,75.2600001148377,2|0,0:0|0:0,0:0:0:0:
276,191,120625,2,0,P|301:164|308:127,1,75.2600001148377,10|0,0:0|0:0,0:0:0:0:
225,261,120838,2,0,P|199:234|192:197,1,75.2600001148377,2|0,0:0|0:0,0:0:0:0:
276,331,121051,2,0,P|301:304|308:267,1,75.2600001148377,10|0,0:0|0:0,0:0:0:0:
253,353,121263,1,2,1:0:0:0:
278,183,121476,1,8,0:0:0:0:
14,353,121902,5,8,0:0:0:0:
388,112,122115,2,0,P|430:85|468:91,1,75.2600001148377,2|0,0:0|0:0,0:0:0:0:
282,172,122328,2,0,P|280:134|300:103,1,75.2600001148377,10|0,0:0|0:0,0:0:0:0:
273,258,122539,2,0,P|310:255|339:232,1,75.2600001148377,2|0,0:0|0:0,0:0:0:0:
189,276,122752,2,0,P|187:238|207:207,1,75.2600001148377,10|0,0:0|0:0,0:0:0:0:
191,307,122966,1,2,1:0:0:0:
282,160,123178,1,8,0:0:0:0:
479,281,123604,54,0,L|486:356,1,75.2600001148377,10|0,0:0|0:0,0:0:0:0:
455,157,123817,2,0,L|448:231,1,75.2600001148377,2|0,0:0|0:0,0:0:0:0:
492,40,124029,1,10,0:0:0:0:
153,185,124455,5,10,0:0:0:0:
492,40,124668,53,6,1:0:0:0:
390,65,124880,1,8,0:0:0:0:
410,166,125093,1,8,1:2:0:0:
252,197,125306,1,8,1:2:0:0:
229,18,125519,1,8,1:2:0:0:
0,37,125732,1,8,1:2:0:0:
32,332,125944,1,8,1:2:0:0:
363,310,126157,1,10,1:2:0:0:
338,12,126370,1,6,1:0:0:0:
50,119,126582,5,8,0:0:0:0:
132,136,126689,1,8,0:0:0:0:
207,98,126795,1,10,0:0:0:0:
290,85,126902,1,8,0:0:0:0:
371,108,127008,1,10,0:0:0:0:
423,181,127115,1,8,0:0:0:0:
394,281,127221,1,10,0:0:0:0:
306,330,127327,1,8,0:0:0:0:
210,311,127434,1,10,0:0:0:0:
147,224,127540,1,8,0:0:0:0:
178,123,127646,1,10,0:0:0:0:
264,65,127753,1,8,0:0:0:0:
279,73,128072,6,2,L|280:101,1,23.9601778706399
0,236,128497,6,0,B|49:225|49:225|94:234|94:234|157:221,1,149.810003085991,14|0,0:0|1:0,0:0:0:0:
426,109,128710,2,0,B|377:98|377:98|332:107|332:107|269:94,1,149.810003085991,14|0,0:0|1:0,0:0:0:0:
100,146,128923,1,6,3:0:0:0:
453,30,129029,6,0,L|467:247,1,185.310007705227,12|2,0:0|1:0,0:0:0:0:
256,360,129242,1,8,0:0:0:0:
165,36,129349,54,0,P|207:193|211:221,1,149.810003085991,8|4,0:0|3:0,0:0:0:0:
256,360,129561,2,0,P|272:286|295:215,1,149.810003085991,10|4,0:0|3:0,0:0:0:0:
361,80,129773,22,0,B|332:162|405:161|369:280,1,161.879998023926,14|0,1:2|1:0,0:0:0:0:
441,112,130200,1,10,0:0:0:0:
157,285,130412,1,2,1:0:0:0:
251,28,130625,1,8,0:0:0:0:
269,120,130732,2,0,L|109:108,1,150.520000229675,0|0,1:0|1:0,0:0:0:0:
151,262,131051,1,8,0:0:0:0:
239,10,131263,1,2,1:0:0:0:
313,305,131476,1,8,0:0:0:0:
483,85,131689,5,2,1:0:0:0:
401,93,131795,1,0,1:0:0:0:
317,101,131902,2,0,L|276:169,1,75.2600001148377,8|2,0:0|0:0,0:0:0:0:
176,325,132114,1,0,1:0:0:0:
259,337,132221,1,0,1:0:0:0:
331,297,132327,1,10,0:0:0:0:
373,222,132434,2,0,P|417:298|377:372,1,150.520000229675,0|2,1:0|1:0,0:0:0:0:
464,184,132753,1,8,0:0:0:0:
186,239,132966,2,0,P|102:222|96:219,1,75.2600001148377,2|0,1:0|0:0,0:0:0:0:
153,75,133178,2,0,P|160:161|157:170,1,75.2600001148377,10|0,0:0|0:0,0:0:0:0:
128,320,133391,54,0,P|184:340|224:328,1,75.2600001148377,2|0,1:0|0:0,0:0:0:0:
331,94,133604,2,0,P|376:162|383:185,1,75.2600001148377,8|2,0:0|0:0,0:0:0:0:
393,313,133817,1,0,1:0:0:0:
313,337,133923,1,0,1:0:0:0:
237,301,134029,1,10,0:0:0:0:
208,220,134136,2,0,L|222:137,1,75.2600001148377,0|2,1:0|0:0,0:0:0:0:
308,24,134349,1,0,1:0:0:0:
375,122,134455,2,0,L|291:110,1,75.2600001148377,8|0,0:0|0:0,0:0:0:0:
80,47,134668,1,8,0:0:0:0:
95,145,134774,1,8,0:0:0:0:
59,244,134880,6,0,L|238:215,1,150.520000229675,6|0,1:0|0:0,0:0:0:0:
405,297,135200,1,0,1:0:0:0:
322,340,135306,2,0,P|316:254|321:242,1,75.2600001148377,10|0,0:0|0:0,0:0:0:0:
418,60,135519,2,0,P|419:97|408:133,1,75.2600001148377,2|0,1:0|0:0,0:0:0:0:
180,112,135732,1,10,0:0:0:0:
261,40,135838,2,0,L|274:211,1,150.520000229675,0|0,1:0|1:0,0:0:0:0:
237,321,136157,1,8,0:0:0:0:
159,26,136370,1,2,1:0:0:0:
161,40,136583,54,0,L|174:211,1,150.520000229675,6|0,1:0|0:0,0:0:0:0:
131,350,136902,1,0,1:0:0:0:
155,270,137008,2,0,L|70:256,1,75.2600001148377,10|0,0:0|0:0,0:0:0:0:
249,353,137221,2,0,L|334:339,1,75.2600001148377,2|0,1:0|0:0,0:0:0:0:
321,176,137434,1,10,0:0:0:0:
263,267,137540,2,0,L|426:242,1,150.520000229675,0|0,1:0|1:0,0:0:0:0:
329,81,137859,2,0,L|320:178,1,75.2600001148377,10|0,0:0|0:0,0:0:0:0:
420,331,138072,2,0,L|413:256,1,75.2600001148377,0|0,1:0|0:0,0:0:0:0:
396,26,138285,1,8,0:0:0:0:
396,26,138497,6,0,B|318:54|318:54|235:43,1,150.520000229675,6|8,1:0|0:0,0:0:0:0:
42,171,138817,2,0,P|154:186|208:125,1,150.520000229675,2|0,1:0|1:0,0:0:0:0:
402,158,139136,1,10,0:0:0:0:
284,120,139242,2,0,L|304:312,1,150.520000229675,0|2,1:0|1:0,0:0:0:0:
152,250,139561,2,0,L|179:164,1,75.2600001148377,8|0,0:0|0:0,0:0:0:0:
407,172,139774,2,0,L|429:243,1,75.2600001148377,2|0,1:0|0:0,0:0:0:0:
312,369,139987,1,10,0:0:0:0:
272,26,140200,53,6,1:0:0:0:
310,361,140519,1,2,1:0:0:0:
64,130,140838,1,2,1:0:0:0:
387,71,141051,1,2,1:0:0:0:
250,218,141263,5,8,0:0:0:0:
178,171,141370,1,8,0:0:0:0:
261,174,141476,53,14,3:0:0:0:
270,206,141583,1,4,3:0:0:0:
269,244,141689,1,4,3:0:0:0:
110,51,141795,6,0,B|240:31|240:31|289:59,1,150.520000229675,6|0,1:0|0:0,0:0:0:0:
379,34,142114,2,0,L|360:129,1,75.2600001148377,2|0,1:0|0:0,0:0:0:0:
476,135,142327,53,10,0:0:0:0:
445,219,142434,1,10,0:0:0:0:
390,288,142540,1,8,0:0:0:0:
163,201,142646,6,0,P|269:186|307:255,1,150.520000229675,6|0,1:0|0:0,0:0:0:0:
142,115,142966,2,0,P|77:176|75:191,1,75.2600001148377,6|0,1:0|0:0,0:0:0:0:
251,90,143178,53,10,0:0:0:0:
337,125,143285,1,10,0:0:0:0:
381,204,143391,1,8,0:0:0:0:
218,328,143497,6,0,L|210:140,1,150.520000229675,6|0,1:0|0:0,0:0:0:0:
131,325,143817,2,0,L|126:198,1,75.2600001148377,2|0,1:0|0:0,0:0:0:0:
42,346,144029,53,10,0:0:0:0:
38,257,144136,1,10,0:0:0:0:
36,167,144242,1,8,0:0:0:0:
30,79,144349,6,0,L|113:67,1,75.2600001148377,2|0,1:0|0:0,0:0:0:0:
313,162,144561,1,8,0:0:0:0:
223,150,144668,2,0,L|148:139,1,75.2600001148377,0|0,1:0|1:0,0:0:0:0:
350,56,144880,53,8,0:0:0:0:
353,168,144987,1,8,0:0:0:0:
360,279,145093,1,10,0:0:0:0:
366,378,145200,1,10,0:0:0:0:
201,287,145306,6,0,P|285:255|308:261,1,75.2600001148377,2|0,1:0|0:0,0:0:0:0:
103,361,145519,1,10,0:0:0:0:
71,281,145625,2,0,P|80:201|92:177,1,75.2600001148377,2|0,1:0|0:0,0:0:0:0:
197,24,145838,1,2,1:0:0:0:
252,82,145944,1,8,0:0:0:0:
238,158,146051,2,0,P|156:151|141:141,1,75.2600001148377,2|0,1:0|0:0,0:0:0:0:
379,62,146263,1,2,1:0:0:0:
390,145,146370,2,0,L|370:258,1,75.2600001148377,10|0,0:0|0:0,0:0:0:0:
177,229,146583,2,0,L|163:154,1,75.2600001148377,0|0,1:0|0:0,0:0:0:0:
309,305,146795,1,10,0:0:0:0:
236,348,146902,1,2,0:0:0:0:
148,332,147008,54,0,L|67:304,1,75.2600001148377,6|0,1:0|0:0,0:0:0:0:
215,70,147221,1,10,0:0:0:0:
238,163,147327,2,0,L|131:150,1,75.2600001148377,6|0,1:0|0:0,0:0:0:0:
380,44,147540,1,10,0:0:0:0:
389,130,147646,1,8,0:0:0:0:
398,223,147753,2,0,B|405:300|405:300|306:250,1,150.520000229675,6|0,1:0|1:0,0:0:0:0:
133,166,148072,1,10,0:0:0:0:
73,237,148178,1,8,0:0:0:0:
81,329,148285,1,10,0:0:0:0:
163,374,148391,1,8,0:0:0:0:
170,73,148497,38,0,L|163:373,1,301.040000459351,14|0,1:2|3:0,0:0:0:0:
264,52,149136,2,0,P|349:32|367:32,1,75.2600001148377,10|0,0:0|0:0,0:0:0:0:
245,233,149349,2,0,P|121:230|101:202,2,150.520000229675,2|0|0,1:0|1:0|3:0,0:0:0:0:
31,30,149987,2,0,L|39:129,1,75.2600001148377,10|0,0:0|0:0,0:0:0:0:
99,369,150200,2,0,L|113:194,1,150.520000229675,2|0,3:0|1:0,0:0:0:0:
344,45,150625,6,0,P|294:105|289:119,1,75.2600001148377,2|0,3:0|0:0,0:0:0:0:
378,302,150838,2,0,L|365:204,1,75.2600001148377,10|0,0:0|0:0,0:0:0:0:
182,135,151051,1,2,3:0:0:0:
224,162,151157,1,2,0:0:0:0:
256,190,151263,2,0,L|246:264,1,75.2600001148377,0|0,1:0|0:0,0:0:0:0:
94,114,151476,2,0,L|84:39,1,75.2600001148377,2|0,3:0|0:0,0:0:0:0:
161,262,151689,2,0,L|151:336,1,75.2600001148377,8|0,0:0|0:0,0:0:0:0:
274,59,151902,54,0,B|506:45|506:45|436:135,1,301.040000459351,4|0,1:0|3:0,0:0:0:0:
56,160,152540,2,0,P|47:91|56:72,1,75.2600001148377,10|0,0:0|0:0,0:0:0:0:
213,193,152753,2,0,P|219:271|185:357,2,150.520000229675,2|0|0,3:0|1:0|3:0,0:0:0:0:
466,355,153391,2,0,L|401:288,1,75.2600001148377,10|0,0:0|0:0,0:0:0:0:
469,120,153604,2,0,B|502:309|501:300,1,150.520000229675,2|0,3:0|1:0,0:0:0:0:
276,46,154029,6,0,P|200:36|185:28,1,75.2600001148377,2|0,3:0|0:0,0:0:0:0:
225,315,154242,2,0,P|248:230|249:201,1,75.2600001148377,10|0,0:0|0:0,0:0:0:0:
362,81,154455,2,0,P|370:117|383:152,1,75.2600001148377,2|0,3:0|0:0,0:0:0:0:
127,234,154668,2,0,P|140:198|148:162,1,75.2600001148377,2|0,1:0|0:0,0:0:0:0:
350,265,154880,2,0,L|450:251,1,75.2600001148377,10|0,0:0|0:0,0:0:0:0:
220,79,155093,2,0,L|120:65,1,75.2600001148377,10|0,0:0|0:0,0:0:0:0:
257,324,155306,54,0,B|223:139|357:213|312:-7,1,301.040000459351,6|0,1:0|1:0,0:0:0:0:
145,292,155944,2,0,P|72:251|66:236,1,75.2600001148377,10|0,0:0|0:0,0:0:0:0:
145,68,156157,2,0,P|155:189|139:222,2,150.520000229675,2|0|0,3:0|1:0|3:0,0:0:0:0:
330,325,156795,2,0,L|350:216,1,75.2600001148377,10|0,0:0|0:0,0:0:0:0:
481,174,157008,6,0,P|392:181|313:107,1,150.520000229675,2|0,3:0|1:0,0:0:0:0:
71,216,157434,2,0,P|161:201|180:181,1,75.2600001148377,2|0,3:0|0:0,0:0:0:0:
257,136,157646,2,0,P|167:121|148:101,1,75.2600001148377,10|0,0:0|0:0,0:0:0:0:
29,63,157859,1,2,3:0:0:0:
72,51,157966,1,2,0:0:0:0:
115,45,158072,1,0,1:0:0:0:
221,328,158285,1,2,3:0:0:0:
292,20,158497,1,8,0:0:0:0:
383,315,158710,54,0,P|291:328|210:206,1,225.780000344513,6|0,1:0|0:0,0:0:0:0:
125,175,159136,2,0,L|33:158,1,75.2600001148377,2|0,3:0|0:0,0:0:0:0:
265,124,159349,2,0,L|357:107,1,75.2600001148377,10|0,0:0|0:0,0:0:0:0:
131,86,159561,2,0,L|39:69,1,75.2600001148377,2|0,3:0|0:0,0:0:0:0:
257,38,159774,2,0,L|349:21,1,75.2600001148377,2|0,1:0|0:0,0:0:0:0:
210,235,159987,1,2,3:0:0:0:
480,45,160200,1,8,0:0:0:0:
282,306,160412,6,0,B|122:272|122:272|64:334,1,225.780000344513,2|0,3:0|0:0,0:0:0:0:
44,225,160838,2,0,L|102:160,1,75.2600001148377,2|0,3:0|0:0,0:0:0:0:
276,222,161051,2,0,L|166:199,1,75.2600001148377,10|0,0:0|0:0,0:0:0:0:
366,124,161263,2,0,L|382:223,1,75.2600001148377,2|0,3:0|0:0,0:0:0:0:
459,297,161476,2,0,L|471:222,1,75.2600001148377,2|0,1:0|0:0,0:0:0:0:
352,38,161689,1,10,3:0:0:0:
403,379,161902,1,10,0:0:0:0:
127,84,162114,38,0,L|208:70,1,66.0299973804017,4|0,1:0|0:0,0:0:0:0:
234,148,162540,6,0,L|165:160,1,36.2100002210083,4|0,3:0|0:0,0:0:0:0:
122,269,162753,2,0,L|214:252,1,75.2600001148377,10|0,0:0|0:0,0:0:0:0:
402,112,162966,54,0,P|376:136|368:167,1,66.0299973804017,6|0,1:0|0:0,0:0:0:0:
297,229,163391,6,0,P|314:281|322:288,1,36.2100002210083,4|0,3:0|0:0,0:0:0:0:
247,365,163604,2,0,P|327:374|338:370,1,75.2600001148377,10|0,0:0|0:0,0:0:0:0:
456,122,163817,54,0,L|391:110,1,55.3799996619873,6|0,1:0|0:0,0:0:0:0:
192,160,164242,54,0,P|280:144|288:136,1,75.2600001148377,6|0,3:0|0:0,0:0:0:0:
80,48,164455,2,0,P|56:128|56:144,1,75.2600001148377,10|0,0:0|0:0,0:0:0:0:
132,345,164668,1,2,1:0:0:0:
189,264,164774,2,0,L|98:254,1,75.2600001148377,10|8,0:0|0:0,0:0:0:0:
285,348,164987,1,0,1:0:0:0:
323,264,165093,2,0,L|397:255,1,75.2600001148377,10|0,0:0|0:0,0:0:0:0:
263,44,165306,2,0,L|257:135,1,75.2600001148377,10|0,0:0|0:0,0:0:0:0:
60,222,165519,6,0,P|105:243|118:264,1,66.0299973804017,0|0,1:0|0:0,0:0:0:0:
237,210,165944,6,0,P|246:262|243:274,1,36.2100002210083,4|0,3:0|0:0,0:0:0:0:
430,349,166157,2,0,P|417:267|420:254,1,75.2600001148377,10|0,0:0|0:0,0:0:0:0:
470,35,166370,54,0,L|465:111,1,66.0299973804017,6|0,1:0|0:0,0:0:0:0:
338,190,166795,6,0,L|347:136,1,36.2100002210083,4|0,3:0|0:0,0:0:0:0:
176,45,167008,2,0,L|196:136,1,75.2600001148377,10|0,0:0|0:0,0:0:0:0:
97,309,167221,21,6,3:0:0:0:
156,253,167327,1,8,0:0:0:0:
237,242,167434,1,8,0:0:0:0:
312,280,167540,1,8,0:0:0:0:
397,269,167646,1,8,0:0:0:0:
440,200,167753,1,8,0:0:0:0:
434,114,167859,1,0,1:0:0:0:
367,62,167966,1,8,0:0:0:0:
287,90,168072,1,8,0:0:0:0:
203,92,168178,1,8,0:0:0:0:
128,57,168285,1,0,1:0:0:0:
51,93,168391,1,8,0:0:0:0:
28,175,168497,1,10,0:0:0:0:
56,256,168604,1,8,0:0:0:0:
124,308,168710,6,0,P|155:304|195:284,2,50.1733334098918,6|4|4,3:0|3:0|3:0,0:0:0:0:
147,204,168923,6,0,B|314:184|232:336|421:321,1,313.819998084595,6|0,1:0|0:0,0:0:0:0:
428,237,170838,6,0,L|433:189,3,45.440001109375,8|8|8|8,0:0|0:0|0:0|0:0,0:0:0:0:
349,133,171122,2,0,L|353:178,4,45.440001109375,8|4|4|0|0,3:0|3:0|3:0|3:0|3:0,0:0:0:0:
275,72,171476,22,0,B|197:86|197:86|150:65|150:65|62:77,1,204.480004992188,6|0,1:0|0:0,0:0:0:0:
0,165,171901,2,0,L|93:175,1,68.1600016640625,0|0,1:0|0:0,0:0:0:0:
221,309,172113,5,8,0:0:0:0:
205,224,172219,1,8,0:0:0:0:
189,136,172327,1,8,0:0:0:0:
94,274,172433,54,0,P|147:305|267:289,1,136.320003328125,4|0,1:0|0:0,0:0:0:0:
304,251,172752,2,0,P|341:247|404:274,1,68.1600016640625,0|0,1:0|0:0,0:0:0:0:
499,327,172965,5,8,0:0:0:0:
459,252,173071,1,8,0:0:0:0:
454,161,173178,1,8,0:0:0:0:
330,344,173284,54,0,B|303:252|303:252|311:146,1,136.320003328125,4|0,1:0|0:0,0:0:0:0:
344,68,173603,2,0,L|327:136,1,68.1600016640625,0|0,1:0|0:0,0:0:0:0:
133,230,173816,5,8,0:0:0:0:
220,222,173922,1,8,0:0:0:0:
307,212,174029,1,8,0:0:0:0:
103,314,174135,54,0,P|49:259|54:191,1,136.320003328125,4|8,1:0|0:0,0:0:0:0:
129,30,174454,1,0,1:0:0:0:
174,73,174561,1,8,0:0:0:0:
185,159,174667,5,10,0:0:0:0:
144,236,174773,1,10,0:0:0:0:
103,314,174880,1,10,0:0:0:0:
50,145,174986,54,0,L|231:165,1,136.320003328125,4|0,1:0|0:0,0:0:0:0:
312,87,175305,2,0,P|244:107|240:112,1,68.1600016640625,0|0,1:0|0:0,0:0:0:0:
279,347,175518,5,8,0:0:0:0:
286,262,175624,1,8,0:0:0:0:
294,175,175731,1,8,0:0:0:0:
454,324,175837,54,0,P|394:265|390:199,1,136.320003328125,4|0,1:0|0:0,0:0:0:0:
479,97,176156,2,0,P|417:136|400:136,1,68.1600016640625,0|0,1:0|0:0,0:0:0:0:
231,59,176369,5,8,0:0:0:0:
310,29,176476,1,8,0:0:0:0:
399,50,176582,1,8,0:0:0:0:
224,151,176688,54,0,B|86:104,1,136.320003328125,4|0,1:0|0:0,0:0:0:0:
10,220,177007,2,0,L|114:197,1,68.1600016640625,0|0,1:0|0:0,0:0:0:0:
258,137,177220,5,8,0:0:0:0:
176,106,177326,1,8,0:0:0:0:
93,77,177433,1,8,0:0:0:0:
0,246,177539,54,0,B|109:224,1,68.1600016640625,4|0,1:0|0:0,0:0:0:0:
267,108,177752,1,8,0:0:0:0:
185,77,177858,1,8,0:0:0:0:
102,48,177965,1,8,0:0:0:0:
198,36,178071,1,8,0:0:0:0:
289,25,178177,1,8,0:0:0:0:
379,17,178284,1,8,0:0:0:0:
464,173,178390,6,0,P|389:142|370:111,1,68.1600016640625,4|0,1:0|0:0,0:0:0:0:
206,264,178603,1,0,1:0:0:0:
277,182,178709,2,0,P|304:252|309:277,1,68.1600016640625,8|0,0:0|0:0,0:0:0:0:
197,108,178922,1,0,1:0:0:0:
246,87,179028,1,0,1:0:0:0:
298,84,179135,1,8,0:0:0:0:
395,240,179241,54,0,P|366:317|347:327,1,68.1600016640625,4|0,1:0|0:0,0:0:0:0:
467,127,179454,1,0,1:0:0:0:
489,212,179560,2,0,P|489:245|504:276,1,68.1600016640625,8|0,0:0|0:0,0:0:0:0:
381,151,179773,1,0,1:0:0:0:
329,153,179880,1,0,1:0:0:0:
280,175,179986,1,8,0:0:0:0:
151,309,180092,6,0,P|240:326|259:325,1,68.1600016640625,4|0,1:0|0:0,0:0:0:0:
85,186,180305,1,0,1:0:0:0:
35,257,180411,2,0,P|15:328|12:343,1,68.1600016640625,8|0,0:0|0:0,0:0:0:0:
183,178,180624,1,0,1:0:0:0:
198,128,180731,1,0,1:0:0:0:
196,75,180837,1,8,0:0:0:0:
288,210,180943,54,0,L|304:288,1,68.1600016640625,4|0,1:0|0:0,0:0:0:0:
383,81,181156,1,0,1:0:0:0:
443,143,181262,2,0,L|429:209,1,68.1600016640625,8|0,0:0|0:0,0:0:0:0:
297,99,181475,1,0,1:0:0:0:
248,78,181581,1,0,1:0:0:0:
196,75,181688,1,8,0:0:0:0:
28,205,181794,6,0,P|99:210|165:180,1,136.320003328125,0|0,1:0|1:0,0:0:0:0:
289,273,182113,2,0,P|211:262|204:256,1,68.1600016640625,8|0,0:0|0:0,0:0:0:0:
356,123,182326,2,0,P|379:199|379:212,1,68.1600016640625,0|0,1:0|1:0,0:0:0:0:
357,351,182539,1,8,0:0:0:0:
253,176,182645,54,0,L|271:17,1,136.320003328125,0|0,1:0|1:0,0:0:0:0:
453,149,182964,2,0,L|470:238,1,68.1600016640625,8|0,0:0|0:0,0:0:0:0:
164,186,183176,2,0,L|176:119,1,68.1600016640625,0|0,1:0|0:0,0:0:0:0:
366,45,183389,1,8,0:0:0:0:
219,292,183496,38,0,P|79:265|53:141,1,228.620000348846,4|0,1:0|0:0,0:0:0:0:
373,160,183815,2,0,P|393:281|378:301,1,114.310000174423,4|0,1:0|0:0,0:0:0:0:
176,118,184027,5,8,0:0:0:0:
259,58,184134,1,4,3:0:0:0:
366,45,184240,1,4,3:0:0:0:
305,312,184347,54,0,L|271:61,1,228.620000348846,4|0,1:0|0:0,0:0:0:0:
116,348,184666,2,0,L|139:204,1,114.310000174423,4|0,1:0|0:0,0:0:0:0:
56,27,184878,5,8,0:0:0:0:
18,120,184985,1,8,3:0:0:0:
31,227,185091,1,8,3:0:0:0:
155,62,185198,54,0,B|272:14|262:134|430:58,1,228.620000348846,4|0,1:0|0:0,0:0:0:0:
477,298,185517,2,0,P|352:266|341:246,1,114.310000174423,4|0,1:0|0:0,0:0:0:0:
445,22,185730,5,8,0:0:0:0:
462,123,185835,1,4,3:0:0:0:
434,223,185943,1,4,3:0:0:0:
155,62,186049,54,0,L|175:196,1,114.310000174423,4|0,1:0|0:0,0:0:0:0:
65,333,186261,1,8,0:0:0:0:
129,274,186368,1,4,3:0:0:0:
218,261,186474,1,4,3:0:0:0:
328,335,186581,5,8,0:0:0:0:
256,253,186687,1,8,0:0:0:0:
264,147,186793,1,8,0:0:0:0:
496,246,186900,54,0,P|347:228|345:70,1,299.620006171982,4|0,1:0|0:0,0:0:0:0:
137,253,187219,2,0,P|39:248|-4:189,1,149.810003085991,4|0,1:0|0:0,0:0:0:0:
200,28,187432,5,8,0:0:0:0:
216,144,187538,1,4,3:0:0:0:
230,260,187644,1,4,3:0:0:0:
431,16,187751,54,0,L|416:252,1,149.810003085991,4|0,1:0|0:0,0:0:0:0:
399,353,187964,1,8,0:0:0:0:
331,281,188070,1,4,3:0:0:0:
230,260,188176,1,4,3:0:0:0:
105,326,188283,5,8,0:0:0:0:
178,229,188389,1,8,0:0:0:0:
161,107,188495,1,8,0:0:0:0:
267,354,188602,54,0,L|278:37,1,299.620006171982,4|0,1:0|1:0,0:0:0:0:
78,329,188921,2,0,L|53:154,1,149.810003085991,12|0,0:0|0:0,0:0:0:0:
432,336,189134,2,0,L|457:161,1,149.810003085991,12|0,0:0|0:0,0:0:0:0:
271,19,189347,1,4,3:0:0:0:
163,359,189453,6,0,B|195:295|139:284|169:212,1,149.810003085991,12|0,0:0|0:0,0:0:0:0:
277,54,189666,1,4,3:0:0:0:
347,372,189772,2,0,B|314:308|370:297|340:225,1,149.810003085991,12|0,0:0|0:0,0:0:0:0:
92,75,189985,53,8,0:0:0:0:
198,121,190091,1,8,0:0:0:0:
312,139,190198,1,8,0:0:0:0:
427,121,190304,1,8,0:0:0:0:
