osu file format v14

[General]
AudioFilename: audio.mp3
AudioLeadIn: 0
PreviewTime: 67406
Countdown: 0
SampleSet: Soft
StackLeniency: 0.7
Mode: 0
LetterboxInBreaks: 0
WidescreenStoryboard: 0

[Editor]
DistanceSpacing: 2
BeatDivisor: 4
GridSize: 32
TimelineZoom: 2.799999

[Metadata]
Title:Hello!My World!!
TitleUnicode:Hello!My World!!
Artist:fhana
ArtistUnicode:fhána
Creator:Sotarks
Version:Melancholy
Source:ナイツ&マジック
Tags:Knight's & Magic ending ed tv size lantis Junichi Sato yuxuki waga kevin mitsunaga towana akitoshi corinn rizia kawaiwkyik
BeatmapID:1347710
BeatmapSetID:635110

[Difficulty]
HPDrainRate:6
CircleSize:4.2
OverallDifficulty:8.5
ApproachRate:9.4
SliderMultiplier:1.42
SliderTickRate:1

[Events]
//Background and Video events
Video,0,"video.avi"
0,0,"BG.jpg",0,0
//Break Periods
//Storyboard Layer 0 (Background)
//Storyboard Layer 1 (Fail)
//Storyboard Layer 2 (Pass)
//Storyboard Layer 3 (Foreground)
//Storyboard Sound Samples

[TimingPoints]
-891,425.531914893617,4,2,22,42,1,0
598,-121.951219512195,4,2,22,42,0,0
7406,-65.7894736842105,4,2,22,62,0,0
14321,-54.9450549450549,4,2,22,82,0,0
19427,-161.290322580645,4,2,22,82,0,0
19534,-161.290322580645,4,2,22,72,0,0
19959,-161.290322580645,4,2,22,62,0,0
20385,-161.290322580645,4,2,22,52,0,0
20598,-65.7894736842105,4,2,22,52,0,0
21023,-75.7575757575758,4,2,22,52,0,0
36555,-75.7575757575758,4,2,22,22,0,0
36768,-75.7575757575758,4,2,22,32,0,0
37193,-75.7575757575758,4,2,22,42,0,0
37619,-75.7575757575758,4,2,22,52,0,0
37832,-75.7575757575758,4,2,22,62,0,0
38044,-75.7575757575758,4,2,22,72,0,0
38257,-75.7575757575758,4,2,2,42,0,0
43151,-70.4225352112676,4,2,22,52,0,0
45066,-70.4225352112676,4,2,22,22,0,0
45278,-70.4225352112676,4,2,22,32,0,0
45491,-70.4225352112676,4,2,22,42,0,0
45704,-70.4225352112676,4,2,22,52,0,0
45917,-70.4225352112676,4,2,22,62,0,0
46129,-70.4225352112676,4,2,22,72,0,0
46555,-52.0833333333333,4,2,22,92,0,1
67406,-54.9450549450549,4,2,22,82,0,1
87406,-52.0833333333333,4,2,22,82,0,0
89108,-52.0833333333333,4,2,22,5,0,0

[Colours]
Combo1 : 251,202,209
Combo2 : 88,121,220
Combo3 : 243,73,24
Combo4 : 41,36,255
SliderBorder : 240,255,255
SliderTrackOverride : 10,0,0

[HitObjects]
126,136,598,6,0,P|203:127|259:126,1,116.440001776733,2|2,0:0|0:0,0:0:0:0:
389,191,1236,1,2,0:0:0:0:
230,222,1449,1,2,0:0:0:0:
319,97,1661,2,0,B|339:164|288:154|315:226,1,116.440001776733,2|2,0:0|0:0,0:0:0:0:
252,47,2300,6,0,L|122:40,1,116.440001776733,2|2,0:0|0:0,0:0:0:0:
91,221,2938,1,2,0:0:0:0:
61,33,3151,1,2,0:0:0:0:
189,158,3363,2,0,B|148:159|148:159|119:141|119:141|65:141,1,116.440001776733,2|2,0:0|0:0,0:0:0:0:
319,300,4215,6,0,P|324:256|319:226,1,58.2200008883667,2|0,0:0|0:0,0:0:0:0:
269,191,4534,2,0,P|264:162|265:133,1,58.2200008883667,2|0,0:0|0:0,0:0:0:0:
317,80,4853,2,0,L|220:72,2,87.3300013325501,0|2|2,0:0|0:0|0:0,0:0:0:0:
136,62,5704,1,2,0:0:0:0:
380,29,5917,6,0,P|397:74|390:124,2,87.3300013325501,2|2|2,0:0|0:0|0:0,0:0:0:0:
418,246,6768,1,10,0:0:0:0:
292,134,6980,1,8,0:0:0:0:
218,116,7087,1,8,0:0:0:0:
143,123,7193,1,8,0:0:0:0:
87,174,7300,1,8,0:0:0:0:
71,250,7406,6,0,P|69:286|74:315,1,53.9599993413086,2|0,1:0|0:0,0:0:0:0:
143,123,7619,2,0,P|145:96|143:69,1,53.9599993413086,8|0,0:0|0:0,0:0:0:0:
145,275,7832,1,10,0:0:0:0:
271,55,8044,5,2,1:0:0:0:
339,62,8150,1,0,1:0:0:0:
392,112,8256,1,10,0:0:0:0:
396,187,8363,1,0,0:0:0:0:
346,246,8470,2,0,P|338:305|340:317,1,53.9599993413086,2|0,1:0|0:0,0:0:0:0:
476,199,8683,2,0,P|474:172|467:146,1,53.9599993413086,8|0,0:0|0:0,0:0:0:0:
282,194,8895,1,2,1:0:0:0:
206,189,9002,1,8,0:0:0:0:
134,160,9108,6,0,L|141:227,1,53.9599993413086,6|0,1:0|0:0,0:0:0:0:
301,115,9321,2,0,L|306:61,1,53.9599993413086,8|0,0:0|0:0,0:0:0:0:
266,277,9534,1,10,0:0:0:0:
143,76,9746,5,2,1:0:0:0:
79,101,9852,1,0,1:0:0:0:
50,164,9960,1,10,0:0:0:0:
72,229,10065,1,0,0:0:0:0:
56,298,10172,2,0,P|48:356|49:367,1,53.9599993413086,2|0,1:0|0:0,0:0:0:0:
189,155,10385,1,8,0:0:0:0:
264,148,10491,1,0,1:0:0:0:
339,140,10597,2,0,L|406:148,1,53.9599993413086,2|8,1:0|0:0,0:0:0:0:
443,305,10810,2,0,L|389:298,1,53.9599993413086,8|8,0:0|0:0,0:0:0:0:
160,259,11023,5,2,1:0:0:0:
179,249,11129,1,8,0:0:0:0:
200,242,11236,2,0,P|257:234|264:235,1,53.9599993413086
319,341,11449,5,0,1:0:0:0:
320,301,11555,1,8,0:0:0:0:
321,260,11661,2,0,L|323:171,1,53.9599993413086,8|0,0:0|0:0,0:0:0:0:
429,120,11874,5,0,1:0:0:0:
379,97,11980,1,0,1:0:0:0:
327,86,12086,1,8,0:0:0:0:
273,86,12193,1,8,0:0:0:0:
220,96,12300,2,0,P|155:117|144:122,1,53.9599993413086,0|0,1:0|0:0,0:0:0:0:
322,206,12512,2,0,P|387:226|398:231,1,53.9599993413086,8|8,0:0|0:0,0:0:0:0:
93,138,12725,5,6,1:0:0:0:
80,145,13044,5,2,1:0:0:0:
69,153,13363,5,2,1:0:0:0:
267,321,13576,1,2,1:0:0:0:
349,268,13789,5,8,0:0:0:0:
275,241,13895,1,8,0:0:0:0:
200,269,14002,5,10,3:0:0:0:
185,307,14108,1,4,3:0:0:0:
183,343,14215,1,4,3:0:0:0:
211,198,14321,6,0,B|124:187|157:272|47:218,1,129.22000433783,6|0,1:0|0:0,0:0:0:0:
213,121,14640,2,0,P|259:136|272:156,1,64.6100021689149,0|0,1:0|0:0,0:0:0:0:
310,282,14853,5,8,0:0:0:0:
260,239,14959,1,8,0:0:0:0:
211,198,15065,1,8,0:0:0:0:
334,77,15172,6,0,B|348:161|348:161|324:219,1,129.22000433783,4|0,1:0|0:0,0:0:0:0:
410,73,15491,2,0,L|421:141,1,64.6100021689149,0|0,1:0|0:0,0:0:0:0:
402,291,15704,5,8,0:0:0:0:
386,230,15811,1,8,0:0:0:0:
331,201,15917,1,8,0:0:0:0:
197,266,16023,6,0,P|269:300|325:262,1,129.22000433783,4|0,1:0|0:0,0:0:0:0:
167,199,16342,2,0,P|129:226|124:254,1,64.6100021689149,0|0,1:0|0:0,0:0:0:0:
259,223,16555,5,8,0:0:0:0:
253,161,16662,1,8,0:0:0:0:
209,119,16768,1,8,0:0:0:0:
37,206,16874,6,0,L|174:198,1,129.22000433783,4|0,1:0|0:0,0:0:0:0:
243,51,17194,2,0,P|175:50|168:55,1,64.6100021689149,4|0,1:0|1:0,0:0:0:0:
24,125,17406,5,8,0:0:0:0:
37,206,17513,1,8,0:0:0:0:
52,287,17619,1,8,0:0:0:0:
129,129,17726,6,0,P|201:129|235:228,1,129.22000433783,4|0,1:0|0:0,0:0:0:0:
294,99,18045,2,0,P|322:161|320:175,1,64.6100021689149,0|0,1:0|0:0,0:0:0:0:
220,283,18257,5,8,0:0:0:0:
203,222,18364,1,8,0:0:0:0:
236,168,18470,1,8,0:0:0:0:
282,333,18577,6,0,L|115:322,1,129.22000433783,4|0,1:0|0:0,0:0:0:0:
0,288,18896,2,0,L|96:275,1,64.6100021689149,0|0,1:0|0:0,0:0:0:0:
203,222,19109,5,8,0:0:0:0:
140,218,19215,1,8,0:0:0:0:
102,169,19321,1,8,0:0:0:0:
276,169,19428,6,0,B|306:214|279:267|279:267|255:312|281:361,1,198.089992141205,4|0,1:0|0:0,0:0:0:0:
313,106,20598,2,0,P|292:97|245:99,3,35.9733328942057,8|4|8|8,3:0|3:0|3:0|3:0,0:0:0:0:
352,312,21024,5,4,1:0:0:0:
352,312,21450,2,0,P|394:275|417:268,1,46.8599998569946,2|0,3:0|0:0,0:0:0:0:
279,357,21662,1,10,0:0:0:0:
192,169,21875,1,2,3:0:0:0:
80,353,22088,2,0,P|37:313|35:308,1,46.8599998569946,2|0,1:0|0:0,0:0:0:0:
87,187,22301,2,0,P|107:251|98:297,1,93.7199997139893,2|8,3:0|0:0,0:0:0:0:
192,45,22726,5,2,1:0:0:0:
192,45,23152,2,0,P|211:102|213:126,1,46.8599998569946,2|0,3:0|0:0,0:0:0:0:
229,219,23364,2,0,P|235:196|245:175,1,46.8599998569946,10|0,0:0|0:0,0:0:0:0:
207,319,23577,1,2,3:0:0:0:
289,101,23790,1,2,1:0:0:0:
150,258,24003,1,2,3:0:0:0:
369,112,24216,1,10,0:0:0:0:
96,195,24428,1,2,3:0:0:0:
96,195,24641,6,0,P|38:211|35:213,1,46.8599998569946,0|0,1:0|0:0,0:0:0:0:
141,123,24854,2,0,P|118:115|95:113,1,46.8599998569946,2|0,3:0|0:0,0:0:0:0:
283,46,25067,1,10,0:0:0:0:
227,296,25279,1,2,3:0:0:0:
216,90,25492,2,0,L|230:154,1,46.8599998569946,2|0,1:0|0:0,0:0:0:0:
280,236,25705,2,0,L|290:190,1,46.8599998569946,2|0,3:0|0:0,0:0:0:0:
358,72,25918,2,0,L|368:117,1,46.8599998569946,10|0,0:0|0:0,0:0:0:0:
429,209,26130,6,0,L|271:187,1,140.579999570984,2|0,1:0|0:0,0:0:0:0:
199,230,26556,1,2,3:0:0:0:
84,78,26769,2,0,P|129:120|137:141,1,46.8599998569946,10|0,0:0|0:0,0:0:0:0:
109,208,26981,2,0,P|88:195|72:179,1,46.8599998569946,0|0,3:0|0:0,0:0:0:0:
181,61,27194,2,0,P|192:81|198:104,1,46.8599998569946,2|0,1:0|0:0,0:0:0:0:
122,301,27407,1,10,0:0:0:0:
284,106,27620,1,10,0:0:0:0:
283,319,27833,6,0,P|230:318|202:233,1,140.579999570984,4|0,1:0|0:0,0:0:0:0:
238,179,28258,1,2,3:0:0:0:
355,289,28471,2,0,P|361:340|359:363,1,46.8599998569946,10|0,0:0|0:0,0:0:0:0:
324,169,28684,2,0,P|318:220|320:243,1,46.8599998569946,2|0,3:0|0:0,0:0:0:0:
376,56,28896,2,0,P|382:107|380:130,1,46.8599998569946,2|0,1:0|0:0,0:0:0:0:
242,37,29109,1,2,3:0:0:0:
464,62,29322,1,8,0:0:0:0:
180,107,29535,6,0,B|84:150|98:66|-17:117,1,187.439999427979,2|2,1:0|3:0,0:0:0:0:
136,34,30173,1,10,0:0:0:0:
43,183,30386,1,2,3:0:0:0:
234,47,30598,2,0,P|259:106|257:119,1,46.8599998569946,2|0,1:0|0:0,0:0:0:0:
108,280,30811,2,0,P|115:223|121:211,1,46.8599998569946,2|0,3:0|0:0,0:0:0:0:
180,107,31024,2,0,P|184:130|183:153,1,46.8599998569946,10|0,0:0|0:0,0:0:0:0:
38,320,31237,6,0,L|213:302,1,140.579999570984,4|0,1:0|0:0,0:0:0:0:
258,344,31662,2,0,P|317:325|322:321,1,46.8599998569946,2|0,3:0|0:0,0:0:0:0:
263,173,31875,2,0,P|259:229|262:240,1,46.8599998569946,10|0,0:0|0:0,0:0:0:0:
381,347,32088,2,0,P|380:323|375:300,1,46.8599998569946,2|0,3:0|0:0,0:0:0:0:
183,206,32301,1,2,1:0:0:0:
339,137,32513,1,2,3:0:0:0:
303,333,32726,1,10,0:0:0:0:
302,71,32939,6,0,P|363:66|412:148,1,140.579999570984,6|0,1:0|0:0,0:0:0:0:
382,205,33364,1,2,3:0:0:0:
222,109,33577,2,0,L|96:99,1,93.7199997139893,10|0,0:0|3:0,0:0:0:0:
355,285,34003,1,2,1:0:0:0:
212,189,34216,2,0,P|191:238|191:254,1,46.8599998569946,0|0,3:0|0:0,0:0:0:0:
302,99,34428,2,0,P|294:76|281:57,1,46.8599998569946,8|0,0:0|0:0,0:0:0:0:
263,271,34641,6,0,L|92:258,1,140.579999570984,6|0,1:0|0:0,0:0:0:0:
43,293,35067,1,2,3:0:0:0:
103,93,35279,2,0,P|130:153|121:195,1,93.7199997139893,10|0,0:0|3:0,0:0:0:0:
287,31,35705,1,2,1:0:0:0:
193,216,35918,2,0,P|144:252|136:253,1,46.8599998569946,0|0,3:0|0:0,0:0:0:0:
176,71,36130,2,0,P|225:35|233:34,1,46.8599998569946,8|0,0:0|0:0,0:0:0:0:
258,267,36343,5,6,1:0:0:0:
275,77,36556,1,8,0:0:0:0:
302,73,36662,1,8,0:0:0:0:
339,74,36769,1,8,0:0:0:0:
376,86,36875,1,8,0:0:0:0:
406,117,36981,1,10,0:0:0:0:
420,166,37088,1,8,0:0:0:0:
422,226,37194,1,10,0:0:0:0:
376,276,37301,1,8,0:0:0:0:
299,276,37407,5,10,0:0:0:0:
237,228,37513,1,8,0:0:0:0:
161,202,37620,1,10,0:0:0:0:
85,227,37726,1,8,0:0:0:0:
73,309,37833,1,10,0:0:0:0:
136,366,37939,1,8,0:0:0:0:
211,327,38045,5,2,1:0:0:0:
260,151,38258,1,8,0:0:0:0:
0,367,38684,1,8,0:0:0:0:
110,157,38896,2,0,P|119:222|120:238,1,46.8599998569946,2|0,0:0|0:0,0:0:0:0:
94,357,39109,2,0,P|97:333|101:310,1,46.8599998569946,10|0,0:0|0:0,0:0:0:0:
186,129,39322,1,2,0:0:0:0:
176,357,39535,1,10,0:0:0:0:
270,104,39747,5,2,0:0:0:0:
368,323,39960,1,8,0:0:0:0:
422,27,40386,1,8,0:0:0:0:
431,260,40599,2,0,P|402:211|400:201,1,46.8599998569946,2|0,0:0|0:0,0:0:0:0:
345,22,40811,2,0,L|343:92,1,46.8599998569946,10|0,0:0|0:0,0:0:0:0:
368,323,41024,1,2,0:0:0:0:
270,104,41237,1,10,0:0:0:0:
201,346,41450,5,2,0:0:0:0:
405,221,41662,1,8,0:0:0:0:
60,186,42088,1,10,0:0:0:0:
354,154,42301,2,0,P|305:170|296:170,1,46.8599998569946,2|0,0:0|0:0,0:0:0:0:
91,105,42513,2,0,P|151:125|214:105,1,93.7199997139893,10|0,0:0|0:0,0:0:0:0:
380,56,42939,2,0,P|359:66|336:71,1,46.8599998569946,10|0,0:0|0:0,0:0:0:0:
150,45,43152,5,6,1:0:0:0:
354,154,43364,1,8,0:0:0:0:
206,192,43577,5,10,0:0:0:0:
371,236,43790,1,10,0:0:0:0:
160,259,44003,1,10,0:0:0:0:
433,123,44216,1,10,0:0:0:0:
116,152,44428,1,10,0:0:0:0:
458,275,44641,1,10,0:0:0:0:
83,250,44854,1,4,1:0:0:0:
230,42,45066,5,8,0:0:0:0:
253,75,45173,1,8,0:0:0:0:
261,131,45279,1,2,1:0:0:0:
253,196,45386,1,8,0:0:0:0:
222,263,45492,1,2,1:0:0:0:
142,267,45599,1,8,0:0:0:0:
110,193,45705,1,2,1:0:0:0:
175,135,45811,1,8,0:0:0:0:
249,186,45918,5,2,1:0:0:0:
334,191,46024,1,0,1:0:0:0:
400,136,46130,1,2,1:0:0:0:
485,146,46237,1,0,1:0:0:0:
512,229,46343,1,2,1:0:0:0:
455,300,46450,1,0,1:0:0:0:
365,281,46556,6,0,L|219:272,1,136.320003328125,6|0,1:0|0:0,0:0:0:0:
72,306,46875,1,0,1:0:0:0:
147,326,46981,2,0,P|150:282|127:254,1,68.1600016640625,10|0,0:0|0:0,0:0:0:0:
27,151,47194,1,2,1:0:0:0:
105,160,47301,1,0,1:0:0:0:
185,172,47407,2,0,L|283:160,1,68.1600016640625,10|0,0:0|1:0,0:0:0:0:
330,32,47620,1,2,1:0:0:0:
383,88,47726,1,0,1:0:0:0:
397,166,47833,2,0,P|392:238|389:245,1,68.1600016640625,8|0,0:0|0:0,0:0:0:0:
212,89,48045,1,2,1:0:0:0:
255,296,48258,6,0,B|279:230|218:234|263:134,1,136.320003328125,6|0,1:0|0:0,0:0:0:0:
178,267,48577,1,0,1:0:0:0:
109,208,48684,2,0,P|173:184|184:185,1,68.1600016640625,10|0,0:0|0:0,0:0:0:0:
191,352,48896,1,2,1:0:0:0:
161,105,49109,5,10,0:0:0:0:
171,184,49216,2,0,B|252:163|252:163|315:187,1,136.320003328125,0|0,1:0|1:0,0:0:0:0:
105,303,49535,1,8,0:0:0:0:
359,133,49747,6,0,P|376:204|373:211,1,68.1600016640625,2|0,1:0|0:0,0:0:0:0:
217,312,49960,2,0,P|223:277|241:248,1,68.1600016640625,8|0,0:0|0:0,0:0:0:0:
428,303,50173,5,2,1:0:0:0:
365,326,50279,1,0,1:0:0:0:
301,305,50386,2,0,P|313:258|333:232,1,68.1600016640625,8|2,0:0|0:0,0:0:0:0:
491,152,50599,1,0,1:0:0:0:
419,159,50705,1,0,1:0:0:0:
359,133,50811,1,10,0:0:0:0:
296,105,50918,2,0,B|206:96|206:96|140:114,1,136.320003328125,0|2,1:0|1:0,0:0:0:0:
347,40,51237,1,8,0:0:0:0:
157,232,51450,6,0,L|172:303,1,68.1600016640625,2|0,1:0|0:0,0:0:0:0:
87,67,51662,2,0,L|72:133,1,68.1600016640625,10|0,0:0|1:0,0:0:0:0:
102,313,51875,6,0,L|277:284,1,136.320003328125,6|8,1:0|0:0,0:0:0:0:
370,316,52194,2,0,L|206:284,1,136.320003328125,2|0,0:0|1:0,0:0:0:0:
160,221,52513,2,0,L|244:208,1,68.1600016640625,10|0,0:0|1:0,0:0:0:0:
369,232,52726,2,0,L|283:214,1,68.1600016640625,10|0,0:0|1:0,0:0:0:0:
204,46,52939,5,8,0:0:0:0:
216,129,53045,1,0,1:0:0:0:
227,210,53151,1,8,0:0:0:0:
236,289,53258,1,8,0:0:0:0:
247,372,53364,5,4,1:0:0:0:
247,372,53684,1,0,1:0:0:0:
164,332,53790,2,0,L|91:347,1,68.1600016640625,10|0,0:0|0:0,0:0:0:0:
31,230,54003,1,2,1:0:0:0:
94,259,54109,1,0,1:0:0:0:
159,233,54215,1,10,0:0:0:0:
185,164,54322,2,0,P|227:205|197:298,1,136.320003328125,0|0,1:0|1:0,0:0:0:0:
283,138,54641,2,0,P|242:97|226:90,1,68.1600016640625,8|0,0:0|0:0,0:0:0:0:
159,233,54854,1,2,1:0:0:0:
312,56,55067,6,0,B|422:47|422:47|396:89,1,136.320003328125,6|0,1:0|0:0,0:0:0:0:
366,211,55386,1,0,1:0:0:0:
418,161,55492,2,0,P|358:139|340:144,1,68.1600016640625,10|0,0:0|0:0,0:0:0:0:
384,328,55705,1,2,1:0:0:0:
273,144,55918,5,10,0:0:0:0:
230,229,56024,2,0,L|397:206,1,136.320003328125,0|0,1:0|1:0,0:0:0:0:
273,144,56343,2,0,L|195:154,1,68.1600016640625,8|0,0:0|0:0,0:0:0:0:
217,309,56556,2,0,L|284:300,1,68.1600016640625,2|0,1:0|0:0,0:0:0:0:
269,67,56769,1,8,0:0:0:0:
142,216,56981,6,0,P|121:142|165:80,1,136.320003328125,6|8,1:0|0:0,0:0:0:0:
142,216,57301,2,0,P|169:276|147:339,1,136.320003328125,2|0,1:0|1:0,0:0:0:0:
195,155,57620,1,10,0:0:0:0:
142,216,57726,2,0,L|5:207,1,136.320003328125,0|2,1:0|1:0,0:0:0:0:
92,283,58045,1,8,0:0:0:0:
147,92,58258,1,2,1:0:0:0:
147,339,58471,1,10,0:0:0:0:
232,69,58684,5,6,1:0:0:0:
232,78,59003,5,2,1:0:0:0:
233,90,59322,5,10,0:0:0:0:
361,335,59535,1,10,0:0:0:0:
427,207,59747,5,8,0:0:0:0:
346,233,59853,1,8,0:0:0:0:
290,297,59960,5,8,3:0:0:0:
283,332,60066,1,4,3:0:0:0:
290,370,60173,1,4,3:0:0:0:
247,236,60279,6,0,L|87:230,1,136.320003328125,6|0,1:0|0:0,0:0:0:0:
237,160,60598,2,0,L|149:157,1,68.1600016640625,2|0,1:0|0:0,0:0:0:0:
6,69,60811,5,10,0:0:0:0:
61,34,60917,1,10,0:0:0:0:
119,52,61023,1,8,0:0:0:0:
110,230,61130,6,0,P|66:164|73:102,1,136.320003328125,6|0,1:0|0:0,0:0:0:0:
27,244,61450,2,0,P|1:192|0:171,1,68.1600016640625,2|0,1:0|0:0,0:0:0:0:
168,157,61662,5,10,0:0:0:0:
213,204,61768,1,10,0:0:0:0:
203,268,61874,1,8,0:0:0:0:
253,115,61981,6,0,B|305:104|305:104|343:113|343:113|412:102,1,136.320003328125,6|0,1:0|0:0,0:0:0:0:
261,39,62301,2,0,B|302:31|302:31|332:38,1,68.1600016640625,2|0,1:0|0:0,0:0:0:0:
391,229,62513,5,10,0:0:0:0:
362,168,62619,1,10,0:0:0:0:
386,106,62725,1,8,0:0:0:0:
456,277,62833,6,0,P|387:308|316:265,1,136.320003328125,6|8,1:0|0:0,0:0:0:0:
272,241,63152,1,0,1:0:0:0:
200,256,63258,1,8,0:0:0:0:
136,336,63364,5,8,0:0:0:0:
112,265,63470,1,8,0:0:0:0:
129,194,63576,1,10,0:0:0:0:
183,142,63683,1,10,0:0:0:0:
262,143,63790,6,0,P|338:153|354:148,1,68.1600016640625,6|0,1:0|0:0,0:0:0:0:
446,45,64003,1,10,0:0:0:0:
406,115,64109,2,0,P|415:189|421:206,1,68.1600016640625,10|0,0:0|1:0,0:0:0:0:
489,341,64322,2,0,P|493:302|486:274,1,68.1600016640625,2|8,1:0|0:0,0:0:0:0:
294,220,64535,2,0,P|288:253|290:287,1,68.1600016640625,2|0,1:0|0:0,0:0:0:0:
420,307,64747,1,2,1:0:0:0:
364,254,64854,1,10,0:0:0:0:
152,60,65067,5,0,1:0:0:0:
43,300,65279,5,10,0:0:0:0:
119,286,65386,1,2,1:0:0:0:
196,274,65492,2,0,L|205:196,1,68.1600016640625,6|0,1:0|0:0,0:0:0:0:
277,319,65705,1,10,0:0:0:0:
264,150,65811,2,0,P|186:131|167:131,1,68.1600016640625,2|0,1:0|0:0,0:0:0:0:
380,64,66024,2,0,P|458:45|477:45,1,68.1600016640625,10|8,0:0|0:0,0:0:0:0:
144,64,66237,2,0,P|112:136|143:207,1,136.320003328125,2|0,1:0|1:0,0:0:0:0:
294,62,66556,1,2,1:0:0:0:
296,130,66662,1,8,0:0:0:0:
299,198,66768,1,10,0:0:0:0:
301,266,66875,1,8,0:0:0:0:
385,325,66981,6,0,L|156:301,1,204.480004992188,6|0,1:0|0:0,0:0:0:0:
84,343,67407,2,0,P|25:314|23:300,1,64.6100021689149,0|0,3:0|0:0,0:0:0:0:
62,95,67620,6,0,P|84:163|87:184,1,64.6100021689149,10|0,0:0|0:0,0:0:0:0:
4,245,67833,2,0,L|168:225,2,129.22000433783,2|0|0,3:0|1:0|3:0,0:0:0:0:
224,39,68471,6,0,P|195:104|195:115,1,64.6100021689149,10|0,0:0|0:0,0:0:0:0:
190,286,68684,2,0,P|213:221|180:163,1,129.22000433783,2|0,3:0|0:0,0:0:0:0:
285,324,69109,6,0,L|388:313,1,64.6100021689149,2|0,0:0|0:0,0:0:0:0:
306,169,69322,2,0,P|306:238|313:250,1,64.6100021689149,10|0,0:0|0:0,0:0:0:0:
407,261,69535,1,2,3:0:0:0:
407,261,69641,2,0,P|393:223|366:198,1,64.6100021689149,2|0,0:0|1:0,0:0:0:0:
285,324,69854,1,0,0:0:0:0:
285,324,69960,2,0,P|253:327|225:314,1,64.6100021689149,2|0,3:0|0:0,0:0:0:0:
119,239,70173,2,0,P|194:242|202:235,1,64.6100021689149,8|0,0:0|0:0,0:0:0:0:
94,47,70386,6,0,L|121:251,1,193.830006506745,4|0,1:0|0:0,0:0:0:0:
61,335,70811,2,0,L|137:321,1,64.6100021689149,0|0,3:0|0:0,0:0:0:0:
262,258,71024,6,0,L|186:244,1,64.6100021689149,10|0,0:0|0:0,0:0:0:0:
339,329,71237,2,0,P|366:252|339:194,2,129.22000433783,2|0|0,3:0|1:0|3:0,0:0:0:0:
259,108,71875,6,0,P|327:80|344:80,1,64.6100021689149,10|0,0:0|0:0,0:0:0:0:
463,227,72088,2,0,P|389:241|341:170,1,129.22000433783,2|0,3:0|1:0,0:0:0:0:
435,37,72513,6,0,L|423:113,1,64.6100021689149,2|0,3:0|0:0,0:0:0:0:
351,209,72726,2,0,L|363:285,1,64.6100021689149,10|0,0:0|0:0,0:0:0:0:
248,44,72939,2,0,L|260:120,1,64.6100021689149,2|0,3:0|0:0,0:0:0:0:
90,339,73152,2,0,L|100:275,1,64.6100021689149,2|0,1:0|0:0,0:0:0:0:
137,61,73364,2,0,L|147:124,1,64.6100021689149,2|0,3:0|0:0,0:0:0:0:
257,339,73578,2,0,L|267:275,1,64.6100021689149,10|0,0:0|0:0,0:0:0:0:
361,36,73790,6,0,B|281:156|441:149|342:300,1,258.440008675659,6|0,1:0|3:0,0:0:0:0:
88,288,74428,2,0,P|121:223|127:219,1,64.6100021689149,10|0,0:0|0:0,0:0:0:0:
221,38,74641,2,0,P|247:111|245:131,1,64.6100021689149,2|0,3:0|0:0,0:0:0:0:
166,287,74854,1,0,1:0:0:0:
166,97,75067,1,0,3:0:0:0:
231,334,75279,2,0,L|297:318,1,64.6100021689149,10|0,0:0|0:0,0:0:0:0:
456,251,75492,6,0,P|362:252|268:209,1,193.830006506745,6|0,1:0|0:0,0:0:0:0:
434,114,75918,2,0,P|423:181|416:195,1,64.6100021689149,2|0,3:0|0:0,0:0:0:0:
297,79,76130,2,0,P|308:146|315:160,1,64.6100021689149,10|0,0:0|0:0,0:0:0:0:
456,251,76343,1,2,3:0:0:0:
352,216,76450,2,0,L|378:357,1,129.22000433783,2|2,0:0|0:0,0:0:0:0:
234,203,76769,2,0,L|223:280,1,64.6100021689149,2|0,1:0|0:0,0:0:0:0:
113,123,76981,2,0,L|124:200,1,64.6100021689149,8|0,0:0|0:0,0:0:0:0:
9,37,77194,6,0,L|208:25,1,193.830006506745,6|0,1:0|0:0,0:0:0:0:
322,70,77620,2,0,P|291:136|288:151,1,64.6100021689149,2|0,3:0|0:0,0:0:0:0:
187,159,77833,2,0,P|218:225|221:240,1,64.6100021689149,10|0,0:0|0:0,0:0:0:0:
291,282,78045,2,0,P|260:348|257:363,1,64.6100021689149,2|0,3:0|0:0,0:0:0:0:
297,201,78258,1,10,0:0:0:0:
368,187,78364,1,0,1:0:0:0:
444,172,78471,2,0,L|439:246,1,64.6100021689149,2|0,3:0|1:0,0:0:0:0:
449,17,78684,1,8,0:0:0:0:
208,214,78896,6,0,L|-2:189,1,193.830006506745,6|0,1:0|0:0,0:0:0:0:
197,123,79322,2,0,P|122:131|116:131,1,64.6100021689149,2|0,3:0|0:0,0:0:0:0:
278,50,79535,2,0,P|245:47|213:42,1,64.6100021689149,10|0,0:0|0:0,0:0:0:0:
353,126,79747,2,0,P|321:131|288:133,1,64.6100021689149,2|0,3:0|0:0,0:0:0:0:
416,61,79960,1,2,1:0:0:0:
431,139,80067,1,0,1:0:0:0:
448,218,80173,2,0,L|444:287,1,64.6100021689149,2|0,3:0|1:0,0:0:0:0:
502,98,80386,2,0,L|498:33,1,64.6100021689149,10|0,0:0|0:0,0:0:0:0:
357,239,80599,6,0,P|289:237|226:222,1,129.22000433783,4|0,1:0|0:0,0:0:0:0:
94,149,80918,1,0,1:2:0:0:
175,120,81024,2,0,L|160:210,1,64.6100021689149,0|0,1:0|0:0,0:0:0:0:
306,68,81237,2,0,P|384:60|401:64,1,64.6100021689149,10|0,0:0|0:0,0:0:0:0:
175,120,81450,6,0,P|277:149|321:199,1,129.22000433783,6|0,1:0|0:0,0:0:0:0:
239,302,81769,1,0,1:0:0:0:
204,233,81875,2,0,P|279:233|286:237,1,64.6100021689149,0|0,1:0|0:0,0:0:0:0:
91,257,82088,2,0,P|66:192|65:182,1,64.6100021689149,10|0,0:0|0:0,0:0:0:0:
7,360,82301,6,0,P|-4:272|15:172,1,129.22000433783,6|0,1:0|0:0,0:0:0:0:
136,163,82620,1,0,1:0:0:0:
92,258,82726,2,0,P|94:316|104:348,1,64.6100021689149,2|0,1:0|0:0,0:0:0:0:
214,187,82939,2,0,P|218:155|217:122,1,64.6100021689149,10|0,0:0|0:0,0:0:0:0:
173,260,83152,1,2,1:0:0:0:
252,264,83258,1,8,0:0:0:0:
305,205,83364,1,8,0:0:0:0:
300,127,83471,1,0,1:0:0:0:
259,62,83577,2,0,P|209:48|173:63,1,64.6100021689149,2|0,1:0|0:0,0:0:0:0:
152,198,83789,2,0,P|184:199|213:186,1,64.6100021689149,10|0,0:0|0:0,0:0:0:0:
418,132,84003,6,0,P|351:151|277:91,1,129.22000433783,4|0,1:0|0:0,0:0:0:0:
486,81,84322,1,0,1:0:0:0:
490,158,84428,2,0,P|444:203|436:203,1,64.6100021689149,0|0,1:0|0:0,0:0:0:0:
259,62,84641,2,0,P|325:52|344:67,1,64.6100021689149,10|0,0:0|0:0,0:0:0:0:
176,165,84854,6,0,L|349:111,1,129.22000433783,6|0,1:0|0:0,0:0:0:0:
288,226,85173,1,0,1:0:0:0:
366,189,85279,2,0,P|370:260|365:270,1,64.6100021689149,0|0,1:0|0:0,0:0:0:0:
182,289,85492,2,0,L|220:210,1,64.6100021689149,10|0,0:0|0:0,0:0:0:0:
82,350,85705,5,6,1:0:0:0:
130,174,85918,1,8,0:0:0:0:
185,144,86024,1,8,0:0:0:0:
248,150,86130,1,8,0:0:0:0:
297,193,86237,1,8,0:0:0:0:
348,255,86343,5,8,1:2:0:0:
424,256,86449,1,8,0:0:0:0:
478,197,86556,1,8,0:0:0:0:
466,123,86662,1,8,0:0:0:0:
382,69,86769,5,8,1:2:0:0:
293,81,86875,1,8,0:0:0:0:
210,51,86981,2,0,L|145:45,3,43.0733347792766,0|4|4|4,1:0|3:0|3:0|3:0,0:0:0:0:
256,192,87407,5,6,1:0:0:0:
256,192,87513,12,0,89109,0:0:0:0:
