osu file format v14

[General]
AudioFilename: audio.mp3
AudioLeadIn: 0
PreviewTime: 127966
Countdown: 0
SampleSet: Soft
StackLeniency: 0.5
Mode: 0
LetterboxInBreaks: 0
WidescreenStoryboard: 0

[Editor]
Bookmarks: 22539,48071,68497,95731,128071,148497,171476,181688,190305
DistanceSpacing: 0.1
BeatDivisor: 4
GridSize: 8
TimelineZoom: 2.1

[Metadata]
Title:Hello!My World!!
TitleUnicode:Hello!My World!!
Artist:fhana
ArtistUnicode:fhána
Creator:Sotarks
Version:Kalihas' Insane
Source:ナイツ&マジック
Tags:Knight's & Magic ending ed full ver version lantis Junichi Sato yuxuki waga kevin mitsunaga towana doormat akitoshi corinn kalibe irohas mugiwarasekai toybot haruto haruto_aizawa
BeatmapID:1407599
BeatmapSetID:657341

[Difficulty]
HPDrainRate:6
CircleSize:4.1
OverallDifficulty:7
ApproachRate:9
SliderMultiplier:1.6
SliderTickRate:1

[Events]
//Background and Video events
0,0,"BG.jpg",0,0
//Break Periods
2,112952,118961
//Storyboard Layer 0 (Background)
//Storyboard Layer 1 (Fail)
//Storyboard Layer 2 (Pass)
//Storyboard Layer 3 (Foreground)
//Storyboard Sound Samples

[TimingPoints]
625,425.531914893617,4,2,22,52,1,0
5944,-125,4,2,22,52,0,0
6051,-125,4,2,22,52,0,0
6263,-125,4,2,22,52,0,0
8922,-81.9672131147541,4,2,22,52,0,0
8923,-81.9672131147541,4,2,22,62,0,0
15837,-55.5555555555556,4,2,22,62,0,0
15838,-55.5555555555556,4,2,22,72,0,0
16050,-55.5555555555556,4,2,22,72,0,0
20944,-192.307692307692,4,2,22,52,0,0
22114,-81.9672131147541,4,2,22,52,0,0
22540,-108.695652173913,4,2,22,52,0,0
33071,-108.695652173913,4,2,22,52,0,0
33178,-108.695652173913,4,2,22,52,0,0
38923,-65.7894736842105,4,2,22,62,0,0
39242,-65.7894736842105,4,2,22,72,0,0
39561,-75.7575757575758,4,2,22,52,0,0
39774,-121.951219512195,4,2,2,52,0,0
41795,-121.951219512195,4,2,2,52,0,0
41901,-121.951219512195,4,2,2,52,0,0
43497,-121.951219512195,4,2,2,52,0,0
43603,-121.951219512195,4,2,2,52,0,0
46583,-75.7575757575758,4,2,22,52,0,0
47433,-192.307692307692,4,2,22,52,0,0
47859,-100,4,2,22,52,0,0
48071,-55.5555555555556,4,2,22,52,0,0
48072,-55.5555555555556,4,2,22,82,0,0
61263,-81.9672131147541,4,2,22,82,0,0
61795,-55.5555555555556,4,2,22,82,0,0
68923,-71.4285714285714,4,2,22,72,0,0
95731,-55.5555555555556,4,2,22,72,0,0
95732,-55.5555555555556,4,2,22,82,0,0
112753,-55.5555555555556,4,2,22,92,0,0
119561,-61.7283950617284,4,2,2,52,0,0
126582,-58.1395348837209,4,2,2,52,0,0
127434,-58.1395348837209,4,2,22,52,0,0
128071,-190.484099565949,4,2,22,52,0,0
128072,-190.484099565949,4,2,22,32,0,0
128390,-190.484099565949,4,2,22,32,0,0
128497,-55.5555555555556,4,2,22,92,0,1
129028,-55.5555555555556,4,2,22,92,0,1
129348,-55.5555555555556,4,2,22,92,0,1
129773,-65.7894736842105,4,2,22,92,0,0
129774,-65.7894736842105,4,2,22,52,0,0
130199,-47.1698113207547,4,2,22,52,0,0
130200,-47.1698113207547,4,2,22,82,0,0
141476,-81.9672131147541,4,2,22,82,0,0
141795,-50,4,2,22,82,0,0
141901,-47.1698113207547,4,2,22,82,0,0
148497,-66.6666666666667,4,2,22,82,0,1
162114,-121.951219512195,4,2,22,82,0,0
162539,-98.0392156862745,4,2,22,82,0,0
162752,-47.1698113207547,4,2,22,82,0,0
162965,-121.951219512195,4,2,22,82,0,0
163390,-98.0392156862745,4,2,22,82,0,0
163603,-47.1698113207547,4,2,22,82,0,0
163816,-121.951219512195,4,2,22,82,0,0
164241,-61.7283950617284,4,2,22,82,0,0
165518,-121.951219512195,4,2,22,82,0,0
165943,-98.0392156862745,4,2,22,82,0,0
166156,-47.1698113207547,4,2,22,82,0,0
166369,-121.951219512195,4,2,22,82,0,0
166794,-98.0392156862745,4,2,22,82,0,0
167007,-55.5555555555556,4,2,22,82,0,0
167433,-62.5,4,2,22,82,0,0
167859,-58.8235294117647,4,2,22,82,0,0
168178,-58.8235294117647,4,2,22,82,0,0
168284,-55.5555555555556,4,2,22,82,0,0
168922,-200,4,2,22,82,0,0
169135,-200,4,2,22,50,0,0
170625,-200,4,2,22,15,0,0
170837,-55.5555555555556,4,2,22,82,0,0
171050,-62.5,4,2,22,82,0,0
171475,-55.5555555555556,4,2,22,82,0,0
171688,425.531914893617,4,2,22,82,1,0
171688,-55.5555555555556,4,2,22,82,0,0
183496,-52.6315789473684,4,2,22,92,0,1
186901,-50,4,2,22,92,0,1
190305,-50,4,2,22,92,0,0

[Colours]
Combo1 : 177,97,44
Combo2 : 130,126,192
Combo3 : 111,189,200
Combo4 : 163,158,158
Combo5 : 89,53,113
SliderBorder : 255,255,240
SliderTrackOverride : 0,0,20

[HitObjects]
110,34,2114,5,6,0:0:0:0:
112,45,3816,5,2,0:0:0:0:
114,56,5731,5,2,0:0:0:0:
116,67,7433,5,2,0:0:0:0:
116,67,8284,5,10,0:0:0:0:
24,143,8497,2,0,L|56:150,3,32,8|8|8|8,0:0|0:0|0:0|0:0,0:0:0:0:
169,208,8922,6,0,P|138:213|100:220,1,48.799997989502,2|0,1:0|0:0,0:0:0:0:
0,273,9135,2,0,P|46:281|105:291,1,97.5999959790041,8|10,0:0|0:0,0:0:0:0:
158,347,9454,1,0,0:0:0:0:
158,347,9561,2,0,P|181:342|206:338,1,48.799997989502,2|0,1:0|1:0,0:0:0:0:
255,271,9773,2,0,P|281:276|317:283,1,48.799997989502,10|0,0:0|0:0,0:0:0:0:
350,349,9986,5,2,1:0:0:0:
425,236,10199,2,0,B|436:265|436:265|427:302,1,48.799997989502,8|0,0:0|1:0,0:0:0:0:
353,179,10412,1,10,0:0:0:0:
351,183,10518,1,8,0:0:0:0:
348,186,10625,6,0,P|360:135|372:79,1,97.5999959790041,2|8,1:0|0:0,0:0:0:0:
301,43,10944,1,0,0:0:0:0:
301,43,11050,2,0,P|271:49|244:55,1,48.799997989502,10|0,0:0|0:0,0:0:0:0:
199,117,11263,2,0,L|151:105,1,48.799997989502,2|0,1:0|1:0,0:0:0:0:
98,41,11476,2,0,L|51:52,1,48.799997989502,10|0,0:0|0:0,0:0:0:0:
0,142,11688,6,0,P|42:151|95:162,1,97.5999959790041,2|8,1:0|0:0,0:0:0:0:
138,233,12007,1,0,0:0:0:0:
138,233,12114,2,0,L|71:248,1,48.799997989502,10|8,0:0|0:0,0:0:0:0:
27,298,12327,1,8,0:0:0:0:
24,301,12433,1,8,0:0:0:0:
22,305,12539,6,0,L|69:315,3,48.799997989502,2|0|0|0,1:0|0:0|1:0|0:0,0:0:0:0:
133,368,12965,2,0,L|180:357,3,48.799997989502,0|0|2|0,1:0|0:0|1:0|0:0,0:0:0:0:
239,298,13390,2,0,L|286:308,3,48.799997989502,0|2|0|0,1:0|0:0|1:0|0:0,0:0:0:0:
348,363,13816,6,0,L|385:355,6,24.399998994751,10|0|8|0|10|0|8,0:0|0:0|0:0|0:0|0:0|0:0|0:0,0:0:0:0:
403,343,14242,5,6,1:0:0:0:
485,213,14561,5,2,1:0:0:0:
345,132,14880,5,2,1:0:0:0:
378,213,15093,1,2,1:0:0:0:
458,78,15305,6,0,L|447:139,1,48.799997989502,8|8,0:0|0:0,0:0:0:0:
371,49,15518,2,0,B|366:26|366:26|375:-5,2,48.799997989502,6|4|4,3:0|3:0|3:0,0:0:0:0:
345,132,15837,6,0,B|258:116|291:172|196:153,1,143.999995605469,6|0,1:0|0:0,0:0:0:0:
96,95,16156,2,0,P|129:82|169:85,1,71.9999978027344,0|0,1:0|0:0,0:0:0:0:
32,219,16369,2,0,B|19:185|19:185|38:136,2,71.9999978027344,8|8|8,0:0|0:0|0:0,0:0:0:0:
126,177,16688,6,0,P|110:247|88:334,1,143.999995605469,4|0,1:0|0:0,0:0:0:0:
166,372,17007,2,0,P|199:359|239:362,1,71.9999978027344,0|0,1:0|0:0,0:0:0:0:
364,314,17220,2,0,P|302:302|271:298,2,71.9999978027344,8|8|8,0:0|0:0|0:0,0:0:0:0:
433,248,17539,6,0,P|396:283|453:369,1,143.999995605469,0|0,1:0|0:0,0:0:0:0:
509,254,17859,2,0,P|478:240|440:242,1,71.9999978027344,0|0,1:0|0:0,0:0:0:0:
364,314,18071,2,0,P|331:316|293:301,2,71.9999978027344,8|8|8,0:0|0:0|0:0,0:0:0:0:
250,230,18390,6,0,P|266:309|282:390,1,143.999995605469,4|8,1:0|0:0,0:0:0:0:
175,373,18710,2,0,B|159:337|159:337|175:296,1,71.9999978027344,0|8,1:0|0:0,0:0:0:0:
92,214,18922,2,0,B|103:244|103:244|87:280,1,71.9999978027344,8|8,0:0|0:0,0:0:0:0:
5,210,19135,1,8,0:0:0:0:
67,136,19242,6,0,B|154:120|121:176|216:157,1,143.999995605469,4|0,1:0|0:0,0:0:0:0:
265,65,19561,2,0,P|222:75|189:83,1,71.9999978027344,0|0,1:0|0:0,0:0:0:0:
338,113,19773,2,0,B|349:150|349:150|330:185,2,71.9999978027344,8|8|8,0:0|0:0|0:0,0:0:0:0:
408,59,20093,6,0,P|427:126|457:222,1,143.999995605469,4|0,1:0|0:0,0:0:0:0:
396,294,20412,2,0,P|427:280|465:282,1,71.9999978027344,0|0,1:0|0:0,0:0:0:0:
346,369,20624,2,0,P|292:359|261:353,2,71.9999978027344,8|8|8,0:0|0:0|0:0,0:0:0:0:
308,283,20944,6,0,B|252:273|252:273|201:311|201:311|123:293,1,187.199998857422,4|0,1:0|0:0,0:0:0:0:
71,252,22114,2,0,L|23:258,3,32.5333319930014,8|8|4|4,0:0|3:0|3:0|3:0,0:0:0:0:
192,192,22539,5,4,1:0:0:0:
192,192,22965,2,0,P|188:154|178:112,1,73.599997529297,2|10,1:0|0:0,0:0:0:0:
121,67,23390,1,2,3:0:0:0:
264,129,23603,5,2,1:0:0:0:
326,78,23816,2,0,P|366:83|406:89,1,73.599997529297,2|8,3:0|0:0,0:0:0:0:
512,198,24242,2,0,P|441:188|391:237,1,147.199995058594,2|2,1:0|1:0,0:0:0:0:
472,353,24880,1,10,0:0:0:0:
400,319,25093,1,2,3:0:0:0:
298,366,25305,5,2,1:0:0:0:
400,319,25518,1,2,3:0:0:0:
399,325,25624,1,0,3:0:0:0:
398,331,25731,1,10,0:0:0:0:
281,246,25944,1,2,3:0:0:0:
430,166,26156,6,0,P|387:177|344:185,1,73.599997529297,0|2,1:0|3:0,0:0:0:0:
218,60,26582,2,0,P|261:71|304:79,1,73.599997529297,10|2,0:0|3:0,0:0:0:0:
357,34,27007,1,2,1:0:0:0:
231,146,27220,5,2,3:0:0:0:
358,182,27433,1,10,0:0:0:0:
297,94,27646,6,0,P|207:108|146:117,1,147.199995058594,2|2,1:0|1:0,0:0:0:0:
45,205,28284,2,0,P|64:240|57:282,1,73.599997529297,10|0,0:0|3:0,0:0:0:0:
231,148,28710,6,0,P|212:183|219:225,1,73.599997529297,2|10,1:0|0:0,0:0:0:0:
230,235,29029,1,0,3:0:0:0:
230,235,29135,1,10,0:0:0:0:
342,336,29348,6,0,P|259:324|189:316,1,147.199995058594,4|2,1:0|1:0,0:0:0:0:
381,222,29986,2,0,P|339:233|294:242,1,73.599997529297,10|2,0:0|3:0,0:0:0:0:
230,235,30412,1,2,1:0:0:0:
349,317,30624,5,2,3:0:0:0:
193,364,30837,1,8,0:0:0:0:
121,316,31050,6,0,B|97:261|148:236|110:166,1,147.199995058594,2|2,1:0|1:0,0:0:0:0:
20,77,31688,2,0,P|56:87|121:98,1,73.599997529297,10|2,0:0|3:0,0:0:0:0:
156,46,32114,1,2,1:0:0:0:
98,194,32327,1,2,3:0:0:0:
96,186,32433,1,0,3:0:0:0:
94,178,32539,1,10,0:0:0:0:
227,104,32752,6,0,P|280:100|320:136,1,110.399996293945,2|0,1:0|0:0,0:0:0:0:
333,139,33178,1,2,1:0:0:0:
272,282,33390,2,0,P|262:246|254:210,1,73.599997529297,10|2,0:0|3:0,0:0:0:0:
442,117,33816,2,0,P|433:152|424:188,1,73.599997529297,2|2,1:0|3:0,0:0:0:0:
320,136,34242,5,10,0:0:0:0:
465,262,34454,2,0,P|413:212|343:223,1,147.199995058594,6|2,1:0|1:0,0:0:0:0:
214,326,35093,2,0,P|261:313|312:301,1,73.599997529297,10|0,0:0|3:0,0:0:0:0:
100,192,35518,2,0,P|135:201|171:210,1,73.599997529297,2|0,1:0|3:0,0:0:0:0:
197,202,35837,1,0,3:0:0:0:
197,202,35944,1,8,0:0:0:0:
42,258,36156,6,0,P|2:205|40:134,1,147.199995058594,6|2,1:0|1:0,0:0:0:0:
154,36,36795,2,0,P|120:51|77:53,1,73.599997529297,10|0,0:0|3:0,0:0:0:0:
70,41,37114,1,0,0:0:0:0:
70,41,37220,1,2,1:0:0:0:
213,129,37433,5,0,3:0:0:0:
207,154,37539,1,0,3:0:0:0:
201,179,37646,1,8,0:0:0:0:
42,258,37859,6,0,P|51:303|58:335,1,73.599997529297,6|8,1:0|0:0,0:0:0:0:
292,205,38284,2,0,P|283:250|276:282,1,73.599997529297,10|10,0:0|0:0,0:0:0:0:
198,319,38710,5,10,0:0:0:0:
365,265,38922,1,10,0:0:0:0:
267,116,39135,6,0,P|292:126|328:130,1,60.7999992578125,10|8,0:0|0:0,0:0:0:0:
456,68,39348,2,0,P|425:71|389:87,1,60.7999992578125,10|8,0:0|0:0,0:0:0:0:
292,205,39561,1,10,0:0:0:0:
365,265,40199,5,8,0:0:0:0:
506,338,40412,1,2,0:0:0:0:
464,265,40625,5,10,0:0:0:0:
303,339,40837,1,2,0:0:0:0:
253,266,41050,5,10,0:0:0:0:
411,348,41263,1,2,0:0:0:0:
303,339,41476,6,0,L|194:361,1,98.4000015014649,8|0,0:0|0:0,0:0:0:0:
180,345,41901,5,8,0:0:0:0:
257,186,42114,1,2,0:0:0:0:
332,244,42327,5,10,0:0:0:0:
171,152,42539,1,2,0:0:0:0:
252,92,42752,5,10,0:0:0:0:
147,258,42965,1,2,0:0:0:0:
171,152,43178,6,0,L|61:176,1,98.4000015014649,8|0,0:0|0:0,0:0:0:0:
57,164,43603,5,10,0:0:0:0:
93,340,43816,1,2,0:0:0:0:
16,282,44029,5,10,0:0:0:0:
228,206,44242,1,0,0:0:0:0:
74,172,44454,5,10,0:0:0:0:
224,320,44667,1,2,0:0:0:0:
231,298,45093,5,10,0:0:0:0:
306,278,45305,1,10,0:0:0:0:
382,258,45518,1,10,0:0:0:0:
153,355,45731,5,10,0:0:0:0:
301,255,45944,1,10,0:0:0:0:
474,310,46156,1,10,0:0:0:0:
296,233,46369,5,0,0:0:0:0:
372,374,46582,6,0,P|376:348|380:330,3,32.8000005004883,8|8|10|8,0:0|0:0|0:0|0:0,0:0:0:0:
489,290,47007,6,0,P|485:267|478:237,3,52.7999998388672,10|8|10|8,0:0|0:0|0:0|0:0,0:0:0:0:
395,171,47433,6,0,L|398:157,3,10.3999999365234,0|0|0|0,3:0|0:0|0:0|0:0,0:0:0:0:
406,190,47859,6,0,L|418:144,1,40,8|0,1:0|0:0,0:0:0:0:
478,238,48071,6,0,B|400:218|417:281|337:259,1,143.999995605469,6|0,1:0|0:0,0:0:0:0:
247,147,48390,1,0,0:0:0:0:
251,142,48497,2,0,P|262:179|275:230,1,71.9999978027344,10|0,0:0|0:0,0:0:0:0:
322,329,48710,2,0,P|330:294|341:259,1,71.9999978027344,2|0,1:0|1:0,0:0:0:0:
221,359,48922,1,10,0:0:0:0:
218,367,49029,6,0,P|162:381|94:326,1,143.999995605469,0|0,1:0|1:0,0:0:0:0:
98,316,49348,1,8,0:0:0:0:
260,240,49561,1,2,1:0:0:0:
51,195,49773,6,0,B|99:183|99:183|131:202|131:202|191:188,1,143.999995605469,2|0,1:0|0:0,0:0:0:0:
278,98,50093,1,0,1:0:0:0:
274,92,50199,2,0,P|239:88|198:112,1,71.9999978027344,10|0,0:0|0:0,0:0:0:0:
359,158,50412,2,0,P|375:127|367:81,1,71.9999978027344,2|0,1:0|0:0,0:0:0:0:
273,174,50624,1,10,0:0:0:0:
267,177,50731,6,0,B|251:256|310:229|301:323,1,143.999995605469,0|0,1:0|1:0,0:0:0:0:
301,311,51050,2,0,P|333:295|368:288,1,71.9999978027344,8|2,0:0|0:0,0:0:0:0:
249,383,51263,2,0,P|213:379|181:364,1,71.9999978027344,0|0,1:0|0:0,0:0:0:0:
46,304,51476,1,8,0:0:0:0:
37,312,51688,6,0,P|106:299|185:277,1,143.999995605469,2|8,1:0|0:0,0:0:0:0:
215,194,52007,2,0,B|287:187|254:250|344:238,1,143.999995605469,2|0,0:0|1:0,0:0:0:0:
451,167,52327,1,10,0:0:0:0:
447,163,52433,6,0,B|417:206|417:206|456:291,1,143.999995605469,0|0,1:0|1:0,0:0:0:0:
374,371,52752,2,0,B|388:339|388:339|362:288,1,71.9999978027344,10|0,0:0|0:0,0:0:0:0:
232,335,52965,2,0,B|260:358|260:358|294:352,1,71.9999978027344,0|0,1:0|0:0,0:0:0:0:
188,256,53178,2,0,B|158:278|158:278|151:317,1,71.9999978027344,10|0,0:0|0:0,0:0:0:0:
284,247,53390,6,0,P|265:181|241:96,1,143.999995605469,2|8,1:0|0:0,0:0:0:0:
301,28,53710,2,0,P|345:18|421:82,1,143.999995605469,2|0,0:0|1:0,0:0:0:0:
482,159,54029,2,0,P|498:129|490:62,1,71.9999978027344,8|0,0:0|1:0,0:0:0:0:
337,99,54242,6,0,P|345:129|359:187,1,71.9999978027344,2|0,0:0|1:0,0:0:0:0:
406,286,54454,2,0,P|417:251|427:217,1,71.9999978027344,8|0,0:0|1:0,0:0:0:0:
317,325,54667,1,8,0:0:0:0:
315,333,54773,1,8,0:0:0:0:
312,340,54880,6,0,P|255:353|183:301,1,143.999995605469,6|0,1:0|0:0,0:0:0:0:
242,187,55199,1,0,1:0:0:0:
249,184,55305,2,0,B|265:221|265:221|247:265,1,71.9999978027344,10|0,0:0|0:0,0:0:0:0:
111,329,55518,2,0,B|99:299|99:299|115:262,1,71.9999978027344,2|0,1:0|1:0,0:0:0:0:
32,147,55731,1,10,0:0:0:0:
30,142,55837,6,0,B|104:139|76:202|161:193,1,143.999995605469,0|0,0:0|1:0,0:0:0:0:
242,92,56156,2,0,P|203:93|164:118,1,71.9999978027344,8|0,0:0|0:0,0:0:0:0:
312,197,56369,2,0,B|329:161|329:161|313:121,1,71.9999978027344,2|0,1:0|0:0,0:0:0:0:
370,40,56582,6,0,P|390:103|418:187,1,143.999995605469,6|0,1:0|0:0,0:0:0:0:
313,266,56901,1,0,1:0:0:0:
308,262,57007,2,0,B|294:232|294:232|311:196,1,71.9999978027344,10|0,0:0|0:0,0:0:0:0:
388,309,57220,2,0,P|353:345|263:339,1,143.999995605469,2|10,1:0|0:0,0:0:0:0:
216,239,57539,6,0,P|153:225|92:294,1,143.999995605469,0|0,1:0|1:0,0:0:0:0:
169,371,57859,2,0,B|185:336|185:336|173:304,1,71.9999978027344,8|0,0:0|0:0,0:0:0:0:
20,243,58071,2,0,B|9:274|9:274|24:309,2,71.9999978027344,2|0|8,1:0|0:0|0:0,0:0:0:0:
218,167,58497,6,0,B|173:143|173:143|80:183,1,143.999995605469,6|8,1:0|0:0,0:0:0:0:
20,243,58816,2,0,P|-6:193|38:104,1,143.999995605469,2|0,0:0|1:0,0:0:0:0:
88,45,59135,2,0,B|175:29|142:85|237:66,1,143.999995605469,10|0,0:0|0:0,0:0:0:0:
305,25,59454,2,0,B|322:71|322:71|300:110|300:110|328:203,1,143.999995605469,2|0,1:0|0:0,0:0:0:0:
388,268,59773,6,0,P|393:232|410:183,1,71.9999978027344,2|0,1:0|0:0,0:0:0:0:
452,55,59986,2,0,P|466:88|474:123,1,71.9999978027344,10|0,0:0|0:0,0:0:0:0:
302,32,60199,5,2,1:0:0:0:
224,221,60518,5,2,1:0:0:0:
153,48,60837,5,2,1:0:0:0:
222,124,61050,1,2,1:0:0:0:
143,258,61263,5,8,0:0:0:0:
138,255,61369,1,0,1:0:0:0:
133,253,61476,2,0,B|123:230|123:230|133:204,2,48.799997989502,10|4|4,3:0|3:0|3:0,0:0:0:0:
224,221,61795,6,0,B|311:205|278:261|373:242,1,143.999995605469,6|0,1:0|0:0,0:0:0:0:
475,185,62114,2,0,B|442:171|442:171|399:181,1,71.9999978027344,2|0,1:0|0:0,0:0:0:0:
419,311,62327,2,0,B|452:324|452:324|490:309,2,71.9999978027344,10|10|8,0:0|0:0|0:0,0:0:0:0:
361,244,62646,6,0,P|379:318|398:394,1,143.999995605469,6|0,1:0|0:0,0:0:0:0:
299,336,62965,2,0,P|262:326|223:336,1,71.9999978027344,2|0,1:0|0:0,0:0:0:0:
134,374,63178,2,0,P|98:375|66:359,2,71.9999978027344,10|10|8,0:0|0:0|0:0,0:0:0:0:
220,336,63497,6,0,P|206:274|187:187,1,143.999995605469,6|0,1:0|0:0,0:0:0:0:
107,122,63816,2,0,B|91:160|91:160|111:203,1,71.9999978027344,2|0,1:0|0:0,0:0:0:0:
26,282,64029,2,0,B|42:244|42:244|20:202,2,71.9999978027344,10|10|8,0:0|0:0|0:0,0:0:0:0:
66,359,64348,6,0,P|119:318|202:345,1,143.999995605469,6|8,1:0|0:0,0:0:0:0:
300,245,64667,2,0,P|271:247|228:269,1,71.9999978027344,0|0,1:0|1:0,0:0:0:0:
354,357,64880,6,0,P|325:355|282:333,1,71.9999978027344,8|8,0:0|0:0,0:0:0:0:
436,299,65093,1,10,0:0:0:0:
433,305,65199,1,10,0:0:0:0:
430,309,65305,6,0,P|413:244|389:149,1,143.999995605469,6|10,1:0|0:0,0:0:0:0:
342,90,65625,2,0,B|265:88|295:151|208:137,1,143.999995605469,2|2,0:0|1:0,0:0:0:0:
113,75,65944,1,8,0:0:0:0:
120,68,66050,6,0,B|139:108|139:108|102:205,1,143.999995605469,2|0,1:0|1:0,0:0:0:0:
88,228,66369,1,10,0:0:0:0:
0,164,66582,5,0,1:0:0:0:
75,337,66795,1,10,0:0:0:0:
78,343,66901,1,2,0:0:0:0:
79,349,67007,6,0,B|122:330|122:330|165:346|165:346|227:325,1,143.999995605469,6|10,1:0|0:0,0:0:0:0:
182,236,67327,2,0,P|250:249|343:268,1,143.999995605469,2|10,1:0|0:0,0:0:0:0:
438,294,67646,1,8,0:0:0:0:
430,302,67752,6,0,B|399:263|399:263|437:157,1,143.999995605469,4|0,1:0|1:0,0:0:0:0:
497,93,68071,2,0,P|507:138|518:185,1,71.9999978027344,10|8,0:0|0:0,0:0:0:0:
324,264,68284,5,10,0:0:0:0:
277,200,68390,1,8,0:0:0:0:
328,138,68497,5,4,1:0:0:0:
328,138,68922,1,2,0:0:0:0:
241,207,69135,6,0,P|175:223|125:193,1,111.999996582031,6|2,3:0|0:0,0:0:0:0:
63,261,69454,1,0,0:0:0:0:
59,257,69561,2,0,P|43:191|73:141,1,111.999996582031,6|0,3:0|0:0,0:0:0:0:
123,82,69880,6,0,B|151:117|151:117|222:97,1,111.999996582031,12|0,3:0|0:0,0:0:0:0:
280,56,70199,2,0,L|225:70,1,55.9999982910157,6|0,1:0|0:0,0:0:0:0:
137,205,70412,6,0,L|256:170,1,111.999996582031,0|10,0:0|3:0,0:0:0:0:
456,112,70837,1,10,3:0:0:0:
462,105,70944,2,0,P|407:63|349:85,1,111.999996582031,2|2,0:0|0:0,0:0:0:0:
352,64,71263,1,6,3:0:0:0:
328,298,71476,6,0,P|333:270|339:243,1,55.9999982910157,10|4,0:0|3:0,0:0:0:0:
454,201,71688,1,2,1:0:0:0:
454,201,71795,1,2,1:0:0:0:
454,201,71901,6,0,P|394:214|335:231,1,111.999996582031,6|0,1:0|0:0,0:0:0:0:
117,304,72327,2,0,L|199:316,1,55.9999982910157,0|0,1:0|1:0,0:0:0:0:
245,364,72539,6,0,P|265:314|243:261,1,111.999996582031,14|0,0:0|0:0,0:0:0:0:
56,200,72965,2,0,P|35:149|55:98,1,111.999996582031,14|0,3:0|0:0,0:0:0:0:
140,41,73284,1,6,3:0:0:0:
145,47,73390,2,0,L|134:105,1,55.9999982910157,4|0,3:0|3:0,0:0:0:0:
56,200,73603,6,0,B|158:173|121:237|224:206,1,167.999994873047,6|0,1:0|0:0,0:0:0:0:
225,215,74029,2,0,L|238:144,1,55.9999982910157,14|0,3:0|0:0,0:0:0:0:
94,272,74242,2,0,L|117:432,1,111.999996582031,10|0,0:0|0:0,0:0:0:0:
184,334,74561,5,0,0:0:0:0:
192,330,74667,2,0,B|251:331|224:367|292:376,1,111.999996582031,14|0,3:0|0:0,0:0:0:0:
396,274,74986,2,0,P|342:263|300:296,1,111.999996582031,14|0,0:0|0:0,0:0:0:0:
384,384,75305,1,6,1:0:0:0:
504,184,75731,6,0,L|445:199,1,55.9999982910157,2|0,1:0|1:0,0:0:0:0:
292,92,75944,2,0,P|348:103|404:113,1,111.999996582031,14|0,0:0|0:0,0:0:0:0:
409,108,76263,1,0,3:0:0:0:
336,185,76369,5,6,3:0:0:0:
330,181,76476,2,0,B|315:233|344:245|324:298,1,111.999996582031,2|2,0:0|1:0,0:0:0:0:
326,291,76795,2,0,P|359:282|385:278,1,55.9999982910157,12|0,0:0|0:0,0:0:0:0:
248,360,77007,6,0,P|185:346|133:337,1,111.999996582031,6|0,1:0|0:0,0:0:0:0:
8,240,77433,1,6,3:0:0:0:
8,240,77539,1,0,0:0:0:0:
8,240,77646,2,0,L|72:224,1,55.9999982910157,14|0,0:0|0:0,0:0:0:0:
144,184,77859,2,0,L|73:200,1,55.9999982910157,2|0,1:0|1:0,0:0:0:0:
0,120,78071,6,0,L|136:88,1,111.999996582031,14|2,0:0|3:0,0:0:0:0:
192,32,78390,2,0,P|248:24|296:64,1,111.999996582031,14|2,0:0|3:0,0:0:0:0:
360,128,78710,2,0,P|416:136|464:96,2,111.999996582031,6|0|2,1:0|0:0|1:0,0:0:0:0:
201,65,79348,6,0,P|214:124|225:177,1,111.999996582031,14|0,0:0|0:0,0:0:0:0:
126,262,79667,1,0,3:0:0:0:
123,271,79773,2,0,B|165:240|165:240|224:258,1,111.999996582031,6|0,3:0|0:0,0:0:0:0:
245,293,80093,2,0,P|259:267|258:234,1,55.9999982910157,14|0,3:0|0:0,0:0:0:0:
58,345,80412,6,0,B|155:324|125:391|226:372,1,167.999994873047,6|0,1:0|0:0,0:0:0:0:
229,365,80837,2,0,L|317:379,1,55.9999982910157,6|0,3:0|0:0,0:0:0:0:
371,268,81050,1,10,0:0:0:0:
369,262,81156,2,0,L|244:238,1,111.999996582031,0|0,0:0|3:0,0:0:0:0:
157,277,81476,6,0,B|164:236|164:236|154:217|154:217|163:161,1,111.999996582031,14|0,0:0|1:0,0:0:0:0:
136,133,81795,2,0,L|125:191,1,55.9999982910157,14|0,0:0|3:0,0:0:0:0:
259,249,82007,5,0,1:0:0:0:
267,247,82114,2,0,L|281:135,1,111.999996582031,14|0,1:2|0:0,0:0:0:0:
288,142,82433,1,0,0:0:0:0:
288,142,82539,6,0,P|326:151|366:154,1,55.9999982910157,2|0,1:0|1:0,0:0:0:0:
418,126,82752,2,0,P|380:135|340:138,1,55.9999982910157,14|0,0:0|0:0,0:0:0:0:
212,260,82965,6,0,P|242:250|268:246,1,55.9999982910157,2|8,1:0|0:0,0:0:0:0:
341,242,83178,2,0,P|313:237|286:228,1,55.9999982910157,6|8,3:0|0:0,0:0:0:0:
161,168,83390,6,0,L|174:103,1,55.9999982910157,2|0,1:0|3:0,0:0:0:0:
38,222,83603,1,10,0:0:0:0:
38,222,83710,1,8,0:0:0:0:
38,222,83816,2,0,L|5:101,1,111.999996582031,14|0,1:2|0:0,0:0:0:0:
92,27,84135,5,0,0:0:0:0:
96,33,84242,2,0,P|94:63|84:127,1,55.9999982910157,6|0,3:0|0:0,0:0:0:0:
143,234,84454,6,0,P|134:207|137:178,1,55.9999982910157,10|0,0:0|0:0,0:0:0:0:
218,87,84667,2,0,P|221:114|212:140,1,55.9999982910157,2|8,1:0|0:0,0:0:0:0:
96,320,84880,5,6,3:0:0:0:
122,311,84986,1,8,0:0:0:0:
150,309,85093,1,2,1:0:0:0:
176,318,85199,1,0,1:0:0:0:
197,335,85305,2,0,L|213:269,1,55.9999982910157,10|10,0:0|0:0,0:0:0:0:
387,313,85518,6,0,P|325:346|277:326,1,111.999996582031,6|0,1:0|0:0,0:0:0:0:
335,198,85837,1,0,0:0:0:0:
335,198,85944,2,0,L|325:257,1,55.9999982910157,0|0,1:0|1:0,0:0:0:0:
481,326,86156,2,0,L|468:270,2,55.9999982910157,14|0|0,0:0|0:0|1:0,0:0:0:0:
387,313,86476,5,8,0:0:0:0:
307,365,86582,2,0,P|253:356|181:348,1,111.999996582031,6|0,3:0|1:0,0:0:0:0:
178,314,86901,2,0,P|166:341|165:372,1,55.9999982910157,6|8,3:0|0:0,0:0:0:0:
71,329,87114,1,8,0:0:0:0:
71,329,87220,6,0,P|91:272|55:221,1,111.999996582031,6|0,1:0|0:0,0:0:0:0:
0,180,87539,1,0,0:0:0:0:
0,180,87646,2,0,L|90:193,1,55.9999982910157,6|0,3:0|3:0,0:0:0:0:
152,120,87859,2,0,L|40:103,1,111.999996582031,14|0,0:0|1:0,0:0:0:0:
120,32,88178,1,8,0:0:0:0:
120,32,88284,2,0,P|185:25|224:56,1,111.999996582031,14|0,0:0|1:0,0:0:0:0:
320,88,88603,2,0,P|326:153|296:192,1,111.999996582031,14|0,0:0|1:0,0:0:0:0:
240,272,88922,6,0,P|174:278|136:248,1,111.999996582031,14|0,1:2|0:0,0:0:0:0:
225,194,89242,1,8,0:0:0:0:
229,189,89348,2,0,P|264:192|294:198,1,55.9999982910157,6|2,3:0|0:0,0:0:0:0:
368,272,89561,2,0,P|403:268|489:258,1,111.999996582031,14|2,0:0|1:0,0:0:0:0:
486,267,89880,1,10,0:0:0:0:
486,267,89986,2,0,L|497:202,1,55.9999982910157,6|10,3:0|0:0,0:0:0:0:
360,334,90199,1,0,0:0:0:0:
360,334,90305,2,0,L|346:269,2,55.9999982910157,2|8|8,1:0|0:0|0:0,0:0:0:0:
463,357,90625,6,0,B|400:343|415:375|353:364,1,111.999996582031,6|0,1:0|0:0,0:0:0:0:
268,330,90944,1,8,0:0:0:0:
271,325,91050,2,0,P|267:293|264:264,1,55.9999982910157,6|0,3:0|3:0,0:0:0:0:
350,196,91263,2,0,P|352:168|356:140,1,55.9999982910157,14|0,0:0|0:0,0:0:0:0:
293,76,91476,1,2,1:0:0:0:
293,76,91582,1,8,0:0:0:0:
293,76,91688,2,0,P|237:86|176:95,1,111.999996582031,6|2,3:0|1:0,0:0:0:0:
113,43,92007,1,0,0:0:0:0:
107,47,92114,2,0,P|93:72|97:122,1,55.9999982910157,10|10,0:0|0:0,0:0:0:0:
156,194,92327,6,0,B|201:203|201:203|217:222|217:222|270:233,1,111.999996582031,4|0,1:0|0:0,0:0:0:0:
432,336,92752,1,8,0:0:0:0:
427,330,92859,1,8,0:0:0:0:
422,324,92965,2,0,P|391:328|363:335,1,55.9999982910157,12|8,3:0|0:0,0:0:0:0:
256,240,93178,2,0,P|283:245|311:250,1,55.9999982910157,8|8,0:0|0:0,0:0:0:0:
448,200,93390,5,12,3:0:0:0:
463,169,93497,1,8,0:0:0:0:
467,135,93603,1,8,0:0:0:0:
454,103,93710,1,8,0:0:0:0:
431,78,93816,2,0,L|363:90,1,55.9999982910157,10|10,0:0|0:0,0:0:0:0:
298,168,94029,6,0,P|213:209|128:149,1,167.999994873047,6|0,1:0|1:0,0:0:0:0:
135,163,94454,1,0,1:0:0:0:
306,268,94667,5,12,0:0:0:0:
128,352,94880,1,0,1:0:0:0:
120,344,94986,1,8,0:0:0:0:
112,336,95093,2,0,P|174:346|239:356,1,111.999996582031,0|8,1:0|0:0,0:0:0:0:
385,284,95412,6,0,P|348:291|326:295,1,55.9999982910157,10|6,0:0|3:0,0:0:0:0:
234,239,95625,1,6,3:0:0:0:
298,178,95731,6,0,B|379:156|359:209|447:184,1,143.999995605469,6|0,1:0|0:0,0:0:0:0:
507,80,96050,1,0,1:0:0:0:
507,80,96156,2,0,P|465:90|421:102,1,71.9999978027344,10|0,0:0|0:0,0:0:0:0:
304,51,96369,2,0,P|338:42|383:32,1,71.9999978027344,2|0,1:0|1:0,0:0:0:0:
298,178,96582,1,10,0:0:0:0:
240,113,96688,6,0,P|177:106|115:171,1,143.999995605469,6|0,1:0|1:0,0:0:0:0:
193,261,97007,2,0,B|211:226|211:226|197:184,1,71.9999978027344,8|2,0:0|0:3,0:0:0:0:
27,118,97220,2,0,P|42:182|63:267,1,143.999995605469,2|10,1:0|0:0,0:0:0:0:
159,382,97539,6,0,P|193:340|154:245,1,143.999995605469,6|0,1:0|1:0,0:0:0:0:
28,285,97859,2,0,P|61:296|101:309,1,71.9999978027344,8|0,0:0|0:0,0:0:0:0:
241,235,98071,2,0,P|206:246|168:259,1,71.9999978027344,0|2,1:0|1:0,0:0:0:0:
302,305,98284,1,10,0:0:0:0:
362,238,98390,6,0,P|347:182|325:85,1,143.999995605469,6|0,1:0|1:0,0:0:0:0:
217,35,98710,2,0,B|204:72|204:72|225:115,1,71.9999978027344,8|0,0:0|0:0,0:0:0:0:
144,198,98922,2,0,B|157:161|157:161|136:118,2,71.9999978027344,0|0|8,1:0|0:0|0:0,0:0:0:0:
23,147,99242,6,0,P|42:214|73:317,1,143.999995605469,6|0,1:0|1:0,0:0:0:0:
178,309,99561,1,8,0:0:0:0:
178,309,99667,1,0,0:0:0:0:
178,309,99773,2,0,P|171:345|159:394,2,71.9999978027344,0|0|8,1:0|1:0|0:0,0:0:0:0:
260,197,100093,6,0,B|247:238|247:238|273:276|273:276|255:358,1,143.999995605469,6|0,1:0|1:0,0:0:0:0:
357,384,100412,2,0,P|365:348|372:313,1,71.9999978027344,8|0,0:0|0:0,0:0:0:0:
482,238,100625,2,0,B|401:260|421:207|333:232,1,143.999995605469,2|8,1:0|0:0,0:0:0:0:
233,210,100944,6,0,P|308:196|400:180,1,143.999995605469,6|0,1:0|1:0,0:0:0:0:
483,92,101263,1,8,0:0:0:0:
483,92,101369,1,0,0:0:0:0:
483,92,101476,2,0,B|500:125|500:125|487:164,1,71.9999978027344,2|0,1:0|1:0,0:0:0:0:
401,126,101688,1,8,0:0:0:0:
359,51,101795,6,0,P|305:36|233:95,1,143.999995605469,6|0,1:0|1:0,0:0:0:0:
313,198,102114,2,0,B|326:159|326:159|311:129,1,71.9999978027344,8|0,0:0|1:0,0:0:0:0:
148,67,102327,5,8,0:0:0:0:
157,108,102433,1,8,0:0:0:0:
168,149,102539,1,10,3:0:0:0:
177,191,102646,6,0,B|94:211|116:161|28:185,1,143.999995605469,6|0,1:0|1:0,0:0:0:0:
0,287,102965,2,0,P|39:270|84:267,1,71.9999978027344,8|0,0:0|0:0,0:0:0:0:
167,367,103178,2,0,P|128:350|83:347,1,71.9999978027344,2|0,1:0|1:0,0:0:0:0:
230,291,103390,1,8,0:0:0:0:
282,364,103497,6,0,B|333:392|333:392|433:332,1,143.999995605469,6|0,1:0|1:0,0:0:0:0:
339,232,103816,2,0,B|321:270|321:270|342:306,1,71.9999978027344,8|0,0:0|1:0,0:0:0:0:
489,334,104029,2,0,P|473:272|451:172,1,143.999995605469,2|10,1:0|0:0,0:0:0:0:
384,97,104348,6,0,P|360:131|262:127,1,143.999995605469,6|0,1:0|1:0,0:0:0:0:
301,0,104667,2,0,B|318:35|318:35|309:79,1,71.9999978027344,8|0,0:0|0:0,0:0:0:0:
177,170,104880,2,0,B|160:134|160:134|173:90,1,71.9999978027344,2|0,1:0|1:0,0:0:0:0:
265,130,105093,1,10,0:0:0:0:
313,198,105199,6,0,B|299:276|289:340,1,143.999995605469,6|0,1:0|1:0,0:0:0:0:
141,288,105518,2,0,B|171:272|171:272|225:284,1,71.9999978027344,8|0,0:0|0:0,0:0:0:0:
63,354,105731,2,0,B|32:299|32:299|71:213,1,143.999995605469,2|10,1:0|0:0,0:0:0:0:
177,139,106050,6,0,P|193:211|212:297,1,143.999995605469,6|0,1:0|1:0,0:0:0:0:
295,360,106369,2,0,P|303:315|312:263,1,71.9999978027344,8|0,0:0|0:0,0:0:0:0:
387,175,106582,2,0,P|395:214|403:249,1,71.9999978027344,2|2,1:0|1:0,0:0:0:0:
295,149,106795,1,10,0:0:0:0:
365,90,106901,6,0,B|452:74|419:130|514:111,1,143.999995605469,6|0,1:0|1:0,0:0:0:0:
398,0,107220,2,0,L|316:16,1,71.9999978027344,8|0,0:0|0:0,0:0:0:0:
217,126,107433,2,0,L|287:112,1,71.9999978027344,2|0,1:0|0:0,0:0:0:0:
166,54,107646,1,8,0:0:0:0:
99,111,107752,6,0,B|77:149|77:149|116:245,1,143.999995605469,6|0,1:0|0:0,0:0:0:0:
121,248,108071,1,0,1:0:0:0:
264,199,108284,5,8,0:0:0:0:
256,241,108390,1,8,3:0:0:0:
249,283,108496,1,4,3:0:0:0:
241,325,108603,6,0,B|328:341|295:285|390:304,1,143.999995605469,6|0,1:0|0:0,0:0:0:0:
385,308,108922,1,0,1:0:0:0:
508,141,109135,5,8,0:0:0:0:
501,183,109241,1,8,3:0:0:0:
493,225,109347,1,4,3:0:0:0:
482,267,109454,6,0,P|463:203|441:116,1,143.999995605469,6|0,1:0|0:0,0:0:0:0:
447,121,109773,1,0,1:0:0:0:
342,1,109986,5,8,0:0:0:0:
335,43,110092,1,8,3:0:0:0:
327,85,110198,1,4,3:0:0:0:
318,127,110305,6,0,B|277:100|277:100|165:129,1,143.999995605469,6|8,1:0|0:0,0:0:0:0:
146,218,110625,2,0,P|200:203|245:191,1,71.9999978027344,0|4,1:0|3:0,0:0:0:0:
86,76,110837,5,8,0:0:0:0:
79,118,110943,1,8,0:0:0:0:
71,160,111049,1,0,0:0:0:0:
59,201,111156,6,0,P|44:136|24:44,1,143.999995605469,6|0,1:0|1:0,0:0:0:0:
156,32,111476,2,0,B|174:66|174:66|162:103,1,71.9999978027344,12|0,0:0|0:0,0:0:0:0:
238,197,111688,2,0,B|226:159|226:159|249:112,1,71.9999978027344,12|0,0:0|0:0,0:0:0:0:
389,81,111901,5,0,1:0:0:0:
406,103,112007,1,12,0:0:0:0:
413,130,112114,1,8,0:0:0:0:
411,158,112220,1,8,0:0:0:0:
397,183,112327,2,0,P|366:178|309:164,1,71.9999978027344,12|8,0:0|0:0,0:0:0:0:
222,118,112539,6,0,P|251:113|287:99,2,47.9999985351563,4|4|8,3:0|3:0|3:0,0:0:0:0:
218,39,112752,5,4,1:0:0:0:
82,260,119561,5,4,1:0:0:0:
33,183,119773,5,8,0:0:0:0:
33,183,120199,1,8,0:0:0:0:
40,172,120412,5,2,0:0:0:0:
85,109,120624,1,10,0:0:0:0:
162,119,120837,1,2,0:0:0:0:
205,183,121050,1,10,0:0:0:0:
170,252,121263,1,2,1:0:0:0:
94,270,121476,5,8,0:0:0:0:
94,270,121901,1,8,0:0:0:0:
86,280,122114,5,2,0:0:0:0:
119,350,122327,1,10,0:0:0:0:
196,351,122539,1,2,0:0:0:0:
255,301,122752,1,10,0:0:0:0:
223,230,122965,1,2,1:0:0:0:
250,157,123178,5,8,0:0:0:0:
254,161,123603,5,10,0:0:0:0:
315,208,123816,1,2,0:0:0:0:
390,189,124029,5,10,0:0:0:0:
393,183,124454,1,10,0:0:0:0:
423,111,124667,5,6,1:0:0:0:
373,51,124880,1,8,0:0:0:0:
239,105,125093,5,8,1:2:0:0:
336,127,125305,1,8,1:2:0:0:
142,240,125518,5,8,1:2:0:0:
267,190,125730,1,0,0:0:0:0:
44,107,125944,5,8,1:2:0:0:
176,160,126156,1,10,1:2:0:0:
7,222,126369,5,6,1:0:0:0:
154,241,126582,6,0,P|109:249|83:263,1,68.8000010498047,8|8,0:0|0:0,0:0:0:0:
208,349,126795,2,0,P|166:342|137:327,1,68.8000010498047,10|8,0:0|0:0,0:0:0:0:
303,236,127007,6,0,P|261:250|235:266,1,68.8000010498047,10|8,0:0|0:0,0:0:0:0:
367,356,127220,2,0,P|326:343|299:325,1,68.8000010498047,10|8,0:0|0:0,0:0:0:0:
445,220,127433,6,0,P|404:240|382:259,1,68.8000010498047,10|8,0:0|0:0,0:0:0:0:
511,351,127646,2,0,P|472:334|449:313,1,68.8000010498047,10|8,0:0|0:0,0:0:0:0:
454,157,128071,6,0,P|450:194|438:237,1,62.9973839205881,2|2,0:0|0:0,0:0:0:0:
452,316,128497,6,0,B|399:307|399:307|363:319|363:319|308:309,1,143.999995605469,14|14,0:0|0:0,0:0:0:0:
219,366,128816,1,0,1:0:0:0:
215,360,128922,2,0,B|196:327|196:327|210:284,1,71.9999978027344,6|12,3:0|0:0,0:0:0:0:
338,230,129135,2,0,B|348:262|348:262|329:295,1,71.9999978027344,2|8,1:0|0:0,0:0:0:0:
109,361,129348,5,8,0:0:0:0:
92,328,129454,1,0,0:0:0:0:
92,291,129561,1,10,0:0:0:0:
111,260,129667,1,4,3:0:0:0:
142,241,129773,6,0,B|245:248|202:316|303:321,1,182.399997773438,14|0,1:2|1:0,0:0:0:0:
438,229,130199,6,0,P|397:225|363:249,1,84.8000001293945,10|0,0:0|0:0,0:0:0:0:
302,329,130412,2,0,P|336:352|377:348,1,84.8000001293945,2|0,1:0|0:0,0:0:0:0:
220,277,130624,1,8,0:0:0:0:
220,277,130731,2,0,B|161:293|161:293|126:334|126:334|68:351,1,169.600000258789,0|0,1:0|1:0,0:0:0:0:
73,349,131050,6,0,P|52:310|66:269,1,84.8000001293945,8|0,0:0|0:0,0:0:0:0:
208,184,131263,2,0,L|123:205,1,84.8000001293945,2|0,1:0|0:0,0:0:0:0:
8,152,131476,1,8,0:0:0:0:
8,152,131688,6,0,P|87:169|150:117,1,169.600000258789,2|8,1:0|0:0,0:0:0:0:
208,32,132007,2,0,B|299:6|278:73|374:41,1,169.600000258789,0|0,0:0|1:0,0:0:0:0:
443,108,132327,1,10,0:0:0:0:
440,102,132433,2,0,B|342:86|342:86|310:115|321:152,1,169.600000258789,0|2,1:0|1:0,0:0:0:0:
247,207,132752,6,0,P|225:172|229:131,1,84.8000001293945,8|0,0:0|0:0,0:0:0:0:
303,276,132965,2,0,P|268:298|227:294,1,84.8000001293945,2|0,1:0|0:0,0:0:0:0:
372,219,133178,2,0,P|394:254|390:295,1,84.8000001293945,10|0,0:0|0:0,0:0:0:0:
279,384,133390,6,0,P|181:370|100:358,1,169.600000258789,2|8,1:0|0:0,0:0:0:0:
19,283,133710,2,0,P|102:270|186:258,1,169.600000258789,2|0,0:0|1:0,0:0:0:0:
276,169,134029,2,0,P|233:161|189:151,1,84.8000001293945,10|0,0:0|1:0,0:0:0:0:
72,152,134242,6,0,P|53:112|66:62,1,84.8000001293945,2|0,0:0|1:0,0:0:0:0:
144,8,134454,2,0,P|185:2|222:20,1,84.8000001293945,8|0,0:0|0:0,0:0:0:0:
288,120,134667,1,8,0:0:0:0:
288,120,134773,1,8,0:0:0:0:
288,120,134880,6,0,B|390:143|355:81|457:105,1,169.600000258789,6|0,1:0|0:0,0:0:0:0:
391,238,135199,1,0,1:0:0:0:
384,234,135305,2,0,P|375:193|372:144,1,84.8000001293945,10|0,0:0|0:0,0:0:0:0:
480,240,135518,2,0,P|476:282|467:323,1,84.8000001293945,2|0,1:0|0:0,0:0:0:0:
390,370,135731,5,10,0:0:0:0:
384,376,135837,2,0,P|296:336|232:360,1,169.600000258789,0|0,1:0|1:0,0:0:0:0:
136,248,136156,2,0,P|176:265|232:272,1,84.8000001293945,8|0,0:0|0:0,0:0:0:0:
312,224,136369,2,0,P|270:231|231:247,1,84.8000001293945,2|0,1:0|0:0,0:0:0:0:
85,320,136582,6,0,P|36:261|77:187,1,169.600000258789,6|0,1:0|0:0,0:0:0:0:
175,118,136901,1,0,1:0:0:0:
172,123,137007,2,0,L|74:111,1,84.8000001293945,10|0,0:0|0:0,0:0:0:0:
8,48,137220,5,2,1:0:0:0:
93,209,137433,1,10,0:0:0:0:
96,216,137539,2,0,P|168:232|250:177,1,169.600000258789,0|0,1:0|1:0,0:0:0:0:
316,119,137859,2,0,P|330:160|336:203,1,84.8000001293945,10|0,0:0|0:0,0:0:0:0:
227,89,138071,2,0,P|233:47|251:10,2,84.8000001293945,0|0|8,1:0|0:0|0:0,0:0:0:0:
394,260,138497,6,0,B|304:232|318:288|226:262,1,169.600000258789,6|8,1:0|0:0,0:0:0:0:
144,336,138816,2,0,B|113:289|113:289|157:177,1,169.600000258789,2|0,1:0|1:0,0:0:0:0:
242,122,139135,1,10,0:0:0:0:
240,128,139242,2,0,L|56:160,1,169.600000258789,0|2,1:0|1:0,0:0:0:0:
50,145,139561,5,8,0:0:0:0:
256,240,139773,1,2,1:0:0:0:
56,352,139986,1,10,0:0:0:0:
144,264,140199,5,6,1:0:0:0:
360,344,140518,5,2,1:0:0:0:
440,128,140837,5,2,1:0:0:0:
352,176,141050,5,2,1:0:0:0:
432,224,141263,1,8,0:0:0:0:
437,228,141369,1,8,0:0:0:0:
442,231,141476,2,0,L|493:224,2,48.799997989502,14|4|4,3:0|3:0|3:0,0:0:0:0:
360,296,141795,6,0,B|293:276|270:330|200:305,1,160,6|0,1:0|0:0,0:0:0:0:
121,363,142114,6,0,P|100:326|117:276,1,84.8000001293945,2|0,1:0|0:0,0:0:0:0:
54,208,142327,2,0,P|91:187|141:204,2,84.8000001293945,10|10|8,0:0|0:0|0:0,0:0:0:0:
108,286,142646,6,0,L|150:112,1,169.600000258789,6|0,1:0|0:0,0:0:0:0:
147,121,142965,2,0,P|191:116|241:106,1,84.8000001293945,6|0,1:0|0:0,0:0:0:0:
336,224,143178,2,0,P|294:216|252:211,2,84.8000001293945,10|10|8,0:0|0:0|0:0,0:0:0:0:
400,160,143497,6,0,P|366:233|417:296,1,169.600000258789,6|0,1:0|0:0,0:0:0:0:
496,248,143816,2,0,P|451:250|416:277,1,84.8000001293945,2|0,1:0|0:0,0:0:0:0:
325,342,144029,2,0,P|280:340|245:313,2,84.8000001293945,10|10|8,0:0|0:0|0:0,0:0:0:0:
417,296,144348,6,0,L|232:320,1,169.600000258789,2|8,1:0|0:0,0:0:0:0:
128,368,144667,1,0,1:0:0:0:
128,368,144773,1,0,0:0:0:0:
128,368,144880,2,0,L|155:253,1,84.8000001293945,8|8,0:0|0:0,0:0:0:0:
80,192,145093,1,10,0:0:0:0:
80,192,145199,1,10,0:0:0:0:
80,192,145305,6,0,P|152:255|224:224,1,169.600000258789,2|10,1:0|0:0,0:0:0:0:
264,128,145625,2,0,P|319:68|398:85,1,169.600000258789,2|2,1:0|1:0,0:0:0:0:
511,155,145944,1,8,0:0:0:0:
507,159,146050,2,0,B|449:149|449:149|397:173|397:173|332:152,1,169.600000258789,2|2,1:0|1:0,0:0:0:0:
291,276,146369,2,0,P|375:261|457:250,1,169.600000258789,10|0,0:0|1:0,0:0:0:0:
458,249,146795,2,0,P|472:287|457:334,1,84.8000001293945,10|2,0:0|0:0,0:0:0:0:
325,381,147007,6,0,P|285:309|323:234,1,169.600000258789,6|10,1:0|0:0,0:0:0:0:
387,134,147327,2,0,P|346:145|303:153,1,84.8000001293945,6|0,1:0|0:0,0:0:0:0:
226,84,147539,5,10,0:0:0:0:
280,25,147646,1,8,0:0:0:0:
346,68,147752,2,0,P|331:171|317:249,1,169.600000258789,6|0,1:0|1:0,0:0:0:0:
200,360,148071,2,0,P|178:326|185:277,1,84.8000001293945,10|8,0:0|0:0,0:0:0:0:
408,200,148284,5,10,0:0:0:0:
440,272,148390,1,8,0:0:0:0:
391,336,148497,6,0,B|284:373|313:296|206:327,1,180.000006866455,14|0,1:2|0:0,0:0:0:0:
200,337,148922,1,0,3:0:0:0:
78,205,149135,2,0,B|53:243|53:243|91:324,1,120.000004577637,10|2,0:0|1:0,0:0:0:0:
195,148,149561,1,0,1:0:0:0:
194,154,149667,1,0,0:0:0:0:
193,160,149773,1,0,0:0:0:0:
108,103,149986,5,10,0:0:0:0:
237,261,150199,1,2,3:0:0:0:
291,180,150412,5,0,1:0:0:0:
135,270,150625,1,2,3:0:0:0:
300,364,150837,1,10,0:0:0:0:
237,261,151050,5,2,3:0:0:0:
231,252,151156,2,0,P|284:266|353:283,1,120.000004577637,2|0,0:0|0:0,0:0:0:0:
367,277,151476,5,2,3:0:0:0:
195,351,151688,1,8,0:0:0:0:
85,145,151901,6,0,B|62:198|62:198|90:237|90:237|57:320,1,180.000006866455,4|0,1:0|0:0,0:0:0:0:
48,313,152327,1,0,3:0:0:0:
195,351,152539,6,0,P|221:310|199:230,1,120.000004577637,10|2,0:0|3:0,0:0:0:0:
85,145,152965,1,0,1:0:0:0:
108,235,153178,1,0,3:0:0:0:
154,88,153390,5,10,0:0:0:0:
11,206,153603,1,2,3:0:0:0:
85,145,153816,5,0,1:0:0:0:
165,297,154029,5,2,3:0:0:0:
189,209,154242,1,10,0:0:0:0:
287,360,154454,5,2,3:0:0:0:
275,271,154667,1,2,1:0:0:0:
181,384,154880,5,10,0:0:0:0:
368,308,155093,1,10,0:0:0:0:
192,193,155305,6,0,P|230:166|350:228,1,180.000006866455,6|0,1:0|0:0,0:0:0:0:
345,223,155731,1,0,1:0:0:0:
264,360,155944,2,0,B|231:316|231:316|260:246,1,120.000004577637,10|2,0:0|3:0,0:0:0:0:
423,152,156369,5,0,1:0:0:0:
422,158,156475,1,0,0:0:0:0:
421,164,156581,1,0,0:0:0:0:
344,91,156795,5,10,0:0:0:0:
469,261,157007,1,2,3:0:0:0:
512,175,157220,5,0,1:0:0:0:
347,259,157433,1,2,3:0:0:0:
347,270,157539,1,0,0:0:0:0:
351,281,157646,1,10,0:0:0:0:
506,364,157859,5,2,3:0:0:0:
509,357,157965,2,0,P|442:368|375:379,1,120.000004577637,2|0,0:0|0:0,0:0:0:0:
377,372,158284,1,2,3:0:0:0:
260,216,158497,1,8,0:0:0:0:
96,314,158710,6,0,P|124:289|248:350,1,180.000006866455,6|0,1:0|0:0,0:0:0:0:
240,346,159135,1,2,3:0:0:0:
278,199,159348,1,10,0:0:0:0:
228,356,159561,5,2,3:0:0:0:
288,189,159773,1,2,1:0:0:0:
207,268,159986,5,2,3:0:0:0:
388,197,160199,1,8,0:0:0:0:
190,89,160412,6,0,B|161:135|161:135|188:196,1,120.000004577637,2|0,3:0|0:0,0:0:0:0:
279,119,160837,1,2,3:0:0:0:
115,43,161050,5,10,0:0:0:0:
214,14,161263,1,2,3:0:0:0:
24,85,161476,5,2,1:0:0:0:
173,164,161688,1,10,3:0:0:0:
24,246,161901,1,10,0:0:0:0:
202,297,162114,6,0,P|139:285|88:323,1,131.200002001953,4|4,1:0|3:0,0:0:0:0:
88,332,162752,1,10,0:0:0:0:
226,384,162965,6,0,P|287:371|377:350,1,131.200002001953,6|4,1:0|3:0,0:0:0:0:
362,355,163603,1,10,0:0:0:0:
449,182,163816,6,0,B|473:216|473:216|446:317,1,131.200002001953,6|6,1:0|3:0,0:0:0:0:
367,352,164348,1,0,0:0:0:0:
362,355,164454,2,0,B|349:319|349:319|363:283,1,64.8000015820313,10|0,0:0|0:0,0:0:0:0:
280,223,164667,5,2,1:0:0:0:
281,229,164773,1,10,0:0:0:0:
282,235,164880,5,8,0:0:0:0:
370,164,165093,1,10,0:0:0:0:
223,90,165305,1,10,0:0:0:0:
326,3,165518,6,0,L|296:151,1,131.200002001953,0|4,1:0|3:0,0:0:0:0:
295,141,166156,1,10,0:0:0:0:
178,20,166369,6,0,P|122:12|62:66,1,131.200002001953,6|4,1:0|3:0,0:0:0:0:
67,67,167007,1,10,0:0:0:0:
190,171,167220,5,6,3:0:0:0:
29,232,167433,6,0,P|67:219|119:221,1,64,8|8,0:0|0:0,0:0:0:0:
149,320,167646,2,0,P|115:307|82:307,1,64,8|8,0:0|0:0,0:0:0:0:
256,227,167859,6,0,P|224:244|193:253,1,68.0000012969971,0|8,1:0|0:0,0:0:0:0:
333,340,168071,2,0,P|301:322|268:316,1,68.0000012969971,8|8,0:0|0:0,0:0:0:0:
355,189,168284,6,0,P|370:241|374:278,1,71.9999978027344,0|8,1:0|0:0,0:0:0:0:
428,376,168497,2,0,P|433:340|445:306,1,71.9999978027344,10|8,0:0|0:0,0:0:0:0:
472,227,168710,5,6,3:0:0:0:
321,346,168922,6,0,B|299:325|263:327|263:327|241:348|241:348|221:366|140:419|59:310|107:253,1,320,6|0,1:0|0:0,0:0:0:0:
188,235,170837,6,0,B|195:253|195:253|185:279,2,47.9999985351563,8|8|8,0:0|0:0|0:0,0:0:0:0:
179,221,171050,6,0,B|174:197|174:197|187:166,5,42.6666666666667,8|8|4|4|0|0,0:0|3:0|3:0|3:0|3:0|3:0,0:0:0:0:
192,167,171476,6,0,B|279:151|246:207|341:188,2,143.999995605469,6|0|0,1:0|0:0|1:0,0:0:0:0:
39,339,172114,2,0,P|84:328|123:321,1,71.9999978027344,8|8,0:0|0:0,0:0:0:0:
205,259,172327,1,8,0:0:0:0:
205,259,172433,2,0,P|109:242|48:228,1,143.999995605469,4|0,1:0|0:0,0:0:0:0:
63,231,172752,2,0,P|47:200|55:160,1,71.9999978027344,0|0,1:0|0:0,0:0:0:0:
142,91,172965,1,8,0:0:0:0:
181,108,173071,1,8,0:0:0:0:
224,105,173178,1,8,0:0:0:0:
260,81,173284,6,0,P|321:70|380:135,1,143.999995605469,0|0,1:0|0:0,0:0:0:0:
377,123,173603,2,0,P|421:111|461:98,1,71.9999978027344,0|0,1:0|0:0,0:0:0:0:
328,216,173816,2,0,P|291:206|245:196,2,71.9999978027344,8|8|8,0:0|0:0|0:0,0:0:0:0:
408,264,174135,6,0,P|345:258|291:316,1,143.999995605469,4|8,1:0|0:0,0:0:0:0:
383,363,174454,1,0,1:0:0:0:
383,363,174561,1,8,0:0:0:0:
383,363,174667,2,0,P|393:328|402:293,1,71.9999978027344,10|10,0:0|0:0,0:0:0:0:
258,198,174880,1,10,0:0:0:0:
258,198,174986,6,0,P|272:285|282:343,1,143.999995605469,4|0,1:0|0:0,0:0:0:0:
281,340,175305,2,0,B|247:323|247:323|201:331,1,71.9999978027344,0|0,1:0|0:0,0:0:0:0:
80,280,175518,2,0,B|113:285|113:285|147:268,2,71.9999978027344,8|8|8,0:0|0:0|0:0,0:0:0:0:
130,174,175837,6,0,P|216:164|258:198,1,143.999995605469,4|0,1:0|0:0,0:0:0:0:
264,216,176156,1,0,1:0:0:0:
448,120,176369,1,8,0:0:0:0:
409,140,176476,1,8,0:0:0:0:
367,129,176582,1,8,0:0:0:0:
339,95,176688,6,0,P|354:180|364:238,1,143.999995605469,4|0,1:0|0:0,0:0:0:0:
355,242,177007,2,0,P|403:256|432:252,1,71.9999978027344,0|0,1:0|0:0,0:0:0:0:
504,352,177220,1,8,0:0:0:0:
464,333,177327,1,8,0:0:0:0:
421,330,177433,1,8,0:0:0:0:
382,349,177539,6,0,B|301:337|324:382|235:370,1,143.999995605469,4|8,1:0|0:0,0:0:0:0:
242,370,177859,2,0,P|231:334|222:282,1,71.9999978027344,8|8,0:0|0:0,0:0:0:0:
160,240,178071,2,0,P|170:205|177:170,1,71.9999978027344,8|8,0:0|0:0,0:0:0:0:
152,88,178284,1,8,0:0:0:0:
160,96,178390,6,0,P|232:128|296:96,1,143.999995605469,4|0,1:0|1:0,0:0:0:0:
348,30,178710,2,0,L|430:44,1,71.9999978027344,8|0,0:0|0:0,0:0:0:0:
386,161,178922,2,0,L|315:147,2,71.9999978027344,0|0|8,1:0|1:0|0:0,0:0:0:0:
469,115,179242,6,0,P|508:188|480:249,1,143.999995605469,4|0,1:0|1:0,0:0:0:0:
392,312,179561,2,0,P|353:239|381:178,1,143.999995605469,8|0,0:0|1:0,0:0:0:0:
482,33,179986,1,8,0:0:0:0:
397,73,180093,6,0,P|343:83|266:24,1,143.999995605469,4|0,1:0|1:0,0:0:0:0:
271,36,180412,2,0,P|241:45|156:56,1,71.9999978027344,8|0,0:0|0:0,0:0:0:0:
112,120,180625,2,0,P|82:111|-3:100,1,71.9999978027344,0|0,1:0|1:0,0:0:0:0:
120,216,180837,1,8,0:0:0:0:
128,224,180944,6,0,B|209:221|176:172|258:163,1,143.999995605469,4|0,1:0|1:0,0:0:0:0:
253,163,181263,2,0,L|272:251,1,71.9999978027344,8|0,0:0|0:0,0:0:0:0:
296,368,181476,2,0,L|315:280,1,71.9999978027344,0|0,1:0|1:0,0:0:0:0:
344,176,181688,1,8,0:0:0:0:
384,264,181795,6,0,P|326:214|262:239,1,143.999995605469,0|0,1:0|1:0,0:0:0:0:
160,120,182114,2,0,P|166:155|175:190,1,71.9999978027344,8|0,0:0|0:0,0:0:0:0:
56,304,182327,2,0,P|65:269|71:233,1,71.9999978027344,0|0,1:0|1:0,0:0:0:0:
8,152,182539,1,8,0:0:0:0:
14,158,182646,6,0,B|68:143|68:143|86:112|86:112|145:94,1,143.999995605469,0|0,1:0|1:0,0:0:0:0:
240,56,182965,2,0,P|167:67|125:14,1,143.999995605469,8|0,0:0|1:0,0:0:0:0:
255,153,183390,1,8,0:0:0:0:
339,100,183497,6,0,P|419:110|495:118,1,151.999995941162,0|0,1:0|0:0,0:0:0:0:
499,111,183816,1,4,1:0:0:0:
404,285,184029,5,8,0:0:0:0:
392,264,184135,1,4,3:0:0:0:
394,240,184242,1,4,3:0:0:0:
408,220,184348,6,0,P|326:273|269:261,1,151.999995941162,4|0,1:0|0:0,0:0:0:0:
264,256,184667,1,4,1:0:0:0:
64,272,184880,5,8,0:0:0:0:
72,296,184986,1,8,3:0:0:0:
80,320,185093,1,8,3:0:0:0:
88,344,185199,6,0,B|150:359|150:359|188:325|172:277,1,151.999995941162,4|0,1:0|0:0,0:0:0:0:
162,268,185518,1,4,1:0:0:0:
16,152,185731,5,8,0:0:0:0:
40,160,185837,1,4,3:0:0:0:
65,159,185944,1,4,3:0:0:0:
88,150,186050,6,0,P|124:137|229:169,1,151.999995941162,0|8,1:0|0:0,0:0:0:0:
254,203,186369,2,0,P|265:167|257:130,1,75.9999979705811,4|4,3:0|3:0,0:0:0:0:
128,218,186582,1,8,0:0:0:0:
116,262,186688,1,8,0:0:0:0:
132,304,186795,1,8,0:0:0:0:
162,330,186901,6,0,B|234:358|244:299|317:322,1,160,4|0,1:0|0:0,0:0:0:0:
329,331,187220,1,4,1:0:0:0:
485,184,187433,5,8,0:0:0:0:
446,194,187539,1,4,3:0:0:0:
407,206,187646,1,4,3:0:0:0:
368,216,187752,6,0,P|324:154|354:75,1,160,4|8,1:0|0:0,0:0:0:0:
436,88,188071,2,0,P|397:109|362:107,1,80,4|4,3:0|3:0,0:0:0:0:
275,60,188284,2,0,P|314:59|348:79,1,80,8|8,0:0|0:0,0:0:0:0:
504,272,188603,6,0,B|408:262|445:318|332:302,1,160,4|0,1:0|1:0,0:0:0:0:
333,291,188922,1,12,0:0:0:0:
184,368,189135,2,0,B|157:319|157:319|203:209,1,160,12|4,0:0|3:0,0:0:0:0:
224,208,189454,6,0,P|125:229|57:244,1,160,12|4,0:0|3:0,0:0:0:0:
39,274,189773,2,0,P|33:234|54:194,1,80,12|0,0:0|0:0,0:0:0:0:
152,128,189986,1,8,0:0:0:0:
171,102,190093,1,8,0:0:0:0:
174,70,190199,1,8,0:0:0:0:
161,40,190305,5,8,0:0:0:0:
