osu file format v14

[General]
AudioFilename: audio.mp3
AudioLeadIn: 0
PreviewTime: 127966
Countdown: 0
SampleSet: Soft
StackLeniency: 0.5
Mode: 0
LetterboxInBreaks: 0
WidescreenStoryboard: 0

[Editor]
Bookmarks: 82539,112965,119561,171476,178390
DistanceSpacing: 1.2
BeatDivisor: 4
GridSize: 4
TimelineZoom: 2.1

[Metadata]
Title:Hello!My World!!
TitleUnicode:Hello!My World!!
Artist:fhana
ArtistUnicode:fhána
Creator:Sotarks
Version:Doormat's Hard
Source:ナイツ&マジック
Tags:Knight's & Magic ending ed full ver version lantis Junichi Sato yuxuki waga kevin mitsunaga towana doormat akitoshi corinn kalibe irohas mugiwarasekai toybot haruto haruto_aizawa
BeatmapID:1411017
BeatmapSetID:657341

[Difficulty]
HPDrainRate:5
CircleSize:3.7
OverallDifficulty:6
ApproachRate:7.5
SliderMultiplier:1.8
SliderTickRate:1

[Events]
//Background and Video events
0,0,"BG.jpg",0,0
//Break Periods
2,112952,118736
//Storyboard Layer 0 (Background)
//Storyboard Layer 1 (Fail)
//Storyboard Layer 2 (Pass)
//Storyboard Layer 3 (Foreground)
//Storyboard Sound Samples

[TimingPoints]
625,425.531914893617,4,2,22,52,1,0
2114,-166.666666666667,4,2,22,52,0,0
5944,-166.666666666667,4,2,22,52,0,0
6051,-166.666666666667,4,2,22,52,0,0
6263,-166.666666666667,4,2,22,52,0,0
8922,-166.666666666667,4,2,22,52,0,0
8923,-125,4,2,22,62,0,0
15837,-125,4,2,22,62,0,0
15838,-125,4,2,22,72,0,0
16050,-125,4,2,22,72,0,0
20944,-166.666666666667,4,2,22,52,0,0
22539,-166.666666666667,4,2,22,52,0,0
33071,-166.666666666667,4,2,22,52,0,0
33178,-166.666666666667,4,2,22,52,0,0
38923,-166.666666666667,4,2,22,62,0,0
39242,-166.666666666667,4,2,22,72,0,0
39561,-166.666666666667,4,2,22,52,0,0
39774,-166.666666666667,4,2,2,52,0,0
41795,-166.666666666667,4,2,2,52,0,0
41901,-166.666666666667,4,2,2,52,0,0
43497,-166.666666666667,4,2,2,52,0,0
43603,-166.666666666667,4,2,2,52,0,0
46583,-166.666666666667,4,2,22,52,0,0
47433,-166.666666666667,4,2,22,52,0,0
47859,-166.666666666667,4,2,22,52,0,0
48071,-125,4,2,22,82,0,0
61263,-125,4,2,22,82,0,0
61795,-125,4,2,22,82,0,0
68923,-125,4,2,22,72,0,0
95731,-125,4,2,22,72,0,0
112753,-125,4,2,22,92,0,0
119561,-166.666666666667,4,2,2,52,0,0
126582,-166.666666666667,4,2,2,52,0,0
127434,-166.666666666667,4,2,22,52,0,0
128071,-166.666666666667,4,2,22,52,0,0
128390,-166.666666666667,4,2,22,82,0,0
128497,-125,4,2,22,82,0,1
129028,-125,4,2,22,82,0,1
129348,-125,4,2,22,82,0,1
129773,-125,4,2,22,92,0,0
130199,-125,4,2,22,82,0,0
141476,-125,4,2,22,82,0,0
141795,-125,4,2,22,82,0,0
141901,-125,4,2,22,82,0,0
148497,-125,4,2,22,82,0,1
153922,-125,4,2,22,5,0,1
154029,-125,4,2,22,82,0,1
162114,-125,4,2,22,82,0,0
162539,-125,4,2,22,82,0,0
162752,-125,4,2,22,82,0,0
162965,-125,4,2,22,82,0,0
163390,-125,4,2,22,82,0,0
163603,-125,4,2,22,82,0,0
163816,-125,4,2,22,82,0,0
164241,-125,4,2,22,82,0,0
165518,-125,4,2,22,82,0,0
165943,-125,4,2,22,82,0,0
166156,-125,4,2,22,82,0,0
166369,-125,4,2,22,82,0,0
166794,-125,4,2,22,82,0,0
167007,-125,4,2,22,82,0,0
167433,-125,4,2,22,82,0,0
167859,-125,4,2,22,82,0,0
168178,-125,4,2,22,82,0,0
168284,-125,4,2,22,82,0,0
168922,-125,4,2,22,82,0,0
169135,-125,4,2,22,82,0,0
170837,-125,4,2,22,82,0,0
171050,-125,4,2,22,82,0,0
171475,-125,4,2,22,82,0,0
171688,425.531914893617,4,2,22,82,1,0
171688,-125,4,2,22,82,0,0
183496,-100,4,2,22,82,0,1
186901,-100,4,2,22,92,0,1
190305,-100,4,2,22,92,0,0

[Colours]
Combo1 : 196,193,232
Combo2 : 244,231,181
Combo3 : 187,228,244
Combo4 : 255,187,255

[HitObjects]
400,312,2114,6,0,P|340:303|292:298,1,107.999996704102,6|2,0:0|0:0,0:0:0:0:
208,328,2752,1,2,0:0:0:0:
208,328,2965,1,2,0:0:0:0:
136,274,3178,2,0,P|113:225|123:173,1,107.999996704102,2|2,0:0|0:0,0:0:0:0:
284,151,3816,6,0,P|253:194|203:211,1,107.999996704102,2|2,0:0|0:0,0:0:0:0:
200,123,4454,1,2,0:0:0:0:
200,123,4667,1,2,0:0:0:0:
229,39,4880,2,0,L|336:48,1,107.999996704102,2|2,0:0|0:0,0:0:0:0:
456,184,5731,6,0,L|451:264,1,80.9999975280763,2|2,0:0|0:0,0:0:0:0:
360,328,6369,2,0,L|355:247,1,80.9999975280763,2|2,0:0|0:0,0:0:0:0:
264,184,7007,1,0,0:0:0:0:
264,184,7220,1,2,0:0:0:0:
173,301,7433,6,0,P|213:296|254:294,2,80.9999975280763,2|2|2,0:0|0:0|0:0,0:0:0:0:
92,340,8284,1,10,0:0:0:0:
24,280,8497,2,0,L|28:248,3,26.9999991760254,8|8|8|8,0:0|0:0|0:0|0:0,0:0:0:0:
56,232,8922,6,0,P|48:200|40:124,1,107.999996704102,2|10,1:0|0:0,0:0:0:0:
82,41,9561,1,2,1:0:0:0:
82,41,9773,1,10,0:0:0:0:
168,80,9986,2,0,L|244:64,1,72,2|8,1:0|0:0,0:0:0:0:
332,44,10412,1,10,0:0:0:0:
392,116,10625,6,0,P|384:152|368:272,1,144,2|10,1:0|0:0,0:0:0:0:
384,352,11263,1,2,1:0:0:0:
384,352,11476,1,10,0:0:0:0:
290,366,11688,2,0,L|212:352,1,72,2|8,1:0|0:0,0:0:0:0:
180,268,12114,2,0,L|250:255,1,72,10|8,0:0|0:0,0:0:0:0:
328,204,12539,6,0,P|288:140|314:74,1,144,2|0,1:0|1:0,0:0:0:0:
380,20,13178,2,0,L|496:36,2,108,2|2|10,1:0|0:0|0:0,0:0:0:0:
309,79,14029,1,10,0:0:0:0:
373,213,14242,6,0,P|393:163|395:110,2,108,6|2|2,1:0|1:0|1:0,0:0:0:0:
292,260,15093,1,2,1:0:0:0:
220,200,15305,1,8,0:0:0:0:
220,200,15412,1,8,0:0:0:0:
220,200,15518,2,0,L|184:204,2,36,6|4|4,3:0|3:0|3:0,0:0:0:0:
248,176,15837,6,0,L|256:292,1,108,6|0,1:0|1:0,0:0:0:0:
332,336,16369,2,0,L|324:388,2,36,8|8|8,0:0|0:0|0:0,0:0:0:0:
360,312,16688,2,0,P|344:272|364:200,1,108,4|0,1:0|1:0,0:0:0:0:
376,116,17220,2,0,L|368:72,2,36,8|8|8,0:0|0:0|0:0,0:0:0:0:
343,131,17539,6,0,P|293:111|239:115,1,108,0|0,1:0|1:0,0:0:0:0:
148,140,18071,2,0,L|144:88,2,36,8|8|8,0:0|0:0|0:0,0:0:0:0:
124,168,18390,2,0,L|116:288,1,108,4|0,1:0|1:0,0:0:0:0:
180,348,18922,2,0,L|182:383,2,36,8|8|8,0:0|0:0|0:0,0:0:0:0:
208,324,19242,6,0,P|252:336|316:300,1,108,4|0,1:0|1:0,0:0:0:0:
352,228,19773,2,0,L|387:222,2,36,8|8|8,0:0|0:0|0:0,0:0:0:0:
328,200,20093,2,0,L|221:180,1,108,4|0,1:0|1:0,0:0:0:0:
188,92,20624,2,0,L|136:100,2,36,8|8|8,0:0|0:0|0:0,0:0:0:0:
212,64,20944,6,0,B|244:120|340:124|372:40|372:40|384:96|424:128,1,296.99999093628,4|8,1:0|0:0,0:0:0:0:
488,176,22327,1,4,3:0:0:0:
392,248,22539,6,0,P|352:244|272:240,1,107.999996704102,4|2,1:0|1:0,0:0:0:0:
200,272,23178,1,10,0:0:0:0:
200,272,23390,1,2,3:0:0:0:
128,220,23603,1,2,1:0:0:0:
128,220,23816,2,0,L|136:156,1,53.9999983520508,2|8,3:0|0:0,0:0:0:0:
168,80,24242,6,0,P|220:96|288:72,1,107.999996704102,2|2,1:0|1:0,0:0:0:0:
340,24,24880,1,10,0:0:0:0:
418,71,25093,1,2,3:0:0:0:
397,159,25305,2,0,L|336:156,1,53.9999983520508,2|2,1:0|3:0,0:0:0:0:
256,240,25731,2,0,L|317:243,1,53.9999983520508,10|2,0:0|3:0,0:0:0:0:
380,300,26156,5,0,1:0:0:0:
334,378,26369,1,2,3:0:0:0:
243,377,26582,1,10,0:0:0:0:
198,298,26795,1,2,3:0:0:0:
244,220,27007,2,0,L|232:156,2,53.9999983520508,2|2|10,1:0|3:0|0:0,0:0:0:0:
198,298,27646,6,0,P|154:290|70:290,1,107.999996704102,2|2,1:0|1:0,0:0:0:0:
11,244,28284,2,0,P|38:214|46:175,1,80.9999975280763,10|0,0:0|0:0,0:0:0:0:
36,144,28710,1,2,1:0:0:0:
136,180,28922,1,10,0:0:0:0:
201,96,29135,1,10,0:0:0:0:
301,132,29348,6,0,P|296:176|284:260,1,107.999996704102,4|2,1:0|1:0,0:0:0:0:
232,312,29986,1,10,0:0:0:0:
232,312,30199,1,2,3:0:0:0:
308,364,30412,1,2,1:0:0:0:
308,364,30624,2,0,L|376:356,1,53.9999983520508,2|8,3:0|0:0,0:0:0:0:
440,312,31050,6,0,P|416:272|432:192,1,107.999996704102,2|2,1:0|1:0,0:0:0:0:
460,132,31688,1,10,0:0:0:0:
395,68,31901,1,2,3:0:0:0:
315,109,32114,2,0,P|264:104|192:96,1,107.999996704102,2|10,1:0|0:0,0:0:0:0:
112,40,32752,5,2,1:0:0:0:
112,40,33178,1,2,1:0:0:0:
160,116,33390,2,0,L|150:169,1,53.9999983520508,10|2,0:0|3:0,0:0:0:0:
64,200,33816,2,0,L|54:146,2,53.9999983520508,2|2|10,1:0|3:0|0:0,0:0:0:0:
136,256,34454,6,0,P|192:248|264:248,1,107.999996704102,6|2,1:0|1:0,0:0:0:0:
328,272,35093,1,10,0:0:0:0:
328,272,35518,2,0,L|324:344,2,53.9999983520508,2|0|8,1:0|3:0|0:0,0:0:0:0:
376,196,36156,6,0,P|352:147|351:94,1,107.999996704102,6|2,1:0|1:0,0:0:0:0:
384,8,36795,1,10,0:0:0:0:
384,8,37220,2,0,L|448:16,2,53.9999983520508,2|0|8,1:0|3:0|0:0,0:0:0:0:
296,24,37859,6,0,L|172:32,1,107.999996704102,6|10,1:0|0:0,0:0:0:0:
120,88,38497,1,10,0:0:0:0:
120,88,38710,1,10,0:0:0:0:
192,140,38922,2,0,L|184:200,2,53.9999983520508,10|10|10,0:0|0:0|0:0,0:0:0:0:
264,84,39561,5,10,0:0:0:0:
256,192,39667,12,8,43178,0:0:0:0:
132,108,44667,6,0,L|256:92,1,107.999996704102,2|10,0:0|0:0,0:0:0:0:
320,136,45305,1,10,0:0:0:0:
320,136,45518,1,10,0:0:0:0:
388,76,45731,2,0,L|376:16,2,53.9999983520508,10|10|10,0:0|0:0|0:0,0:0:0:0:
468,120,46369,6,0,P|448:156|464:240,1,107.999996704102,0|10,0:0|0:0,0:0:0:0:
508,292,47007,1,10,0:0:0:0:
508,292,47220,1,10,0:0:0:0:
440,352,47433,2,0,P|396:344|312:344,1,107.999996704102,0|8,3:0|1:0,0:0:0:0:
232,236,48071,6,0,P|300:252|361:217,1,144,6|10,1:0|0:0,0:0:0:0:
400,132,48710,1,2,1:0:0:0:
400,132,48922,1,10,0:0:0:0:
492,156,49135,2,0,L|484:236,1,72,2|8,1:0|0:0,0:0:0:0:
472,320,49561,1,2,1:0:0:0:
380,292,49773,6,0,P|308:287|236:290,1,144,2|10,1:0|0:0,0:0:0:0:
144,304,50412,1,2,1:0:0:0:
144,304,50624,1,10,0:0:0:0:
88,228,50837,2,0,L|100:144,1,72,0|8,0:0|0:0,0:0:0:0:
184,116,51263,2,0,L|194:187,1,72,0|8,1:0|0:0,0:0:0:0:
280,152,51688,6,0,P|292:101|273:51,1,108,2|2,1:0|0:0,0:0:0:0:
148,20,52327,2,0,L|4:44,2,144,10|10|10,0:0|0:0|0:0,0:0:0:0:
193,104,53390,6,0,P|177:148|205:228,2,108,2|2|8,1:0|0:0|0:0,0:0:0:0:
273,51,54242,1,2,0:0:0:0:
348,110,54455,1,8,0:0:0:0:
314,199,54668,1,8,0:0:0:0:
193,104,54880,6,0,L|41:96,1,144,6|10,1:0|0:0,0:0:0:0:
0,176,55518,1,2,1:0:0:0:
0,176,55731,1,10,0:0:0:0:
72,236,55944,2,0,L|148:228,1,72,2|8,0:0|0:0,0:0:0:0:
236,220,56369,1,2,1:0:0:0:
184,140,56582,6,0,P|164:104|192:8,1,144,6|10,1:0|0:0,0:0:0:0:
257,78,57220,1,2,1:0:0:0:
257,78,57433,1,10,0:0:0:0:
324,145,57646,2,0,L|400:136,1,72,0|8,0:0|0:0,0:0:0:0:
496,224,58071,2,0,L|424:232,1,72,2|8,1:0|0:0,0:0:0:0:
328,236,58497,6,0,P|349:284|338:336,1,108,6|2,1:0|0:0,0:0:0:0:
220,348,59135,2,0,P|198:299|209:247,1,108,10|2,0:0|1:0,0:0:0:0:
328,236,59773,1,2,1:0:0:0:
328,236,59986,1,10,0:0:0:0:
260,152,60199,6,0,L|128:168,2,108,2|2|2,1:0|1:0|1:0,0:0:0:0:
324,84,61050,1,2,1:0:0:0:
392,148,61262,1,8,0:0:0:0:
392,148,61369,1,8,0:0:0:0:
392,148,61476,2,0,L|427:143,2,36,10|4|4,3:0|3:0|3:0,0:0:0:0:
368,176,61795,6,0,P|384:216|360:288,1,108,6|2,1:0|1:0,0:0:0:0:
284,320,62327,2,0,L|292:368,2,36,10|10|8,0:0|0:0|0:0,0:0:0:0:
256,296,62646,2,0,P|216:312|144:288,1,108,6|2,1:0|1:0,0:0:0:0:
92,224,63178,2,0,L|44:236,2,36,10|10|8,0:0|0:0|0:0,0:0:0:0:
116,196,63497,6,0,P|100:145|116:94,1,108,6|2,1:0|1:0,0:0:0:0:
196,44,64029,2,0,L|192:4,2,36,10|10|8,0:0|0:0|0:0,0:0:0:0:
224,68,64348,2,0,P|274:52|325:68,1,108,6|0,1:0|1:0,0:0:0:0:
392,136,64880,1,8,0:0:0:0:
356,224,65093,5,10,0:0:0:0:
356,224,65199,1,10,0:0:0:0:
356,224,65305,2,0,L|276:216,1,72,6|10,1:0|0:0,0:0:0:0:
252,232,65625,2,0,L|172:224,1,72,2|2,0:0|1:0,0:0:0:0:
96,268,66050,2,0,P|112:320|80:392,1,108,2|10,1:0|0:0,0:0:0:0:
0,208,66795,5,10,0:0:0:0:
0,208,66901,1,2,0:0:0:0:
0,208,67007,2,0,L|8:120,1,72,6|10,1:0|0:0,0:0:0:0:
36,116,67327,2,0,L|44:28,1,72,2|10,1:0|0:0,0:0:0:0:
132,16,67752,2,0,P|176:36|248:16,1,108,4|10,1:0|0:0,0:0:0:0:
340,8,68284,1,10,0:0:0:0:
358,114,68496,1,4,1:0:0:0:
358,114,68922,5,2,0:0:0:0:
288,180,69135,2,0,L|192:172,1,72,6|2,3:0|0:0,0:0:0:0:
240,264,69561,2,0,L|368:276,1,108,6|12,3:0|3:0,0:0:0:0:
503,152,70199,6,0,P|437:175|373:146,1,144,6|10,1:0|3:0,0:0:0:0:
300,88,70837,2,0,L|304:16,1,72,10|0,3:0|0:0,0:0:0:0:
212,36,71263,2,0,L|208:155,1,108,6|4,3:0|3:0,0:0:0:0:
40,248,71901,6,0,P|59:180|26:118,1,144,6|0,1:0|1:0,0:0:0:0:
56,28,72539,1,14,0:0:0:0:
224,116,72965,2,0,L|360:100,1,108,14|6,3:0|3:0,0:0:0:0:
480,232,73603,6,0,P|440:216|332:260,1,144,6|14,1:0|3:0,0:0:0:0:
280,312,74242,1,10,0:0:0:0:
120,212,74667,2,0,P|126:163|128:96,2,108,14|14|6,3:0|0:0|1:0,0:0:0:0:
120,212,75731,5,2,1:0:0:0:
188,276,75944,2,0,L|268:264,1,72,14|0,0:0|0:0,0:0:0:0:
333,210,76369,2,0,P|352:260|340:312,1,108,6|2,3:0|1:0,0:0:0:0:
144,344,77007,6,0,P|156:272|156:188,1,144,6|6,1:0|3:0,0:0:0:0:
112,116,77646,1,14,0:0:0:0:
279,203,78071,2,0,L|408:184,1,108,14|14,0:0|0:0,0:0:0:0:
268,28,78710,6,0,P|220:8|124:44,1,144,6|2,1:0|1:0,0:0:0:0:
86,114,79348,2,0,L|102:194,1,72,14|0,0:0|0:0,0:0:0:0:
186,224,79773,2,0,L|204:118,1,108,6|14,3:0|3:0,0:0:0:0:
385,135,80412,6,0,P|416:199|395:266,1,144,6|6,1:0|3:0,0:0:0:0:
343,345,81050,1,10,0:0:0:0:
213,202,81476,2,0,P|267:202|321:207,2,108,14|14|14,0:0|0:0|1:2,0:0:0:0:
213,202,82539,6,0,L|208:152,2,36,2|0|14,1:0|1:0|0:0,0:0:0:0:
136,256,82965,2,0,L|131:206,2,36,2|8|6,1:0|0:0|3:0,0:0:0:0:
59,310,83390,2,0,L|54:260,2,36,2|0|10,1:0|3:0|0:0,0:0:0:0:
144,352,83816,1,14,1:2:0:0:
144,352,83922,1,2,1:2:0:0:
144,352,84029,6,0,P|214:338|286:336,1,144,0|10,0:0|0:0,0:0:0:0:
376,368,84667,1,2,1:0:0:0:
436,296,84880,2,0,L|424:216,1,72,6|2,3:0|1:0,0:0:0:0:
352,164,85305,1,10,0:0:0:0:
352,164,85412,1,10,0:0:0:0:
352,164,85518,6,0,P|304:196|212:172,1,144,6|0,1:0|1:0,0:0:0:0:
152,120,86156,2,0,L|156:40,1,72,14|0,0:0|1:0,0:0:0:0:
64,72,86582,2,0,L|56:203,1,108,6|6,3:0|3:0,0:0:0:0:
232,276,87220,6,0,P|253:208|227:142,1,144,6|6,1:0|3:0,0:0:0:0:
144,100,87859,1,14,0:0:0:0:
312,20,88284,2,0,P|372:24|432:36,2,108,14|14|14,0:0|0:0|1:2,0:0:0:0:
312,20,89348,6,0,L|320:80,2,36,6|2|14,3:0|0:0|0:0,0:0:0:0:
220,0,89774,1,2,1:0:0:0:
168,76,89986,1,6,3:0:0:0:
164,100,90093,2,0,P|159:145|175:195,1,72,10|2,0:0|1:0,0:0:0:0:
360,236,90625,6,0,L|372:88,1,144,6|6,1:0|3:0,0:0:0:0:
292,40,91263,1,14,0:0:0:0:
292,40,91476,1,2,1:0:0:0:
232,112,91688,2,0,L|160:105,1,72,6|2,3:0|1:0,0:0:0:0:
80,156,92114,1,10,0:0:0:0:
80,156,92220,1,10,0:0:0:0:
80,156,92327,6,0,P|108:192|88:288,1,144,4|8,1:0|0:0,0:0:0:0:
168,340,92965,2,0,L|238:327,1,72,12|8,3:0|0:0,0:0:0:0:
328,360,93390,2,0,L|398:347,1,72,12|8,3:0|0:0,0:0:0:0:
468,280,93816,1,10,0:0:0:0:
468,280,93922,1,0,0:0:0:0:
468,280,94029,6,0,P|440:244|460:148,1,144,6|0,1:0|1:0,0:0:0:0:
512,76,94667,1,12,0:0:0:0:
328,32,95093,2,0,L|240:40,1,72,0|8,1:0|0:0,0:0:0:0:
236,68,95412,2,0,L|164:61,1,72,10|6,0:0|3:0,0:0:0:0:
132,44,95731,6,0,P|152:92|116:184,1,144,6|10,1:0|0:0,0:0:0:0:
60,244,96369,2,0,L|16:228,2,36,2|0|10,1:0|1:0|0:0,0:0:0:0:
80,272,96688,2,0,P|136:256|216:248,1,108,6|8,1:0|0:0,0:0:0:0:
272,284,97220,2,0,L|356:272,1,72,2|10,1:0|0:0,0:0:0:0:
376,288,97539,6,0,P|360:240|392:168,1,108,6|8,1:0|0:0,0:0:0:0:
428,108,98071,2,0,L|476:120,2,36,0|2|10,1:0|1:0|0:0,0:0:0:0:
404,80,98390,2,0,L|288:92,1,108,6|8,1:0|0:0,0:0:0:0:
212,132,98922,2,0,P|164:120|124:132,1,72,0|8,1:0|0:0,0:0:0:0:
108,132,99242,6,0,P|112:176|124:272,1,108,6|8,1:0|0:0,0:0:0:0:
200,288,99773,2,0,L|196:344,2,36,0|0|8,1:0|1:0|0:0,0:0:0:0:
224,260,100093,2,0,P|272:280|340:260,1,108,6|8,1:0|0:0,0:0:0:0:
388,200,100625,2,0,L|380:104,1,72,2|8,1:0|0:0,0:0:0:0:
396,96,100944,6,0,P|352:112|288:96,1,108,6|8,1:0|0:0,0:0:0:0:
208,56,101476,2,0,L|216:12,2,36,2|0|8,1:0|1:0|0:0,0:0:0:0:
180,80,101795,2,0,L|192:204,1,108,6|8,1:0|0:0,0:0:0:0:
256,256,102327,2,0,L|304:236,2,36,8|8|10,0:0|0:0|3:0,0:0:0:0:
240,288,102646,6,0,P|187:276|137:294,1,108,6|8,1:0|0:0,0:0:0:0:
52,336,103178,2,0,L|60:376,2,36,2|0|8,1:0|1:0|0:0,0:0:0:0:
20,320,103497,2,0,L|24:180,1,108,6|8,1:0|0:0,0:0:0:0:
80,140,104029,2,0,P|128:152|168:132,1,72,2|10,1:0|0:0,0:0:0:0:
174,120,104348,6,0,P|160:172|182:223,1,108,0|8,0:0|0:0,0:0:0:0:
260,268,104880,2,0,L|256:312,2,36,2|0|10,1:0|1:0|0:0,0:0:0:0:
284,240,105199,2,0,P|333:220|384:234,1,108,6|8,1:0|0:0,0:0:0:0:
476,212,105731,2,0,L|468:132,1,72,2|10,1:0|0:0,0:0:0:0:
484,108,106050,6,0,L|356:92,1,108,6|8,1:0|0:0,0:0:0:0:
284,116,106582,2,0,L|276:68,2,36,2|2|10,1:0|1:0|0:0,0:0:0:0:
308,144,106901,2,0,P|281:190|284:243,1,108,6|8,1:0|0:0,0:0:0:0:
336,324,107433,2,0,L|240:344,1,72,2|8,1:0|0:0,0:0:0:0:
240,364,107752,6,0,P|200:344|116:376,1,108,6|0,1:0|1:0,0:0:0:0:
48,336,108284,2,0,L|8:348,2,36,8|8|4,0:0|3:0|3:0,0:0:0:0:
56,300,108603,2,0,P|40:248|40:194,1,108,6|0,1:0|1:0,0:0:0:0:
112,132,109135,2,0,L|108:92,2,36,8|8|4,0:0|3:0|3:0,0:0:0:0:
136,160,109454,6,0,P|188:144|272:132,1,108,6|0,1:0|1:0,0:0:0:0:
324,180,109986,2,0,L|332:124,2,36,8|8|4,0:0|3:0|3:0,0:0:0:0:
308,212,110305,2,0,L|328:332,1,108,6|0,1:0|1:0,0:0:0:0:
416,348,110837,2,0,L|412:392,2,36,8|8|8,0:0|0:0|0:0,0:0:0:0:
444,324,111156,6,0,P|428:273|442:222,1,108,6|12,1:0|0:0,0:0:0:0:
509,156,111688,1,12,0:0:0:0:
433,100,111901,2,0,L|381:112,2,36,0|12|8,1:0|0:0|0:0,0:0:0:0:
477,16,112327,2,0,L|529:28,2,36,12|8|4,0:0|0:0|3:0,0:0:0:0:
349,0,112752,5,4,1:0:0:0:
368,80,119561,6,0,L|380:148,1,53.9999983520508,4|8,1:0|0:0,0:0:0:0:
280,236,120199,1,8,0:0:0:0:
280,236,120412,1,2,0:0:0:0:
204,188,120624,2,0,L|208:124,2,53.9999983520508,10|2|10,0:0|0:0|0:0,0:0:0:0:
136,248,121263,6,0,L|139:301,1,53.9999983520508,2|8,1:0|0:0,0:0:0:0:
272,352,121901,1,8,0:0:0:0:
272,352,122114,1,2,0:0:0:0:
336,284,122327,2,0,L|389:291,2,53.9999983520508,10|2|10,0:0|0:0|0:0,0:0:0:0:
276,216,122965,6,0,L|222:208,1,53.9999983520508,2|8,1:0|0:0,0:0:0:0:
128,104,123603,1,10,0:0:0:0:
128,104,123816,1,2,0:0:0:0:
44,140,124029,2,0,L|48:208,1,53.9999983520508,10|0,0:0|0:0,0:0:0:0:
104,264,124454,1,10,0:0:0:0:
176,208,124667,6,0,P|224:188|296:208,1,107.999996704102,6|8,1:0|1:2,0:0:0:0:
360,256,125305,1,8,1:2:0:0:
360,256,125518,1,8,1:2:0:0:
441,196,125730,1,0,0:0:0:0:
441,196,125944,1,8,1:2:0:0:
409,99,126156,1,10,1:2:0:0:
277,196,126369,6,0,L|288:324,1,107.999996704102,6|10,1:0|0:0,0:0:0:0:
200,368,127007,1,10,0:0:0:0:
200,368,127220,1,10,0:0:0:0:
120,296,127433,2,0,L|124:248,3,26.9999991760254,10|8|10|8,0:0|0:0|0:0|0:0,0:0:0:0:
280,128,128071,6,0,L|286:208,1,80.9999975280763,2|2,0:0|0:0,0:0:0:0:
292,244,128497,1,14,0:0:0:0:
172,204,128710,1,14,0:0:0:0:
132,324,128922,1,6,3:0:0:0:
132,324,129029,1,12,0:0:0:0:
132,324,129135,2,0,L|144:372,2,36,2|8|8,1:0|0:0|0:0,0:0:0:0:
12,284,129561,1,10,0:0:0:0:
12,284,129667,1,4,3:0:0:0:
12,284,129773,6,0,P|20:228|33:121,1,144,14|10,1:2|0:0,0:0:0:0:
8,48,130412,1,2,1:0:0:0:
8,48,130624,1,8,0:0:0:0:
100,76,130837,2,0,L|180:56,1,72,0|8,0:0|0:0,0:0:0:0:
244,168,131263,2,0,L|174:150,1,72,2|8,1:0|0:0,0:0:0:0:
316,116,131688,6,0,P|336:165|321:216,1,108,2|2,1:0|0:0,0:0:0:0:
180,251,132327,2,0,P|159:201|174:150,1,108,10|2,0:0|1:0,0:0:0:0:
316,116,132965,1,2,1:0:0:0:
316,116,133178,1,10,0:0:0:0:
376,188,133390,6,0,L|492:172,2,108,2|2|10,1:0|0:0|0:0,0:0:0:0:
326,267,134241,1,0,0:0:0:0:
235,244,134454,1,8,0:0:0:0:
228,150,134667,1,8,0:0:0:0:
376,188,134880,6,0,P|360:264|367:331,1,144,6|10,1:0|0:0,0:0:0:0:
446,380,135518,1,2,1:0:0:0:
446,380,135731,1,10,0:0:0:0:
496,300,135944,2,0,L|488:220,1,72,0|8,0:0|0:0,0:0:0:0:
456,140,136369,1,2,1:0:0:0:
376,188,136582,6,0,P|328:208|232:184,1,144,6|10,1:0|0:0,0:0:0:0:
164,132,137220,1,2,1:0:0:0:
164,132,137433,1,10,0:0:0:0:
96,196,137646,2,0,L|108:272,1,72,0|10,0:0|0:0,0:0:0:0:
229,261,138071,2,0,L|240:189,1,72,0|8,1:0|0:0,0:0:0:0:
132,116,138497,6,0,P|84:108|20:148,1,108,6|2,1:0|1:0,0:0:0:0:
107,267,139135,2,0,P|155:275|219:235,1,108,10|2,0:0|1:0,0:0:0:0:
132,116,139773,1,2,1:0:0:0:
132,116,139986,1,10,0:0:0:0:
60,176,140199,6,0,L|72:288,2,108,6|2|2,1:0|1:0|1:0,0:0:0:0:
0,104,141050,1,2,1:0:0:0:
72,44,141263,1,8,0:0:0:0:
72,44,141369,1,8,0:0:0:0:
72,44,141476,2,0,L|68:4,2,36,14|4|4,3:0|3:0|3:0,0:0:0:0:
100,68,141795,6,0,P|156:52|220:72,1,108,6|2,1:0|1:0,0:0:0:0:
296,88,142327,2,0,L|292:48,2,36,10|10|8,0:0|0:0|0:0,0:0:0:0:
324,112,142646,2,0,P|313:164|329:215,1,108,6|6,1:0|1:0,0:0:0:0:
388,292,143178,2,0,L|428:288,2,36,10|10|8,0:0|0:0|0:0,0:0:0:0:
364,320,143497,2,0,P|311:309|260:325,1,108,6|2,1:0|1:0,0:0:0:0:
172,288,144029,2,0,L|132:284,2,36,10|10|8,0:0|0:0|0:0,0:0:0:0:
196,260,144348,2,0,P|206:207|190:156,1,108,2|0,1:0|1:0,0:0:0:0:
140,76,144880,1,8,0:0:0:0:
220,25,145093,5,10,0:0:0:0:
220,25,145199,1,10,0:0:0:0:
220,25,145305,2,0,L|308:36,1,72,2|10,1:0|0:0,0:0:0:0:
320,56,145625,2,0,L|391:47,1,72,2|2,1:0|1:0,0:0:0:0:
464,108,146050,2,0,P|451:143|460:205,1,72,2|2,1:0|1:0,0:0:0:0:
464,213,146369,1,10,0:0:0:0:
352,364,146794,5,10,0:0:0:0:
352,364,146901,1,2,0:0:0:0:
352,364,147007,2,0,L|260:353,1,72,6|10,1:0|0:0,0:0:0:0:
252,333,147327,2,0,L|180:341,1,72,6|10,1:0|0:0,0:0:0:0:
88,364,147752,2,0,L|96:240,1,108,6|10,1:0|0:0,0:0:0:0:
88,125,148284,5,10,0:0:0:0:
88,125,148390,1,8,0:0:0:0:
88,125,148497,2,0,P|154:149|220:127,1,144,14|0,1:2|3:0,0:0:0:0:
276,40,149135,1,10,0:0:0:0:
368,84,149348,2,0,L|456:72,1,72,2|0,1:0|1:0,0:0:0:0:
512,144,149773,1,0,0:0:0:0:
468,234,149986,1,10,0:0:0:0:
368,220,150199,6,0,P|296:214|224:218,1,144,2|2,3:0|3:0,0:0:0:0:
128,268,150837,1,10,0:0:0:0:
52,200,151050,1,2,3:0:0:0:
36,184,151156,2,0,P|36:130|41:76,1,108,2|2,0:0|3:0,0:0:0:0:
128,24,151688,1,8,0:0:0:0:
208,112,151901,6,0,P|252:132|344:96,1,144,4|0,1:0|3:0,0:0:0:0:
400,24,152539,1,10,0:0:0:0:
488,72,152752,2,0,L|480:164,1,72,2|0,3:0|1:0,0:0:0:0:
432,232,153178,1,0,3:0:0:0:
343,182,153391,1,10,0:0:0:0:
293,270,153603,6,0,L|179:259,1,108,2|0,3:0|0:0,0:0:0:0:
152,244,154029,1,2,3:0:0:0:
188,148,154242,1,10,0:0:0:0:
224,52,154454,1,2,3:0:0:0:
92,112,154667,1,2,1:0:0:0:
188,148,154880,1,10,0:0:0:0:
284,184,155092,1,10,0:0:0:0:
152,244,155305,6,0,P|104:224|12:264,1,144,6|0,1:0|1:0,0:0:0:0:
0,352,155944,1,10,0:0:0:0:
96,380,156156,2,0,L|176:364,1,72,2|0,3:0|1:0,0:0:0:0:
256,316,156582,1,0,3:0:0:0:
257,213,156794,1,10,0:0:0:0:
169,160,157007,6,0,L|16:180,1,144,2|2,3:0|3:0,0:0:0:0:
0,80,157646,1,10,0:0:0:0:
85,24,157859,1,2,3:0:0:0:
104,36,157965,2,0,L|228:24,1,108,2|2,0:0|3:0,0:0:0:0:
308,60,158497,1,8,0:0:0:0:
228,148,158710,6,0,P|204:216|231:284,1,144,6|2,1:0|3:0,0:0:0:0:
308,344,159348,1,10,0:0:0:0:
308,344,159561,1,2,3:0:0:0:
392,288,159773,1,2,1:0:0:0:
392,288,159986,2,0,L|384:208,1,72,2|8,3:0|0:0,0:0:0:0:
392,116,160412,6,0,P|344:124|216:124,1,144,2|2,3:0|3:0,0:0:0:0:
160,80,161050,1,10,0:0:0:0:
160,80,161263,1,2,3:0:0:0:
113,168,161475,1,2,1:0:0:0:
201,214,161688,1,10,3:0:0:0:
248,126,161901,1,10,0:0:0:0:
100,152,162114,6,0,P|101:226|106:295,1,144,4|4,1:0|3:0,0:0:0:0:
184,360,162752,1,10,0:0:0:0:
343,253,162965,2,0,P|271:254|200:260,1,144,6|4,1:0|3:0,0:0:0:0:
106,295,163603,1,10,0:0:0:0:
0,184,163816,6,0,L|16:36,1,144,6|6,1:0|3:0,0:0:0:0:
112,12,164454,1,10,0:0:0:0:
140,108,164667,1,2,1:0:0:0:
156,124,164773,2,0,P|164:168|152:232,1,108,10|10,0:0|0:0,0:0:0:0:
80,300,165305,1,10,0:0:0:0:
224,356,165518,6,0,L|384:336,1,144,0|4,1:0|3:0,0:0:0:0:
428,256,166156,1,10,0:0:0:0:
308,101,166369,2,0,L|326:244,1,144,6|4,1:0|3:0,0:0:0:0:
256,316,167007,1,10,0:0:0:0:
85,237,167220,6,0,L|228:219,1,144,6|8,3:0|0:0,0:0:0:0:
280,132,167859,1,0,1:0:0:0:
280,132,168071,1,8,0:0:0:0:
213,55,168285,1,0,1:0:0:0:
119,94,168497,2,0,L|128:172,1,72,10|6,0:0|3:0,0:0:0:0:
227,219,168922,5,6,1:0:0:0:
256,192,169029,12,8,170837,0:0:0:0:
336,328,171476,6,0,P|292:324|192:320,1,144,6|0,1:0|1:0,0:0:0:0:
120,260,172114,2,0,L|72:264,2,36,8|8|8,0:0|0:0|0:0,0:0:0:0:
136,228,172433,2,0,P|116:184|140:104,1,108,4|0,1:0|1:0,0:0:0:0:
204,76,172965,2,0,L|196:36,2,36,8|8|8,0:0|0:0|0:0,0:0:0:0:
232,100,173283,6,0,L|368:80,1,108,0|0,0:0|1:0,0:0:0:0:
432,108,173816,2,0,L|440:56,2,36,8|8|8,0:0|0:0|0:0,0:0:0:0:
428,144,174135,2,0,P|448:188|424:268,1,108,4|0,1:0|1:0,0:0:0:0:
360,300,174667,2,0,L|372:356,2,36,10|10|10,0:0|0:0|0:0,0:0:0:0:
332,276,174985,6,0,P|292:264|216:296,1,108,0|0,0:0|1:0,0:0:0:0:
144,324,175518,2,0,L|152:372,2,36,8|8|0,0:0|0:0|0:0,0:0:0:0:
116,300,175836,2,0,L|124:164,1,108,0|0,0:0|1:0,0:0:0:0:
144,100,176369,2,0,L|96:100,2,36
167,71,176688,6,0,P|217:92|269:81,1,108,4|0,1:0|1:0,0:0:0:0:
360,56,177220,2,0,L|352:16,2,36,0|8|0,0:0|0:0|0:0,0:0:0:0:
392,76,177539,2,0,L|384:192,1,108,4|8,1:0|0:0,0:0:0:0:
312,244,178071,2,0,L|320:300,2,36,0|8|0,0:0|0:0|0:0,0:0:0:0:
284,220,178390,6,0,P|244:240|160:216,1,108,4|8,1:0|0:0,0:0:0:0:
100,184,178922,2,0,L|108:88,1,72,0|8,1:0|0:0,0:0:0:0:
92,80,179241,2,0,L|224:96,1,108,4|8,1:0|0:0,0:0:0:0:
280,140,179773,2,0,L|368:128,1,72,0|8,1:0|0:0,0:0:0:0:
376,104,180092,6,0,P|360:160|396:232,1,108,4|8,1:0|0:0,0:0:0:0:
448,264,180624,2,0,L|440:340,1,72,0|8,1:0|0:0,0:0:0:0:
456,368,180943,2,0,P|404:356|340:352,1,108,4|8,1:0|0:0,0:0:0:0:
256,376,181475,2,0,L|168:360,1,72,0|8,1:0|0:0,0:0:0:0:
160,336,181794,6,0,L|32:356,1,108,0|8,1:0|0:0,0:0:0:0:
0,276,182326,2,0,P|11:241|9:206,1,72,0|8,1:0|0:0,0:0:0:0:
0,172,182645,2,0,P|48:184|116:148,1,108,0|8,1:0|0:0,0:0:0:0:
176,104,183177,2,0,P|216:112|264:92,1,72,0|8,1:0|0:0,0:0:0:0:
272,80,183497,6,0,L|264:228,1,135,0|4,1:0|1:0,0:0:0:0:
280,324,184029,2,0,L|228:332,2,45,8|4|4,0:0|3:0|3:0,0:0:0:0:
312,304,184347,2,0,P|373:329|437:312,1,135,0|4,0:0|1:0,0:0:0:0:
468,208,184880,2,0,L|520:200,2,45,8|8|8,0:0|3:0|3:0,0:0:0:0:
440,184,185198,6,0,L|300:172,1,135,0|4,0:0|1:0,0:0:0:0:
200,204,185731,2,0,L|196:156,2,45
224,232,186049,2,0,P|159:216|100:246,1,135,0|4,0:0|3:0,0:0:0:0:
0,216,186582,2,0,L|-8:264,2,45,0|8|8,0:0|0:0|0:0,0:0:0:0:
24,188,186900,6,0,L|12:44,1,135,0|4,0:0|1:0,0:0:0:0:
120,44,187433,2,0,L|124:-4,2,45,0|4|4,0:0|3:0|3:0,0:0:0:0:
140,76,187751,2,0,P|208:68|288:64,1,135,0|4,0:0|3:0,0:0:0:0:
364,124,188284,2,0,L|384:76,2,45,0|8|8,0:0|0:0|0:0,0:0:0:0:
340,152,188602,6,0,P|348:220|352:300,1,135,0|12,0:0|0:0,0:0:0:0:
280,368,189135,2,0,P|232:356|184:340,1,90
168,316,189453,2,0,P|105:326|0:350,1,135,0|12,0:0|0:0,0:0:0:0:
0,240,189985,5,0,0:0:0:0:
5,210,190093,1,0,0:0:0:0:
11,181,190199,1,0,0:0:0:0:
16,151,190305,1,0,0:0:0:0:
