osu file format v14

[General]
AudioFilename: audio.mp3
AudioLeadIn: 0
PreviewTime: 127966
Countdown: 0
SampleSet: Soft
StackLeniency: 0.3
Mode: 0
LetterboxInBreaks: 0
WidescreenStoryboard: 1

[Editor]
Bookmarks: 22539,48071,68497,95731,148497,190305
DistanceSpacing: 1.2
BeatDivisor: 4
GridSize: 32
TimelineZoom: 2.1

[Metadata]
Title:Hello!My World!!
TitleUnicode:Hello!My World!!
Artist:fhana
ArtistUnicode:fhána
Creator:Sotarks
Version:toyruto's Insane
Source:ナイツ&マジック
Tags:Knight's & Magic ending ed full ver version lantis Junichi Sato yuxuki waga kevin mitsunaga towana doormat akitoshi corinn kalibe irohas mugiwarasekai toybot haruto haruto_aizawa
BeatmapID:1414767
BeatmapSetID:657341

[Difficulty]
HPDrainRate:6
CircleSize:4.1
OverallDifficulty:8.2
ApproachRate:9.2
SliderMultiplier:1.6
SliderTickRate:1

[Events]
//Background and Video events
0,0,"BG.jpg",0,0
//Break Periods
2,112952,118991
//Storyboard Layer 0 (Background)
//Storyboard Layer 1 (Fail)
//Storyboard Layer 2 (Pass)
//Storyboard Layer 3 (Foreground)
//Storyboard Sound Samples
Sample,39773,0,"soft-hitclap2.wav",60
Sample,119773,0,"soft-hitclap2.wav",62
Sample,133603,0,"soft-hitclap22.wav",60
Sample,147965,0,"normal-hitnormal22.wav",60

[TimingPoints]
625,425.531914893617,4,2,22,52,1,0
2114,-125,4,2,22,52,0,0
8284,-100,4,2,22,52,0,0
8922,-90.9090909090909,4,2,22,52,0,0
8923,-90.9090909090909,4,2,22,62,0,0
12539,-80,4,2,22,62,0,0
15837,-66.6666666666667,4,2,22,62,0,0
15838,-66.6666666666667,4,2,22,72,0,0
20944,-66.6666666666667,4,2,22,52,0,0
22114,-90.9090909090909,4,2,22,52,0,0
38923,-100,4,2,22,62,0,0
39135,-95.2380952380952,4,2,22,62,0,0
39242,-95.2380952380952,4,2,22,72,0,0
39348,-90.9090909090909,4,2,22,72,0,0
39561,-100,4,2,22,52,0,0
39774,-100,4,2,2,52,0,0
40199,-90.9090909090909,4,2,2,52,0,0
40518,-90.9090909090909,4,2,2,20,0,0
40625,-90.9090909090909,4,2,2,52,0,0
40731,-90.9090909090909,4,2,2,20,0,0
40837,-90.9090909090909,4,2,2,52,0,0
40944,-90.9090909090909,4,2,2,20,0,0
41050,-90.9090909090909,4,2,2,52,0,0
41156,-90.9090909090909,4,2,2,20,0,0
41263,-90.9090909090909,4,2,2,52,0,0
42220,-90.9090909090909,4,2,2,20,0,0
42327,-90.9090909090909,4,2,2,52,0,0
42433,-90.9090909090909,4,2,2,20,0,0
42539,-90.9090909090909,4,2,2,52,0,0
42646,-90.9090909090909,4,2,2,20,0,0
42752,-90.9090909090909,4,2,2,52,0,0
42859,-90.9090909090909,4,2,2,20,0,0
42965,-90.9090909090909,4,2,2,52,0,0
43071,-90.9090909090909,4,2,2,20,0,0
43178,-90.9090909090909,4,2,2,52,0,0
43710,-90.9090909090909,4,2,2,20,0,0
43816,-90.9090909090909,4,2,2,52,0,0
43922,-90.9090909090909,4,2,2,20,0,0
44029,-90.9090909090909,4,2,2,52,0,0
44667,-66.6666666666667,4,2,2,52,0,0
44986,-66.6666666666667,4,2,2,20,0,0
45093,-66.6666666666667,4,2,2,52,0,0
46583,-100,4,2,22,52,0,0
47433,-500,4,2,22,52,0,0
47859,-62.5,4,2,22,52,0,0
48071,-66.6666666666667,4,2,22,82,0,1
61795,-62.5,4,2,22,82,0,1
68497,-80,4,2,22,82,0,0
68923,-80,4,2,22,72,0,0
70571,-80,4,2,22,72,0,0
70625,-74.0740740740741,4,2,22,72,0,0
71901,-80,4,2,22,72,0,0
76954,-80,4,2,22,72,0,0
77007,-80,4,2,22,72,0,0
88284,-68.9655172413793,4,2,22,72,0,0
88603,-57.1428571428571,4,2,22,72,0,0
88922,-51.2820512820513,4,2,22,72,0,0
89242,-80,4,2,22,72,0,0
90571,-80,4,2,22,72,0,0
90625,-80,4,2,22,72,0,0
95731,-66.6666666666667,4,2,22,72,0,0
95732,-66.6666666666667,4,2,22,82,0,0
102646,-57.1428571428571,4,2,22,82,0,0
111156,-50,4,2,22,82,0,0
112753,-80,4,2,22,92,0,0
119561,-90.9090909090909,4,2,2,52,0,0
120518,-90.9090909090909,4,2,2,20,0,0
120624,-90.9090909090909,4,2,2,52,0,0
120731,-90.9090909090909,4,2,2,20,0,0
120837,-90.9090909090909,4,2,2,52,0,0
120944,-90.9090909090909,4,2,2,20,0,0
121050,-90.9090909090909,4,2,2,52,0,0
121156,-90.9090909090909,4,2,2,20,0,0
121263,-90.9090909090909,4,2,2,52,0,0
122220,-90.9090909090909,4,2,2,20,0,0
122327,-90.9090909090909,4,2,2,52,0,0
122433,-90.9090909090909,4,2,2,20,0,0
122539,-90.9090909090909,4,2,2,52,0,0
122646,-90.9090909090909,4,2,2,20,0,0
122752,-90.9090909090909,4,2,2,52,0,0
122859,-90.9090909090909,4,2,2,20,0,0
122965,-90.9090909090909,4,2,2,52,0,0
123710,-90.9090909090909,4,2,2,20,0,0
123816,-90.9090909090909,4,2,2,52,0,0
123922,-90.9090909090909,4,2,2,20,0,0
124029,-90.9090909090909,4,2,2,52,0,0
124667,-80,4,2,2,52,0,0
127434,-80,4,2,22,52,0,0
127646,-66.6666666666667,4,2,22,52,0,0
128071,-333.333333333333,4,2,22,52,0,0
128072,-333.333333333333,4,2,22,32,0,0
128497,-36.101083032491,4,2,22,92,0,1
129029,-30.03003003003,4,2,22,92,0,1
129773,-96.1538461538461,4,2,22,52,0,1
130199,-80.6451612903226,4,2,22,52,0,1
130200,-80.6451612903226,4,2,22,82,0,1
140199,-60.9756097560976,4,2,22,82,0,1
141795,-60.9756097560976,4,2,22,82,0,1
148071,-60.9756097560976,4,2,22,82,0,0
148497,-80,4,2,22,82,0,1
168922,-200,4,2,22,82,0,0
170837,-66.6666666666667,4,2,22,82,0,0
171688,425.531914893617,4,2,22,82,1,0
171688,-66.6666666666667,4,2,22,82,0,0
183497,-57.1428571428571,4,2,22,92,0,0
189454,-50,4,2,22,92,0,0

[Colours]
Combo1 : 196,193,232
Combo2 : 244,231,181
Combo3 : 187,228,244
Combo4 : 255,187,255

[HitObjects]
60,106,2114,5,6,0:0:0:0:
68,114,2539,1,0,0:0:0:0:
149,137,2752,1,2,0:0:0:0:
231,119,2965,1,2,0:0:0:0:
297,66,3178,2,0,P|352:92|446:98,1,128,2|2,0:0|0:0,0:0:0:0:
501,233,3816,5,2,0:0:0:0:
505,224,4242,1,2,0:0:0:0:
411,212,4454,1,2,0:0:0:0:
325,252,4667,1,2,0:0:0:0:
280,334,4880,2,0,P|343:337|399:367,1,128,2|2,0:0|0:0,0:0:0:0:
90,348,5731,6,0,P|72:305|69:257,2,96,2|2|2,0:0|0:0|0:0,0:0:0:0:
200,202,6688,2,0,P|169:238|156:284,1,96,0|2,0:0|0:0,0:0:0:0:
241,281,7220,1,2,0:0:0:0:
117,161,7433,6,0,P|100:127|100:58,2,96,2|2|2,0:0|0:0|0:0,0:0:0:0:
181,98,8284,1,10,0:0:0:0:
31,189,8497,1,8,0:0:0:0:
31,189,8603,1,8,0:0:0:0:
31,189,8710,2,0,P|37:208|41:227,1,40,8|8,0:0|0:0,0:0:0:0:
123,328,8922,6,0,P|131:285|153:247,1,88.000002685547,2|8,1:0|0:0,0:0:0:0:
195,373,9242,1,0,0:0:0:0:
213,364,9348,2,0,P|234:359|256:358,1,44.0000013427735,10|0,0:0|0:0,0:0:0:0:
378,300,9561,2,0,L|396:361,1,44.0000013427735,2|0,1:0|1:0,0:0:0:0:
293,280,9773,2,0,L|302:218,1,44.0000013427735,10|0,0:0|0:0,0:0:0:0:
243,90,9986,5,2,1:0:0:0:
262,128,10092,1,0,0:0:0:0:
298,153,10198,1,0,0:0:0:0:
342,157,10305,1,0,1:0:0:0:
382,139,10412,2,0,L|372:63,1,44.0000013427735,10|8,0:0|0:0,0:0:0:0:
467,254,10625,6,0,P|470:211|486:151,1,88.000002685547,2|8,1:0|0:0,0:0:0:0:
495,62,10944,1,0,0:0:0:0:
505,72,11050,2,0,L|453:82,1,44.0000013427735,10|0,0:0|0:0,0:0:0:0:
287,19,11263,2,0,L|294:74,1,44.0000013427735,2|0,1:0|1:0,0:0:0:0:
378,110,11476,2,0,P|370:134|365:167,1,44.0000013427735,10|0,0:0|0:0,0:0:0:0:
262,235,11688,5,2,1:0:0:0:
304,227,11794,1,0,0:0:0:0:
345,243,11900,1,0,0:0:0:0:
372,276,12007,1,0,0:0:0:0:
378,319,12114,2,0,L|303:336,1,44.0000013427735,10|8,0:0|0:0,0:0:0:0:
241,230,12327,2,0,L|167:212,1,44.0000013427735,8|8,0:0|0:0,0:0:0:0:
58,354,12539,6,0,P|50:330|48:305,1,50,2|0,1:0|0:0,0:0:0:0:
135,286,12752,2,0,P|142:309|144:334,1,50,0|0,1:0|0:0,0:0:0:0:
31,299,12965,6,0,P|35:274|42:250,1,50,0|0,1:0|0:0,0:0:0:0:
240,294,13178,2,0,P|236:318|229:342,1,50,2|0,1:0|0:0,0:0:0:0:
33,233,13390,5,0,1:0:0:0:
30,208,13496,1,2,0:0:0:0:
27,183,13602,1,0,0:0:0:0:
24,158,13709,1,0,0:0:0:0:
78,102,13816,5,10,0:0:0:0:
140,142,13922,1,0,0:0:0:0:
213,135,14028,1,10,0:0:0:0:
266,84,14135,1,8,0:0:0:0:
276,11,14241,5,6,1:0:0:0:
129,233,14561,5,2,1:0:0:0:
441,197,14880,5,2,1:0:0:0:
331,178,15093,6,0,P|281:176|235:194,1,100,2|8,1:0|0:0,0:0:0:0:
159,288,15412,1,8,0:0:0:0:
168,301,15518,2,0,P|179:271|175:213,1,50,6|4,3:0|3:0,0:0:0:0:
114,93,15731,1,4,3:0:0:0:
72,163,15837,6,0,P|144:160|201:117,1,120.000004577637,6|0,1:0|0:0,0:0:0:0:
233,14,16156,2,0,L|230:74,1,60.0000022888184,0|0,1:0|0:0,0:0:0:0:
292,204,16369,2,0,P|318:195|355:190,2,60.0000022888184,8|8|8,0:0|0:0|0:0,0:0:0:0:
229,249,16688,6,0,P|313:252|362:312,1,120.000004577637,4|0,1:0|0:0,0:0:0:0:
432,294,17007,2,0,L|428:234,1,60.0000022888184,0|0,1:0|0:0,0:0:0:0:
370,85,17220,2,0,P|396:93|433:99,2,60.0000022888184,8|8|8,0:0|0:0|0:0,0:0:0:0:
408,16,17539,6,0,P|357:46|298:49,1,120.000004577637,4|0,1:0|0:0,0:0:0:0:
160,18,17859,2,0,L|168:95,1,60.0000022888184,0|0,1:0|0:0,0:0:0:0:
51,200,18071,2,0,L|60:131,2,60.0000022888184,8|8|8,0:0|0:0|0:0,0:0:0:0:
117,249,18390,6,0,B|53:236|59:280|-41:259,1,120.000004577637,4|8,1:0|0:0,0:0:0:0:
93,329,18710,1,0,1:0:0:0:
151,324,18816,1,8,0:0:0:0:
192,282,18922,1,8,0:0:0:0:
196,224,19029,1,8,0:0:0:0:
160,177,19135,1,8,0:0:0:0:
214,113,19242,6,0,P|225:74|186:2,1,120.000004577637,4|0,1:0|0:0,0:0:0:0:
10,70,19561,2,0,P|38:50|92:42,1,60.0000022888184,0|0,1:0|0:0,0:0:0:0:
112,189,19773,2,0,P|90:169|78:121,2,60.0000022888184,8|8|8,0:0|0:0|0:0,0:0:0:0:
190,206,20093,6,0,P|127:232|110:324,1,120.000004577637,4|0,1:0|0:0,0:0:0:0:
295,292,20412,2,0,P|323:281|342:258,1,60.0000022888184,0|0,1:0|0:0,0:0:0:0:
246,139,20624,2,0,L|241:52,2,60.0000022888184,8|8|8,0:0|0:0|0:0,0:0:0:0:
275,217,20944,5,4,1:0:0:0:
256,192,21050,12,0,21901,0:0:0:0:
400,267,22114,6,0,L|442:276,3,29.3333342285157,8|0|0|0,0:0|0:0|0:0|0:0,0:0:0:0:
197,220,22539,1,4,1:0:0:0:
197,220,22965,1,2,1:0:0:0:
335,117,23178,6,0,P|331:165|309:212,1,88.000002685547,10|2,0:0|3:0,0:0:0:0:
216,304,23603,2,0,P|199:263|196:219,1,88.000002685547,2|2,1:0|3:0,0:0:0:0:
227,26,24029,1,8,0:0:0:0:
315,201,24242,1,2,1:0:0:0:
315,201,24348,1,0,0:0:0:0:
315,201,24454,1,0,0:0:0:0:
227,26,24667,1,2,1:0:0:0:
55,126,24880,2,0,L|159:108,1,88.000002685547,10|2,0:0|3:0,0:0:0:0:
315,201,25305,6,0,P|273:178|252:128,1,88.000002685547,2|2,1:0|3:0,0:0:0:0:
254,143,25624,1,0,3:0:0:0:
254,143,25731,1,10,0:0:0:0:
365,8,25944,1,2,3:0:0:0:
401,182,26156,5,0,1:0:0:0:
346,103,26369,1,2,3:0:0:0:
460,6,26582,2,0,L|442:93,1,88.000002685547,10|2,0:0|3:0,0:0:0:0:
377,274,27007,1,2,1:0:0:0:
346,103,27220,1,2,3:0:0:0:
472,224,27433,1,10,0:0:0:0:
299,200,27646,6,0,B|199:183|234:258|131:240,1,176.000005371094,2|2,1:0|1:0,0:0:0:0:
90,95,28284,2,0,P|67:132|67:175,1,88.000002685547,10|0,0:0|3:0,0:0:0:0:
68,176,28603,1,0,0:0:0:0:
68,176,28710,1,2,1:0:0:0:
172,51,28922,1,10,0:0:0:0:
20,33,29135,1,10,0:0:0:0:
135,240,29348,6,0,P|157:202|157:159,1,88.000002685547,4|0,1:0|0:0,0:0:0:0:
10,245,29773,1,2,1:0:0:0:
10,245,29880,1,0,0:0:0:0:
10,245,29986,2,0,L|32:341,1,88.000002685547,10|2,0:0|3:0,0:0:0:0:
157,159,30412,1,2,1:0:0:0:
10,245,30624,1,2,3:0:0:0:
10,245,30731,1,0,0:0:0:0:
10,245,30837,1,8,0:0:0:0:
158,330,31050,6,0,B|214:321|214:321|273:342|273:342|336:332,1,176.000005371094,2|2,1:0|1:0,0:0:0:0:
278,169,31688,2,0,P|270:222|297:272,1,88.000002685547,10|2,0:0|3:0,0:0:0:0:
374,247,32114,2,0,P|381:193|354:143,1,88.000002685547,2|2,1:0|3:0,0:0:0:0:
369,162,32433,1,0,3:0:0:0:
369,162,32539,1,10,0:0:0:0:
123,204,32752,6,0,P|208:218|277:168,1,176.000005371094,2|2,1:0|1:0,0:0:0:0:
116,109,33390,1,10,0:0:0:0:
123,204,33603,1,2,3:0:0:0:
242,82,33816,1,2,1:0:0:0:
277,168,34029,1,2,3:0:0:0:
162,12,34242,1,10,0:0:0:0:
486,83,34454,6,0,P|406:51|332:93,1,176.000005371094,6|2,1:0|1:0,0:0:0:0:
332,92,34986,1,0,0:0:0:0:
332,92,35093,1,10,0:0:0:0:
419,228,35305,2,0,P|426:177|404:127,1,88.000002685547,0|2,3:0|1:0,0:0:0:0:
242,82,35731,1,0,3:0:0:0:
242,82,35837,1,0,3:0:0:0:
242,82,35944,1,8,0:0:0:0:
301,342,36156,6,0,L|276:165,1,176.000005371094,6|2,1:0|1:0,0:0:0:0:
154,44,36795,2,0,P|147:95|169:145,1,88.000002685547,10|0,0:0|3:0,0:0:0:0:
158,128,37114,1,0,0:0:0:0:
158,128,37220,1,2,1:0:0:0:
307,7,37433,1,0,3:0:0:0:
154,44,37646,1,8,0:0:0:0:
207,311,37859,6,0,L|192:204,1,88.000002685547,6|8,1:0|0:0,0:0:0:0:
23,183,38284,2,0,P|69:205|123:199,1,88.000002685547,10|10,0:0|0:0,0:0:0:0:
276,167,38710,1,10,0:0:0:0:
276,167,38816,1,8,0:0:0:0:
276,167,38922,2,0,L|282:123,1,44.0000013427735,10|8,0:0|0:0,0:0:0:0:
154,44,39135,2,0,L|188:71,1,41.9999987182618,10|8,0:0|0:0,0:0:0:0:
321,0,39348,2,0,L|280:16,1,44.0000013427735,10|8,0:0|0:0,0:0:0:0:
75,128,39561,6,0,P|151:141|186:210,1,160,10|0,0:0|0:0,0:0:0:0:
80,335,40199,1,8,0:0:0:0:
104,205,40412,6,0,L|91:283,1,44.0000013427735,2|0,0:0|0:0,0:0:0:0:
171,306,40625,2,0,L|178:349,1,44.0000013427735,10|0,0:0|0:0,0:0:0:0:
193,166,40837,6,0,L|180:244,1,44.0000013427735,2|0,0:0|0:0,0:0:0:0:
256,274,41050,2,0,L|263:317,1,44.0000013427735,10|0,0:0|0:0,0:0:0:0:
281,126,41263,1,2,0:0:0:0:
341,238,41476,1,8,0:0:0:0:
341,238,41901,1,8,0:0:0:0:
281,126,42114,6,0,L|268:204,1,44.0000013427735,2|0,0:0|0:0,0:0:0:0:
385,231,42327,2,0,P|356:238|325:236,1,44.0000013427735,10|0,0:0|0:0,0:0:0:0:
376,100,42539,6,0,L|363:178,1,44.0000013427735,2|0,0:0|0:0,0:0:0:0:
512,191,42752,2,0,P|493:202|472:209,1,44.0000013427735,10|0,0:0|0:0,0:0:0:0:
471,74,42965,6,0,L|458:152,1,44.0000013427735,2|0,0:0|0:0,0:0:0:0:
431,312,43178,1,8,0:0:0:0:
431,312,43603,6,0,L|490:298,1,44.0000013427735,10|0,0:0|0:0,0:0:0:0:
348,340,43816,2,0,L|305:329,1,44.0000013427735,2|0,0:0|0:0,0:0:0:0:
92,234,44029,6,0,P|148:208|250:280,1,176.000005371094,10|10,0:0|0:0,0:0:0:0:
158,300,44667,2,0,L|125:78,1,180.000006866455,2|0,0:0|0:0,0:0:0:0:
131,121,45093,1,10,0:0:0:0:
302,9,45305,1,10,0:0:0:0:
230,201,45518,1,10,0:0:0:0:
176,3,45731,5,10,0:0:0:0:
335,131,45944,1,10,0:0:0:0:
55,27,46156,5,10,0:0:0:0:
424,42,46369,1,4,0:1:0:0:
382,112,46582,5,8,0:0:0:0:
431,51,46688,1,8,0:0:0:0:
460,121,46795,1,10,0:0:0:0:
446,195,46901,1,8,0:0:0:0:
398,253,47007,1,10,0:0:0:0:
325,277,47114,1,8,0:0:0:0:
252,253,47220,1,10,0:0:0:0:
201,195,47327,1,8,0:0:0:0:
183,117,47433,6,0,L|188:89,1,28,0|0,3:0|0:0,0:0:0:0:
138,186,47859,6,0,P|169:196|201:195,1,64,8|0,1:0|0:0,0:0:0:0:
448,148,48072,6,0,B|360:126|368:205|269:173,1,180.000006866455,6|0,1:0|1:0,0:0:0:0:
124,112,48497,2,0,P|157:109|207:90,1,60.0000022888184,10|0,0:0|0:0,0:0:0:0:
178,306,48710,1,2,1:0:0:0:
178,306,48816,1,0,1:0:0:0:
178,306,48922,2,0,P|179:269|168:226,1,60.0000022888184,10|0,0:0|1:0,0:0:0:0:
50,173,49135,6,0,P|79:194|115:210,1,60.0000022888184
289,97,49348,1,8,0:0:0:0:
213,117,49454,1,0,0:0:0:0:
137,137,49561,2,0,L|146:66,1,60.0000022888184,2|0,1:0|0:0,0:0:0:0:
18,33,49773,6,0,L|41:173,1,120.000004577637,2|0,1:0|0:0,0:0:0:0:
72,297,50093,1,0,1:0:0:0:
75,312,50199,2,0,P|86:279|79:235,1,60.0000022888184,10|0,0:0|0:0,0:0:0:0:
233,194,50412,2,0,P|192:177|148:180,1,60.0000022888184,2|0,1:0|0:0,0:0:0:0:
180,360,50624,2,0,P|213:339|260:335,1,60.0000022888184,10|0,0:0|1:0,0:0:0:0:
401,240,50837,5,0,0:0:0:0:
328,266,50944,1,0,1:0:0:0:
261,222,51050,2,0,L|250:136,1,60.0000022888184,8|2,0:0|0:0,0:0:0:0:
376,33,51263,2,0,B|407:16|407:16|382:139,1,120.000004577637,0|8,1:0|0:0,0:0:0:0:
332,151,51582,1,0,0:0:0:0:
239,85,51688,6,0,B|181:75|191:106|116:92,1,120.000004577637,2|8,1:0|0:0,0:0:0:0:
26,171,52007,2,0,P|10:102|42:45,1,120.000004577637,2|0,0:0|1:0,0:0:0:0:
115,187,52327,2,0,P|116:224|124:266,1,60.0000022888184,10|0,0:0|1:0,0:0:0:0:
263,92,52539,5,0,0:0:0:0:
263,92,52646,1,0,1:0:0:0:
263,92,52752,2,0,P|226:108|174:114,1,60.0000022888184,10|0,0:0|0:0,0:0:0:0:
207,217,52965,2,0,P|237:226|279:233,1,60.0000022888184,0|0,1:0|0:0,0:0:0:0:
367,288,53178,2,0,L|355:200,1,60.0000022888184,10|0,0:0|0:0,0:0:0:0:
452,79,53390,6,0,P|394:122|326:116,1,120.000004577637,2|8,1:0|0:0,0:0:0:0:
181,19,53710,2,0,P|239:62|307:56,1,120.000004577637,2|0,0:0|1:0,0:0:0:0:
373,38,54029,2,0,L|383:111,1,60.0000022888184,8|0,0:0|1:0,0:0:0:0:
502,199,54242,6,0,L|512:116,1,60.0000022888184,2|0,0:0|1:0,0:0:0:0:
307,359,54454,1,8,0:0:0:0:
360,370,54561,1,0,1:0:0:0:
408,345,54667,1,8,0:0:0:0:
425,293,54773,1,8,0:0:0:0:
349,296,54880,6,0,L|331:177,1,120.000004577637,6|0,1:0|0:0,0:0:0:0:
276,43,55199,1,0,1:0:0:0:
288,55,55305,2,0,P|274:82|217:105,1,60.0000022888184,10|0,0:0|0:0,0:0:0:0:
404,104,55518,2,0,P|438:126|459:173,1,60.0000022888184,2|0,1:0|1:0,0:0:0:0:
224,206,55731,2,0,P|214:242|237:305,1,60.0000022888184,10|0,0:0|1:0,0:0:0:0:
410,362,55944,5,2,0:0:0:0:
393,283,56050,1,0,1:0:0:0:
376,204,56156,2,0,L|299:189,1,60.0000022888184,8|0,0:0|0:0,0:0:0:0:
235,344,56369,2,0,P|263:333|287:308,1,60.0000022888184,2|0,1:0|0:0,0:0:0:0:
152,92,56582,6,0,B|156:141|156:141|167:160|167:160|172:216,1,120.000004577637,6|0,1:0|0:0,0:0:0:0:
297,113,56901,1,0,1:0:0:0:
293,97,57007,2,0,L|214:116,1,60.0000022888184,10|0,0:0|0:0,0:0:0:0:
88,191,57220,2,0,P|58:183|18:155,1,60.0000022888184,2|0,1:0|0:0,0:0:0:0:
104,59,57433,2,0,L|129:118,1,60.0000022888184,10|0,0:0|1:0,0:0:0:0:
92,289,57646,6,0,P|123:274|181:272,1,60.0000022888184,0|0,0:0|1:0,0:0:0:0:
315,221,57859,1,8,0:0:0:0:
348,295,57965,1,0,0:0:0:0:
288,348,58071,2,0,P|248:329|225:290,1,60.0000022888184,2|0,1:0|0:0,0:0:0:0:
218,161,58284,2,0,L|230:240,1,60.0000022888184,8|0,0:0|0:0,0:0:0:0:
435,293,58497,6,0,L|454:159,1,120.000004577637,6|8,1:0|0:0,0:0:0:0:
339,46,58816,2,0,P|335:104|365:155,1,120.000004577637,2|0,0:0|1:0,0:0:0:0:
481,75,59135,2,0,P|452:82|423:85,1,60.0000022888184,10|0,0:0|1:0,0:0:0:0:
287,227,59348,6,0,P|316:229|345:236,1,60.0000022888184,0|2,0:0|1:0,0:0:0:0:
242,82,59561,2,0,L|251:156,1,60.0000022888184,8|0,0:0|0:0,0:0:0:0:
95,249,59773,1,2,1:0:0:0:
146,230,59879,1,0,0:0:0:0:
198,246,59985,1,8,0:0:0:0:
229,292,60092,1,0,0:0:0:0:
148,309,60199,6,0,L|129:164,1,120.000004577637,2|0,1:0|0:0,0:0:0:0:
77,41,60518,2,0,P|107:91|162:110,1,120.000004577637,2|0,1:0|0:0,0:0:0:0:
302,115,60837,2,0,P|256:133|216:140,1,60.0000022888184,2|0,1:0|0:0,0:0:0:0:
52,157,61050,5,2,1:0:0:0:
161,27,61263,1,8,0:0:0:0:
161,27,61369,1,8,0:0:0:0:
161,27,61476,2,0,L|255:10,2,60.0000022888184,10|4|4,3:0|3:0|3:0,0:0:0:0:
76,50,61795,6,0,P|117:98|178:108,1,128,6|0,1:0|0:0,0:0:0:0:
323,41,62114,2,0,L|310:115,1,64,2|0,1:0|0:0,0:0:0:0:
260,248,62327,2,0,L|246:174,2,64,10|10|8,0:0|0:0|0:0,0:0:0:0:
318,306,62646,6,0,B|275:286|275:286|180:317,1,128,6|0,1:0|0:0,0:0:0:0:
111,354,62965,2,0,L|100:292,1,64,2|0,1:0|0:0,0:0:0:0:
157,164,63178,2,0,L|80:157,2,64,10|10|8,0:0|0:0|0:0,0:0:0:0:
205,98,63497,6,0,B|237:138|237:138|227:214,1,128,6|0,1:0|0:0,0:0:0:0:
32,299,63816,2,0,L|44:221,1,64,2|0,1:0|0:0,0:0:0:0:
157,164,64029,1,10,0:0:0:0:
157,164,64135,2,0,L|145:242,1,64,10|8,0:0|0:0,0:0:0:0:
5,68,64348,6,0,P|69:61|124:10,1,128,6|8,1:0|0:0,0:0:0:0:
116,21,64667,2,0,L|195:5,1,64,0|0,1:0|1:0,0:0:0:0:
131,238,64880,2,0,P|104:222|84:197,1,64,8|8,0:0|0:0,0:0:0:0:
262,49,65093,1,10,0:0:0:0:
246,125,65199,1,10,0:0:0:0:
231,201,65305,6,0,L|348:185,1,64,6|0,1:0|0:0,0:0:0:0:
409,66,65518,1,10,0:0:0:0:
462,136,65625,2,0,P|395:143|315:93,1,128,2|2,0:0|1:0,0:0:0:0:
192,46,65944,1,8,0:0:0:0:
258,0,66050,6,0,P|269:29|271:61,1,64,2|0,1:0|0:0,0:0:0:0:
155,222,66263,1,0,1:0:0:0:
149,207,66369,2,0,L|218:222,1,64,10|0,0:0|0:0,0:0:0:0:
326,285,66582,2,0,L|307:194,1,64,0|0,1:0|0:0,0:0:0:0:
442,61,66795,1,10,0:0:0:0:
434,137,66901,1,2,0:0:0:0:
426,213,67007,6,0,P|375:183|362:108,1,128,6|10,1:0|0:0,0:0:0:0:
225,33,67327,2,0,P|241:72|238:129,1,64,2|0,1:0|0:0,0:0:0:0:
310,27,67539,2,0,P|337:11|368:5,1,64,10|8,0:0|0:0,0:0:0:0:
162,89,67752,6,0,L|19:65,1,128,4|0,1:0|1:0,0:0:0:0:
179,197,68071,2,0,L|98:183,1,64,10|8,0:0|0:0,0:0:0:0:
196,305,68284,2,0,L|115:291,1,64,10|8,0:0|0:0,0:0:0:0:
290,170,68497,5,4,1:0:0:0:
290,170,68922,1,2,0:0:0:0:
294,184,69029,1,0,0:0:0:0:
298,198,69135,2,0,L|317:276,1,50,6|0,3:0|3:0,0:0:0:0:
459,215,69348,1,2,0:0:0:0:
445,209,69454,1,0,0:0:0:0:
434,206,69560,6,0,P|395:198|361:211,1,50,6|0,3:0|0:0,0:0:0:0:
308,336,69773,1,0,0:0:0:0:
315,346,69880,1,12,3:0:0:0:
323,356,69986,2,0,P|354:379|391:382,1,50,0|0,0:0|0:0,0:0:0:0:
309,246,70199,5,6,1:0:0:0:
227,290,70305,2,0,L|94:272,1,125,0|0,0:0|0:0,0:0:0:0:
83,271,70625,2,0,P|60:247|51:212,1,54.0000002059937,10|0,3:0|0:0,0:0:0:0:
151,69,70837,1,10,3:0:0:0:
149,86,70944,2,0,L|135:194,1,108.000000411987,2|2,0:0|0:0,0:0:0:0:
61,135,71263,2,0,L|73:37,1,54.0000002059937,6|0,3:0|0:0,0:0:0:0:
221,16,71476,1,10,0:0:0:0:
221,16,71582,1,4,3:0:0:0:
221,16,71688,2,0,P|240:76|232:106,1,54.0000002059937,2|2,1:0|1:0,0:0:0:0:
135,193,71901,6,0,B|247:159|205:263|335:227,1,200,6|0,1:0|1:0,0:0:0:0:
413,75,72433,1,0,1:0:0:0:
413,75,72539,2,0,P|340:83|294:140,1,150,14|0,0:0|3:0,0:0:0:0:
413,252,72965,2,0,P|409:197|372:149,1,100,14|0,3:0|0:0,0:0:0:0:
229,210,73284,2,0,P|233:265|270:313,1,100,6|0,3:0|3:0,0:0:0:0:
294,140,73603,6,0,L|123:104,1,150,6|0,1:0|0:0,0:0:0:0:
58,203,74029,2,0,L|106:192,1,50,14|0,3:0|0:0,0:0:0:0:
294,140,74242,1,10,0:0:0:0:
294,140,74348,2,0,P|302:72|288:33,1,100,2|0,1:0|0:0,0:0:0:0:
42,64,74667,2,0,L|57:133,1,50,14|0,3:0|0:0,0:0:0:0:
159,269,74880,1,0,0:0:0:0:
106,191,74986,2,0,P|73:236|79:319,1,100,14|0,0:0|0:0,0:0:0:0:
305,299,75305,6,0,L|134:263,1,150,6|0,1:0|0:0,0:0:0:0:
128,362,75731,1,2,1:0:0:0:
128,362,75837,1,0,1:0:0:0:
128,362,75944,2,0,P|183:363|248:310,1,100,14|0,0:0|0:0,0:0:0:0:
199,179,76263,1,0,3:0:0:0:
199,179,76369,1,6,3:0:0:0:
158,267,76476,2,0,P|117:239|95:195,1,100,2|2,0:0|1:0,0:0:0:0:
214,104,76795,2,0,L|196:186,1,75,12|0,0:0|0:0,0:0:0:0:
198,178,77007,6,0,L|167:31,1,150,6|0,1:0|0:0,0:0:0:0:
290,55,77433,2,0,P|304:103|302:122,1,50,6|0,3:0|0:0,0:0:0:0:
205,269,77646,2,0,P|229:263|251:251,1,50,14|0,0:0|0:0,0:0:0:0:
394,114,77859,6,0,P|377:161|365:175,1,50,2|0,1:0|1:0,0:0:0:0:
309,317,78071,2,0,P|325:298|336:275,1,50,14|0,0:0|0:0,0:0:0:0:
198,178,78284,5,2,3:0:0:0:
121,225,78390,2,0,L|99:327,1,100,14|2,0:0|3:0,0:0:0:0:
6,59,78710,6,0,P|42:115|133:126,1,150,6|0,1:0|0:0,0:0:0:0:
264,94,79135,2,0,L|191:109,1,50,2|0,1:0|1:0,0:0:0:0:
97,35,79348,2,0,L|195:15,1,100,14|0,0:0|0:0,0:0:0:0:
349,157,79667,1,0,3:0:0:0:
349,157,79773,2,0,P|305:163|258:214,1,100,6|0,3:0|0:0,0:0:0:0:
337,341,80093,2,0,P|353:299|333:233,1,100,14|0,3:0|0:0,0:0:0:0:
183,238,80412,6,0,P|210:273|277:288,1,100,6|0,1:0|0:0,0:0:0:0:
253,150,80731,1,0,0:0:0:0:
253,150,80837,2,0,L|263:198,1,50,10|0,0:0|0:0,0:0:0:0:
113,176,81050,2,0,L|90:73,1,100,10|0,0:0|0:0,0:0:0:0:
244,42,81369,1,0,3:0:0:0:
181,111,81476,2,0,L|158:8,1,100,14|0,0:0|1:0,0:0:0:0:
333,11,81795,2,0,P|338:60|318:105,1,100,14|0,0:0|1:0,0:0:0:0:
183,237,82114,6,0,P|247:200|321:220,1,150,14|8,1:2|0:0,0:0:0:0:
284,364,82539,1,2,1:0:0:0:
279,349,82646,1,0,1:0:0:0:
275,338,82752,6,0,L|259:280,1,50,14|0,0:0|0:0,0:0:0:0:
417,206,82965,1,2,1:0:0:0:
412,221,83072,1,8,0:0:0:0:
408,232,83178,6,0,L|392:290,1,50,6|8,3:0|0:0,0:0:0:0:
167,308,83390,1,2,1:0:0:0:
164,295,83497,1,0,3:0:0:0:
165,284,83603,2,0,P|169:259|182:237,1,50,10|8,0:0|0:0,0:0:0:0:
349,70,83816,2,0,L|317:216,1,150,14|8,1:2|0:0,0:0:0:0:
235,159,84242,2,0,L|250:90,1,50,6|0,3:0|0:0,0:0:0:0:
22,86,84454,6,0,P|95:90|142:146,1,150,10|8,0:0|0:0,0:0:0:0:
42,217,84880,2,0,L|57:148,1,50,6|8,3:0|0:0,0:0:0:0:
243,73,85093,2,0,L|227:141,1,50,2|0,1:0|1:0,0:0:0:0:
192,333,85305,1,10,0:0:0:0:
190,322,85412,1,10,0:0:0:0:
171,243,85518,6,0,B|248:228|240:290|317:274,1,150,6|0,1:0|0:0,0:0:0:0:
312,138,85944,2,0,L|296:206,1,50,0|0,1:0|1:0,0:0:0:0:
365,347,86156,2,0,P|403:285|379:216,1,150,14|8,0:0|0:0,0:0:0:0:
231,121,86582,2,0,L|215:189,1,50,6|8,3:0|0:0,0:0:0:0:
144,105,86795,1,0,1:0:0:0:
144,105,86901,1,6,3:0:0:0:
77,168,87007,2,0,L|93:236,1,50,0|8,1:0|0:0,0:0:0:0:
297,273,87220,6,0,P|241:227|170:242,1,150,6|0,1:0|0:0,0:0:0:0:
226,384,87646,2,0,P|273:369|284:360,1,50,6|0,3:0|3:0,0:0:0:0:
372,239,87859,1,14,0:0:0:0:
297,273,87965,2,0,P|353:318|400:317,1,100,0|8,0:0|0:0,0:0:0:0:
448,206,88284,6,0,P|392:161|323:172,1,145.000004425049,8|0,0:0|0:0,0:0:0:0:
323,171,88603,6,0,B|371:176|371:176|449:142|449:142|461:101,1,175.00000166893,8|0,0:0|0:0,0:0:0:0:
368,82,88922,6,0,B|285:61|308:131|217:111,1,156.000000595093,14|0,1:2|0:0,0:0:0:0:
35,80,89242,5,8,0:0:0:0:
51,76,89348,1,6,3:0:0:0:
67,72,89454,1,2,0:0:0:0:
140,41,89561,2,0,P|145:85|136:108,1,50,14|0,0:0|0:0,0:0:0:0:
92,199,89773,2,0,P|87:155|96:132,1,50,2|10,1:0|0:0,0:0:0:0:
241,32,89986,1,6,3:0:0:0:
221,111,90093,2,0,L|208:170,1,50,10|0,0:0|0:0,0:0:0:0:
73,285,90305,1,2,1:0:0:0:
92,199,90412,2,0,P|142:232|155:263,1,75,8|0,0:0|0:0,0:0:0:0:
156,258,90625,6,0,P|158:306|130:358,1,100,6|0,1:0|0:0,0:0:0:0:
301,272,90944,1,8,0:0:0:0:
301,272,91050,2,0,P|276:266|256:252,1,50,6|0,3:0|3:0,0:0:0:0:
221,111,91263,6,0,L|208:170,1,50,14|0,0:0|0:0,0:0:0:0:
337,124,91476,2,0,L|314:168,1,50,2|8,1:0|0:0,0:0:0:0:
430,196,91688,6,0,L|385:236,1,50,6|8,3:0|0:0,0:0:0:0:
497,285,91901,2,0,L|443:311,1,50,2|0,1:0|3:0,0:0:0:0:
301,272,92114,1,10,0:0:0:0:
301,272,92220,1,10,0:0:0:0:
392,229,92327,6,0,L|364:340,1,100,4|0,1:0|0:0,0:0:0:0:
239,338,92646,1,8,0:0:0:0:
225,323,92752,1,8,0:0:0:0:
213,306,92859,1,8,0:0:0:0:
203,283,92965,5,12,3:0:0:0:
203,253,93071,1,8,0:0:0:0:
216,220,93178,1,8,0:0:0:0:
253,195,93284,1,8,0:0:0:0:
322,168,93390,5,12,3:0:0:0:
347,97,93497,1,8,0:0:0:0:
322,26,93603,1,8,0:0:0:0:
249,6,93710,1,8,0:0:0:0:
177,28,93816,1,10,0:0:0:0:
150,97,93922,1,0,0:0:0:0:
174,168,94029,6,0,P|148:110|58:92,1,150,6|0,1:0|1:0,0:0:0:0:
114,302,94454,1,0,1:0:0:0:
109,284,94561,1,0,1:0:0:0:
106,271,94667,2,0,L|83:153,1,100,12|0,0:0|1:0,0:0:0:0:
70,185,94986,1,8,0:0:0:0:
30,252,95092,5,0,1:0:0:0:
42,329,95198,1,0,0:0:0:0:
102,380,95305,1,8,0:0:0:0:
180,381,95411,1,10,0:0:0:0:
241,332,95517,1,0,0:0:0:0:
255,255,95624,1,6,3:0:0:0:
216,186,95731,6,0,B|206:123|206:123|220:74|220:74|209:7,1,180.000006866455,6|0,1:0|1:0,0:0:0:0:
80,58,96156,2,0,L|147:70,1,60.0000022888184,10|0,0:0|0:0,0:0:0:0:
347,121,96369,2,0,L|279:133,1,60.0000022888184,2|0,1:0|1:0,0:0:0:0:
129,154,96582,1,10,0:0:0:0:
79,215,96688,6,0,L|198:195,1,120.000004577637,6|0,1:0|1:0,0:0:0:0:
298,165,97007,2,0,L|289:225,1,60.0000022888184,8|0,0:0|0:0,0:0:0:0:
112,311,97220,2,0,L|172:302,1,60.0000022888184,2|0,1:0|0:0,0:0:0:0:
336,300,97433,1,10,0:0:0:0:
387,355,97539,6,0,L|269:336,1,120.000004577637,6|0,1:0|1:0,0:0:0:0:
201,379,97859,1,8,0:0:0:0:
243,162,98071,2,0,P|275:175|332:168,1,60.0000022888184,0|2,1:0|1:0,0:0:0:0:
445,115,98284,1,10,0:0:0:0:
368,85,98390,6,0,B|352:156|391:130|370:219,1,120.000004577637,6|0,1:0|1:0,0:0:0:0:
313,275,98710,1,8,0:0:0:0:
296,282,98816,1,0,0:0:0:0:
278,286,98922,2,0,P|238:286|191:265,1,60.0000022888184,0|0,1:0|0:0,0:0:0:0:
100,158,99135,1,8,0:0:0:0:
177,187,99242,6,0,P|240:180|293:117,1,120.000004577637,6|0,1:0|1:0,0:0:0:0:
79,239,99561,2,0,P|74:271|83:312,1,60.0000022888184,8|0,0:0|0:0,0:0:0:0:
145,82,99773,2,0,P|120:55|75:39,1,60.0000022888184,0|0,1:0|1:0,0:0:0:0:
21,176,99986,1,8,0:0:0:0:
100,158,100093,6,0,L|248:168,1,120.000004577637,6|0,1:0|1:0,0:0:0:0:
288,201,100412,1,8,0:0:0:0:
461,45,100625,2,0,L|379:56,1,60.0000022888184,2|0,1:0|0:0,0:0:0:0:
467,203,100837,1,8,0:0:0:0:
512,138,100944,6,0,B|478:123|478:123|363:138,1,120.000004577637,6|0,1:0|1:0,0:0:0:0:
296,223,101263,2,0,L|307:304,1,60.0000022888184,8|0,0:0|0:0,0:0:0:0:
380,333,101476,2,0,L|390:257,1,60.0000022888184,2|0,1:0|1:0,0:0:0:0:
224,181,101688,1,8,0:0:0:0:
180,247,101795,6,0,L|161:105,1,120.000004577637,6|0,1:0|1:0,0:0:0:0:
321,23,102114,1,8,0:0:0:0:
316,43,102220,1,0,0:0:0:0:
311,63,102327,5,8,0:0:0:0:
236,39,102433,1,8,0:0:0:0:
162,67,102539,1,10,3:0:0:0:
123,135,102646,6,0,P|131:176|129:223,1,70.000000667572,6|0,1:0|0:0,0:0:0:0:
53,346,102859,1,0,1:0:0:0:
17,268,102965,2,0,P|86:273|144:351,1,140.000001335144,8|2,0:0|1:0,0:0:0:0:
210,346,103284,1,0,1:0:0:0:
287,323,103390,1,8,0:0:0:0:
328,253,103497,6,0,L|321:169,2,70.000000667572,6|0|0,1:0|0:0|1:0,0:0:0:0:
485,150,103816,2,0,L|477:240,1,70.000000667572,8|0,0:0|0:0,0:0:0:0:
381,107,104029,2,0,P|340:73|296:65,1,70.000000667572,2|0,1:0|0:0,0:0:0:0:
444,63,104242,1,10,0:0:0:0:
305,147,104348,6,0,B|223:157|254:111|144:127,1,140.000001335144,6|0,1:0|1:0,0:0:0:0:
27,280,104667,2,0,P|72:272|118:232,1,70.000000667572,8|0,0:0|0:0,0:0:0:0:
46,112,104880,1,2,1:0:0:0:
37,129,104986,2,0,L|36:199,1,70.000000667572,0|10,1:0|0:0,0:0:0:0:
184,325,105199,6,0,B|176:281|187:250|187:250|164:214|164:214|176:181|168:111,1,210.000002002716,6|8,1:0|0:0,0:0:0:0:
120,12,105625,1,0,0:0:0:0:
106,22,105731,2,0,P|138:39|182:37,1,70.000000667572,2|0,1:0|0:0,0:0:0:0:
343,100,105944,1,10,0:0:0:0:
374,23,106050,6,0,P|302:33|259:104,1,140.000001335144,6|0,1:0|1:0,0:0:0:0:
419,129,106369,2,0,L|489:113,1,70.000000667572,8|0,0:0|0:0,0:0:0:0:
325,243,106582,2,0,L|314:331,1,70.000000667572,2|2,1:0|1:0,0:0:0:0:
405,216,106795,1,10,0:0:0:0:
261,189,106901,6,0,B|209:182|209:182|181:203|181:203|105:211,1,140.000001335144,6|0,1:0|1:0,0:0:0:0:
1,135,107220,2,0,L|74:142,1,70.000000667572,8|0,0:0|0:0,0:0:0:0:
210,293,107433,1,2,1:0:0:0:
127,305,107539,1,0,0:0:0:0:
44,317,107646,1,8,0:0:0:0:
1,245,107752,6,0,P|69:238|119:285,1,140.000001335144,6|0,1:0|0:0,0:0:0:0:
303,348,108071,2,0,L|296:257,1,70.000000667572,0|0,1:0|0:0,0:0:0:0:
210,227,108284,2,0,L|217:136,2,70.000000667572,8|8|4,0:0|3:0|3:0,0:0:0:0:
386,297,108603,6,0,P|453:303|503:257,1,140.000001335144,6|0,1:0|0:0,0:0:0:0:
493,122,108922,2,0,L|423:116,1,70.000000667572,0|0,1:0|0:0,0:0:0:0:
302,209,109135,2,0,L|372:204,1,70.000000667572,8|8,0:0|3:0,0:0:0:0:
380,46,109348,1,4,3:0:0:0:
308,74,109454,6,0,B|231:63|252:105|159:94,1,140.000001335144,6|0,1:0|0:0,0:0:0:0:
18,39,109773,2,0,P|50:26|85:24,1,70.000000667572,0|0,1:0|0:0,0:0:0:0:
67,204,109986,2,0,P|33:197|3:181,1,70.000000667572,8|8,0:0|3:0,0:0:0:0:
140,93,110199,1,4,3:0:0:0:
204,144,110305,6,0,L|65:126,1,140.000001335144,6|8,1:0|0:0,0:0:0:0:
266,226,110625,2,0,P|299:221|350:214,1,70.000000667572,0|4,1:0|3:0,0:0:0:0:
398,49,110837,1,8,0:0:0:0:
398,49,110944,1,8,0:0:0:0:
327,110,111050,1,8,0:0:0:0:
247,66,111156,6,0,B|154:56|185:111|63:97,1,160,6|0,1:0|1:0,0:0:0:0:
252,219,111476,2,0,P|245:180|224:147,1,80,12|0,0:0|0:0,0:0:0:0:
40,40,111688,2,0,P|18:73|11:112,1,80,12|0,0:0|0:0,0:0:0:0:
111,285,111901,1,0,1:0:0:0:
166,211,112007,6,0,P|74:209|21:283,1,160,12|8,0:0|0:0,0:0:0:0:
191,325,112327,2,0,P|225:337|278:362,1,80,12|8,0:0|0:0,0:0:0:0:
331,248,112539,2,0,P|366:235|395:221,2,53.3333333333333,4|4|8,3:0|3:0|3:0,0:0:0:0:
435,296,112752,5,4,1:0:0:0:
391,108,119561,6,0,B|292:88|318:156|223:134,1,176.000005371094,4|0,1:0|0:0,0:0:0:0:
102,89,120199,1,8,0:0:0:0:
102,89,120412,6,0,L|110:157,1,44.0000013427735,2|0,0:0|0:0,0:0:0:0:
24,229,120624,2,0,L|32:165,1,44.0000013427735,10|0,0:0|0:0,0:0:0:0:
183,115,120837,6,0,L|191:183,1,44.0000013427735,2|0,0:0|0:0,0:0:0:0:
105,255,121049,2,0,L|113:191,1,44.0000013427735,10|0,0:0|0:0,0:0:0:0:
264,141,121263,1,2,1:0:0:0:
186,275,121476,1,8,0:0:0:0:
186,275,121901,1,8,0:0:0:0:
331,211,122114,6,0,L|406:204,1,44.0000013427735,2|0,0:0|0:0,0:0:0:0:
479,142,122327,2,0,L|404:149,1,44.0000013427735,10|0,0:0|0:0,0:0:0:0:
319,106,122539,6,0,L|362:110,1,44.0000013427735,2|0,0:0|0:0,0:0:0:0:
481,260,122752,2,0,L|437:255,1,44.0000013427735,10|0,0:0|0:0,0:0:0:0:
374,206,122965,1,2,1:0:0:0:
326,312,123178,5,8,0:0:0:0:
326,312,123603,2,0,L|331:260,1,44.0000013427735,10|0,0:0|0:0,0:0:0:0:
234,194,123816,2,0,L|225:138,1,44.0000013427735,2|0,0:0|0:0,0:0:0:0:
382,92,124029,2,0,P|335:99|235:24,1,176.000005371094,10|10,0:0|0:0,0:0:0:0:
73,210,124667,6,0,P|135:209|196:140,1,150,6|0,1:0|0:0,0:0:0:0:
197,123,125093,1,8,1:2:0:0:
74,302,125305,1,8,1:2:0:0:
13,99,125518,1,8,1:2:0:0:
302,91,125731,5,8,1:2:0:0:
106,128,125944,1,8,1:2:0:0:
370,151,126156,5,10,1:2:0:0:
68,206,126369,2,0,P|65:237|61:280,3,50,6|0|8|8,1:0|0:0|0:0|0:0,0:0:0:0:
39,129,126795,5,10,0:0:0:0:
112,114,126901,1,8,0:0:0:0:
182,137,127007,1,10,0:0:0:0:
225,198,127114,1,8,0:0:0:0:
273,254,127220,1,10,0:0:0:0:
348,260,127327,1,8,0:0:0:0:
407,214,127433,6,0,L|400:137,1,50,10|8,0:0|0:0,0:0:0:0:
318,75,127646,2,0,L|314:135,1,60.0000022888184,10|8,0:0|0:0,0:0:0:0:
305,339,128071,6,0,P|288:328|275:312,1,41.9999987182618,2|0,0:0|0:0,0:0:0:0:
275,311,128497,6,0,P|260:258|275:205,1,110.800003634949,14|0,0:0|1:0,0:0:0:0:
419,211,128710,2,0,P|433:263|418:316,1,110.800003634949,14|0,0:0|1:0,0:0:0:0:
193,164,128922,1,6,3:0:0:0:
275,205,129029,6,0,P|236:243|153:249,1,133.200003251953,12|2,0:0|1:0,0:0:0:0:
207,74,129242,1,8,0:0:0:0:
193,164,129349,2,0,P|144:138|113:61,1,133.200003251953,8|4,0:0|3:0,0:0:0:0:
339,140,129561,2,0,L|481:111,1,133.200003251953,10|4,0:0|3:0,0:0:0:0:
423,27,129773,6,0,L|301:54,1,124.799999238281,14|0,1:2|1:0,0:0:0:0:
120,101,130199,2,0,P|148:141|192:163,1,99.1999960644533,10|2,0:0|1:0,0:0:0:0:
301,53,130624,1,8,0:0:0:0:
339,140,130731,6,0,L|378:244,1,99.1999960644533,0|0,1:0|1:0,0:0:0:0:
274,205,131050,2,0,L|313:309,1,99.1999960644533,8|2,0:0|1:0,0:0:0:0:
316,312,131369,1,0,0:0:0:0:
250,281,131475,1,8,0:0:0:0:
182,305,131581,1,0,0:0:0:0:
151,370,131688,6,0,P|170:301|169:286,1,49.5999980322266,2|0,1:0|1:0,0:0:0:0:
156,240,131901,2,0,P|109:184|96:176,1,49.5999980322266,8|2,0:0|0:0,0:0:0:0:
43,300,132114,2,0,L|114:292,1,49.5999980322266,0|0,1:0|1:0,0:0:0:0:
206,151,132327,1,10,0:0:0:0:
124,110,132433,2,0,P|56:137|36:173,1,99.1999960644533,0|2,1:0|1:0,0:0:0:0:
206,151,132752,2,0,P|216:79|210:63,1,49.5999980322266,8|0,0:0|0:0,0:0:0:0:
40,165,132965,2,0,P|31:188|29:212,1,49.5999980322266,2|0,1:0|0:0,0:0:0:0:
145,287,133178,2,0,P|153:263|155:239,1,49.5999980322266,10|0,0:0|0:0,0:0:0:0:
93,25,133390,6,0,B|196:-1|171:81|284:52,1,198.399992128907,2|0,1:0|1:0,0:0:0:0:
369,170,133922,1,0,1:0:0:0:
364,150,134029,2,0,L|351:79,1,49.5999980322266,10|0,0:0|1:0,0:0:0:0:
409,0,134242,2,0,P|385:2|362:11,1,49.5999980322266,2|0,0:0|1:0,0:0:0:0:
273,138,134454,2,0,P|267:162|270:186,1,49.5999980322266,8|0,0:0|0:0,0:0:0:0:
452,200,134667,2,0,P|457:175|454:151,1,49.5999980322266,8|8,0:0|0:0,0:0:0:0:
182,289,134880,6,0,L|333:267,1,148.79999409668,6|0,1:0|1:0,0:0:0:0:
270,186,135305,2,0,L|196:196,1,49.5999980322266,10|0,0:0|0:0,0:0:0:0:
120,206,135518,2,0,P|101:223|88:244,1,49.5999980322266,2|0,1:0|0:0,0:0:0:0:
182,289,135731,1,10,0:0:0:0:
160,109,135837,6,0,L|265:93,1,99.1999960644533,0|0,1:0|1:0,0:0:0:0:
446,178,136156,2,0,P|397:172|353:148,1,99.1999960644533,8|2,0:0|1:0,0:0:0:0:
338,48,136476,1,0,0:0:0:0:
270,186,136582,6,0,L|254:291,1,99.1999960644533,6|0,1:0|0:0,0:0:0:0:
321,359,136901,1,0,1:0:0:0:
321,359,137007,2,0,P|336:339|344:316,1,49.5999980322266,10|0,0:0|0:0,0:0:0:0:
179,218,137220,2,0,P|163:237|155:260,1,49.5999980322266,2|0,1:0|0:0,0:0:0:0:
270,186,137433,1,10,0:0:0:0:
196,120,137539,6,0,L|91:104,1,99.1999960644533,0|0,1:0|1:0,0:0:0:0:
57,200,137859,6,0,L|155:214,1,99.1999960644533,10|0,0:0|1:0,0:0:0:0:
179,218,138178,1,0,0:0:0:0:
152,289,138284,1,8,0:0:0:0:
196,352,138390,1,0,0:0:0:0:
272,351,138497,6,0,P|309:335|337:294,1,49.5999980322266,6|0,1:0|0:0,0:0:0:0:
458,309,138710,2,0,P|434:310|410:303,1,49.5999980322266,8|2,0:0|1:0,0:0:0:0:
331,188,138922,2,0,L|347:261,1,49.5999980322266,0|0,0:0|1:0,0:0:0:0:
381,111,139135,1,10,0:0:0:0:
331,188,139242,6,0,P|291:136|293:69,1,99.1999960644533,0|2,1:0|1:0,0:0:0:0:
402,14,139561,2,0,L|380:110,1,99.1999960644533,8|2,0:0|1:0,0:0:0:0:
378,97,139880,1,0,0:0:0:0:
336,29,139986,1,10,0:0:0:0:
256,19,140093,1,0,0:0:0:0:
190,63,140199,6,0,P|184:129|212:187,1,131.200002001953,6|0,1:0|0:0,0:0:0:0:
306,231,140518,6,0,P|251:192|187:188,1,131.200002001953,2|0,1:0|0:0,0:0:0:0:
101,247,140837,6,0,P|147:229|198:165,1,131.200002001953,2|2,1:0|1:0,0:0:0:0:
35,3,141263,1,8,0:0:0:0:
61,76,141369,1,8,0:0:0:0:
98,145,141476,2,0,P|106:93|100:59,2,65.6000010009766,14|4|4,3:0|3:0|3:0,0:0:0:0:
61,350,141795,6,0,P|123:327|186:340,1,131.200002001953,6|0,1:0|0:0,0:0:0:0:
102,247,142114,2,0,P|162:219|189:187,1,65.6000010009766,2|0,1:0|0:0,0:0:0:0:
324,283,142327,2,0,P|264:255|237:223,2,65.6000010009766,10|10|8,0:0|0:0|0:0,0:0:0:0:
354,108,142646,6,0,P|290:114|247:161,1,131.200002001953,6|0,1:0|0:0,0:0:0:0:
330,195,142965,2,0,P|380:196|414:181,1,65.6000010009766,6|0,1:0|0:0,0:0:0:0:
335,28,143178,2,0,L|352:104,2,65.6000010009766,10|10|8,0:0|0:0|0:0,0:0:0:0:
485,222,143497,6,0,P|487:157|445:109,1,131.200002001953,6|0,1:0|0:0,0:0:0:0:
221,63,143816,2,0,L|350:92,1,131.200002001953,2|10,1:0|0:0,0:0:0:0:
372,97,144135,1,10,0:0:0:0:
394,172,144242,1,8,0:0:0:0:
358,241,144348,6,0,B|288:233|306:285|226:275,1,131.200002001953,2|8,1:0|0:0,0:0:0:0:
151,142,144667,1,0,1:0:0:0:
139,161,144773,1,0,0:0:0:0:
136,183,144880,2,0,P|140:215|154:245,1,65.6000010009766,8|8,0:0|0:0,0:0:0:0:
254,338,145093,2,0,P|250:306|236:276,1,65.6000010009766,10|10,0:0|0:0,0:0:0:0:
80,80,145305,6,0,P|150:94|214:47,1,131.200002001953,2|10,1:0|0:0,0:0:0:0:
264,18,145625,1,2,1:0:0:0:
264,18,145731,2,0,L|289:92,1,65.6000010009766,0|2,0:0|1:0,0:0:0:0:
365,179,145944,1,8,0:0:0:0:
235,148,146050,6,0,P|305:134|369:181,1,131.200002001953,2|2,1:0|1:0,0:0:0:0:
265,283,146369,2,0,L|285:220,1,65.6000010009766,10|0,0:0|0:0,0:0:0:0:
419,91,146582,2,0,P|453:153|443:200,1,65.6000010009766,0|0,1:0|0:0,0:0:0:0:
354,317,146795,2,0,L|374:254,1,65.6000010009766,10|2,0:0|0:0,0:0:0:0:
235,148,147007,6,0,P|165:162|101:115,1,131.200002001953,6|10,1:0|0:0,0:0:0:0:
182,5,147327,1,6,1:0:0:0:
182,5,147433,2,0,P|190:37|186:70,2,65.6000010009766,0|10|8,0:0|0:0|0:0,0:0:0:0:
123,236,147752,2,0,L|93:27,1,196.80000300293,6|10,1:0|0:0,0:0:0:0:
92,21,148178,1,8,0:0:0:0:
170,16,148284,1,10,0:0:0:0:
226,69,148390,1,8,0:0:0:0:
232,149,148497,6,0,B|347:164|319:109|427:121,1,200,14|0,1:2|3:0,0:0:0:0:
389,210,149135,2,0,L|444:220,1,50,10|0,0:0|0:0,0:0:0:0:
297,276,149348,2,0,L|412:301,1,100,2|0,1:0|1:0,0:0:0:0:
97,316,149773,1,0,0:0:0:0:
224,355,149986,6,0,L|209:294,1,50,10|0,0:0|0:0,0:0:0:0:
72,197,150199,2,0,L|94:301,1,100,2|0,3:0|1:0,0:0:0:0:
242,109,150625,1,2,3:0:0:0:
242,109,150731,1,0,0:0:0:0:
241,108,150837,6,0,P|194:93|145:97,1,100,10|2,0:0|3:0,0:0:0:0:
72,64,151156,2,0,P|121:67|168:52,1,100,2|0,0:0|0:0,0:0:0:0:
229,3,151476,1,2,3:0:0:0:
183,183,151688,1,8,0:0:0:0:
432,69,151901,6,0,B|321:56|357:126|236:108,1,200,4|0,1:0|3:0,0:0:0:0:
505,261,152539,2,0,L|492:185,1,50,10|0,0:0|0:0,0:0:0:0:
399,153,152752,2,0,L|417:265,1,100,2|0,3:0|1:0,0:0:0:0:
490,72,153178,1,0,3:0:0:0:
319,222,153390,6,0,L|246:212,1,50,10|0,0:0|0:0,0:0:0:0:
399,153,153603,2,0,L|527:170,1,100,2|0,3:0|1:0,0:0:0:0:
246,213,154029,1,2,3:0:0:0:
303,118,154242,5,10,0:0:0:0:
335,284,154454,1,2,3:0:0:0:
188,114,154667,5,2,1:0:0:0:
197,332,154880,1,10,0:0:0:0:
66,95,155093,5,10,0:0:0:0:
35,341,155305,2,0,P|96:320|105:183,1,200,6|0,1:0|1:0,0:0:0:0:
11,60,155944,2,0,P|21:99|26:149,1,50,10|0,0:0|0:0,0:0:0:0:
195,160,156156,2,0,P|198:111|207:62,1,100,2|0,3:0|1:0,0:0:0:0:
106,26,156582,1,0,3:0:0:0:
293,123,156795,6,0,P|324:117|355:109,1,50,10|0,0:0|0:0,0:0:0:0:
230,256,157007,2,0,P|166:245|115:243,1,100,2|0,3:0|1:0,0:0:0:0:
353,219,157433,1,2,3:0:0:0:
353,219,157539,1,0,0:0:0:0:
353,219,157646,6,0,P|381:274|380:321,1,100,10|2,0:0|3:0,0:0:0:0:
345,384,157965,2,0,P|393:348|404:232,1,150,2|2,0:0|3:0,0:0:0:0:
324,120,158497,1,8,0:0:0:0:
464,183,158710,6,0,B|391:178|391:178|350:206|350:206|251:201,1,200,6|2,1:0|3:0,0:0:0:0:
471,110,159348,2,0,L|481:158,1,50,10|0,0:0|0:0,0:0:0:0:
410,314,159561,2,0,L|419:265,1,50,2|0,3:0|0:0,0:0:0:0:
378,105,159773,5,2,1:0:0:0:
501,304,159986,1,2,3:0:0:0:
272,202,160199,1,8,0:0:0:0:
512,162,160412,6,0,P|464:187|382:189,1,100,2|0,3:0|0:0,0:0:0:0:
206,50,160837,2,0,P|247:58|275:77,1,50,2|0,3:0|0:0,0:0:0:0:
328,151,161050,2,0,L|338:51,1,100,10|2,0:0|3:0,0:0:0:0:
413,19,161369,1,0,0:0:0:0:
426,28,161476,5,2,1:0:0:0:
213,136,161688,1,10,3:0:0:0:
414,267,161901,1,10,0:0:0:0:
307,58,162114,6,0,B|235:53|235:53|192:25|192:25|116:19,1,200,4|4,1:0|3:0,0:0:0:0:
25,266,162752,2,0,L|5:195,1,50,10|0,0:0|0:0,0:0:0:0:
107,117,162965,2,0,L|95:221,1,100,6|0,1:0|0:0,0:0:0:0:
9,68,163390,1,4,3:0:0:0:
200,175,163603,6,0,L|277:164,1,50,10|0,0:0|0:0,0:0:0:0:
361,101,163816,2,0,L|250:85,1,100,6|0,1:0|0:0,0:0:0:0:
326,323,164242,1,6,3:0:0:0:
326,323,164348,1,0,0:0:0:0:
326,323,164454,6,0,P|319:291|307:247,1,50,10|0,0:0|0:0,0:0:0:0:
418,179,164667,2,0,P|424:210|437:255,1,50,2|10,1:0|0:0,0:0:0:0:
286,148,164880,5,8,0:0:0:0:
445,325,165093,1,10,0:0:0:0:
470,89,165305,1,10,0:0:0:0:
292,263,165518,6,0,B|141:286|141:286|170:243,1,200,0|4,1:0|3:0,0:0:0:0:
303,154,166156,2,0,P|325:167|387:188,1,50,10|0,0:0|0:0,0:0:0:0:
231,68,166369,2,0,P|170:83|130:111,1,100,6|0,1:0|0:0,0:0:0:0:
344,56,166795,1,4,3:0:0:0:
202,178,167007,6,0,P|194:201|190:226,1,50,10|0,0:0|0:0,0:0:0:0:
339,328,167220,2,0,P|334:303|326:279,1,50,6|0,3:1|0:0,0:0:0:0:
277,88,167433,5,8,0:0:0:0:
278,104,167539,1,8,0:0:0:0:
280,121,167645,1,8,0:0:0:0:
281,137,167752,1,8,0:0:0:0:
321,211,167859,5,0,1:0:0:0:
283,219,167965,1,8,0:0:0:0:
244,209,168071,1,8,0:0:0:0:
215,183,168178,1,8,0:0:0:0:
166,123,168284,5,0,1:0:0:0:
192,191,168390,1,8,0:0:0:0:
161,257,168497,1,10,0:0:0:0:
92,281,168603,1,8,0:0:0:0:
26,248,168709,5,6,3:0:0:0:
281,136,168922,6,0,P|404:191|296:294,1,320,6|0,1:0|0:0,0:0:0:0:
321,211,170837,6,0,L|373:202,5,40.000001525879,8|8|8|8|8|4,0:0|0:0|0:0|0:0|3:0|3:0,0:0:0:0:
238,238,171263,1,4,3:0:0:0:
238,238,171334,1,0,3:0:0:0:
238,238,171405,1,0,3:0:0:0:
238,238,171476,6,0,L|245:108,1,120.000004577637,6|0,1:0|0:0,0:0:0:0:
138,20,171795,1,0,0:0:0:0:
133,33,171901,2,0,L|141:124,1,60.0000022888184,0|0,1:0|0:0,0:0:0:0:
74,217,172114,2,0,P|52:198|24:188,2,60.0000022888184,8|8|8,0:0|0:0|0:0,0:0:0:0:
156,199,172433,6,0,P|112:237|105:295,1,120.000004577637,4|0,1:0|0:0,0:0:0:0:
265,241,172752,2,0,L|335:226,1,60.0000022888184,0|0,1:0|0:0,0:0:0:0:
234,323,172965,2,0,L|155:340,2,60.0000022888184,8|8|8,0:0|0:0|0:0,0:0:0:0:
255,230,173284,6,0,L|231:82,1,120.000004577637,0|0,1:0|0:0,0:0:0:0:
341,26,173603,2,0,L|330:100,1,60.0000022888184,0|0,1:0|0:0,0:0:0:0:
372,287,173816,1,8,0:0:0:0:
346,216,173923,1,8,0:0:0:0:
387,152,174029,1,8,0:0:0:0:
463,147,174135,6,0,P|414:190|328:183,1,120.000004577637,4|8,1:0|0:0,0:0:0:0:
255,146,174454,2,0,P|239:118|238:70,1,60.0000022888184,0|8,1:0|0:0,0:0:0:0:
353,19,174667,1,10,0:0:0:0:
353,38,174773,2,0,P|345:66|328:91,1,60.0000022888184,10|10,0:0|0:0,0:0:0:0:
157,116,174986,6,0,B|89:105|112:146|6:129,1,120.000004577637,4|0,1:0|0:0,0:0:0:0:
147,255,175305,2,0,L|136:197,1,60.0000022888184,0|0,1:0|0:0,0:0:0:0:
234,90,175518,2,0,L|243:31,2,60.0000022888184,8|8|8,0:0|0:0|0:0,0:0:0:0:
157,116,175837,6,0,P|216:124|255:168,1,120.000004577637,4|0,1:0|0:0,0:0:0:0:
324,111,176156,2,0,P|359:107|412:90,1,60.0000022888184,0|0,1:0|0:0,0:0:0:0:
266,271,176369,2,0,P|256:299|254:329,2,60.0000022888184,8|8|8,0:0|0:0|0:0,0:0:0:0:
321,218,176688,6,0,L|156:237,1,120.000004577637,4|0,1:0|0:0,0:0:0:0:
127,265,177007,1,0,1:0:0:0:
280,127,177220,2,0,L|295:43,2,60.0000022888184,8|8|8,0:0|0:0|0:0,0:0:0:0:
192,133,177539,6,0,P|154:126|92:106,1,60.0000022888184,4|0,1:0|0:0,0:0:0:0:
225,268,177752,1,8,0:0:0:0:
291,220,177859,2,0,P|320:212|349:207,1,60.0000022888184,8|8,0:0|0:0,0:0:0:0:
162,338,178071,1,8,0:0:0:0:
87,345,178177,1,8,0:0:0:0:
27,298,178283,1,8,0:0:0:0:
17,223,178390,6,0,B|22:167|22:167|28:154|28:154|36:79,1,120.000004577637,4|0,1:0|1:0,0:0:0:0:
170,39,178710,2,0,L|81:52,1,60.0000022888184,8|0,0:0|0:0,0:0:0:0:
243,138,178922,1,0,1:0:0:0:
235,149,179029,2,0,L|146:136,1,60.0000022888184,0|8,1:0|0:0,0:0:0:0:
390,37,179242,6,0,L|256:55,1,120.000004577637,4|0,1:0|1:0,0:0:0:0:
460,159,179561,2,0,L|388:150,1,60.0000022888184,8|0,0:0|0:0,0:0:0:0:
485,9,179773,1,0,1:0:0:0:
493,21,179880,2,0,L|485:86,1,60.0000022888184,0|8,1:0|0:0,0:0:0:0:
359,243,180093,6,0,P|321:198|317:140,1,120.000004577637,4|0,1:0|1:0,0:0:0:0:
448,258,180412,2,0,P|436:285|418:309,1,60.0000022888184,8|0,0:0|0:0,0:0:0:0:
400,151,180625,1,0,1:0:0:0:
396,139,180731,2,0,L|404:63,1,60.0000022888184,0|8,1:0|0:0,0:0:0:0:
495,34,180944,6,0,L|487:110,1,60.0000022888184,4|0,1:0|0:0,0:0:0:0:
380,243,181156,1,0,1:0:0:0:
368,232,181263,2,0,P|336:220|290:219,1,60.0000022888184,8|0,0:0|0:0,0:0:0:0:
129,343,181476,2,0,P|193:345|243:274,1,120.000004577637,0|8,1:0|0:0,0:0:0:0:
275,238,181795,6,0,L|266:104,1,120.000004577637,0|0,1:0|1:0,0:0:0:0:
122,55,182114,2,0,L|117:127,1,60.0000022888184,8|0,0:0|0:0,0:0:0:0:
186,247,182327,1,0,1:0:0:0:
195,234,182433,2,0,L|190:174,1,60.0000022888184,0|8,1:0|0:0,0:0:0:0:
37,79,182646,6,0,L|28:198,1,120.000004577637,0|0,1:0|1:0,0:0:0:0:
202,66,182965,2,0,L|278:55,1,60.0000022888184,8|0,0:0|0:0,0:0:0:0:
190,213,183178,2,0,L|261:231,1,60.0000022888184,0|0,1:0|0:0,0:0:0:0:
452,157,183390,1,8,0:0:0:0:
374,147,183497,6,0,B|341:145|316:141|316:141|290:148|290:148|265:138|218:144,1,140.000001335144,4|0,1:1|0:0,0:0:0:0:
386,303,183816,2,0,B|400:271|400:271|400:217,1,70.000000667572,4|0,1:0|0:0,0:0:0:0:
321,36,184029,2,0,B|307:68|307:68|307:122,1,70.000000667572,8|4,0:0|3:0,0:0:0:0:
453,42,184242,1,4,3:0:0:0:
389,0,184348,6,0,L|203:18,1,140.000001335144,4|0,1:0|0:0,0:0:0:0:
98,159,184667,2,0,P|145:170|219:153,1,70.000000667572,4|0,1:0|0:0,0:0:0:0:
117,13,184880,2,0,P|126:46|145:75,1,70.000000667572,8|8,0:0|3:0,0:0:0:0:
245,204,185093,1,8,3:0:0:0:
288,127,185199,6,0,P|219:125|165:168,1,140.000001335144,4|0,1:0|0:0,0:0:0:0:
326,235,185518,2,0,L|419:250,1,70.000000667572,4|0,1:0|0:0,0:0:0:0:
197,364,185731,2,0,P|189:332|204:270,1,70.000000667572,8|4,0:0|3:0,0:0:0:0:
136,182,185944,1,4,3:0:0:0:
113,262,186050,6,0,L|8:278,1,70.000000667572,0|0,1:0|0:0,0:0:0:0:
225,149,186263,1,8,0:0:0:0:
234,161,186369,2,0,B|247:195|247:195|238:244,1,70.000000667572,4|4,3:0|3:0,0:0:0:0:
33,193,186582,2,0,B|19:158|19:158|28:109,1,70.000000667572,8|8,0:0|0:0,0:0:0:0:
180,0,186795,1,8,0:0:0:0:
210,73,186901,6,0,B|129:89|151:45|72:61,1,140.000001335144,4|0,1:0|0:0,0:0:0:0:
284,35,187220,2,0,L|378:19,1,70.000000667572,4|0,1:0|0:0,0:0:0:0:
442,205,187433,1,8,0:0:0:0:
347,185,187539,1,4,3:0:0:0:
411,112,187646,1,4,3:0:0:0:
450,221,187752,6,0,P|408:287|312:287,1,140.000001335144,4|8,1:0|0:0,0:0:0:0:
261,210,188071,2,0,L|270:113,1,70.000000667572,4|4,3:0|3:0,0:0:0:0:
128,29,188284,1,8,0:0:0:0:
139,129,188390,1,8,0:0:0:0:
203,72,188497,1,8,0:0:0:0:
62,86,188603,6,0,B|26:110|26:110|-4:154|8:201,1,140.000001335144,4|0,1:0|1:0,0:0:0:0:
230,261,188922,2,0,P|228:223|197:171,1,70.000000667572,12|0,0:0|0:0,0:0:0:0:
33,340,189135,1,12,0:0:0:0:
119,355,189242,1,8,0:0:0:0:
89,274,189348,1,4,3:0:0:0:
35,354,189454,6,0,B|102:346|102:346|122:352|122:352|225:339,1,160,12|4,0:0|3:0,0:0:0:0:
407,285,189773,2,0,L|327:276,1,80,12|0,0:0|0:0,0:0:0:0:
181,118,189986,1,8,0:0:0:0:
194,212,190093,1,8,0:0:0:0:
269,153,190199,1,8,0:0:0:0:
105,176,190305,5,12,0:0:0:0:
