osu file format v14

[General]
AudioFilename: audio.mp3
AudioLeadIn: 0
PreviewTime: 67406
Countdown: 0
SampleSet: None
StackLeniency: 0.7
Mode: 0
LetterboxInBreaks: 0
WidescreenStoryboard: 0

[Editor]
DistanceSpacing: 2
BeatDivisor: 4
GridSize: 32
TimelineZoom: 2.799999

[Metadata]
Title:Hello!My World!!
TitleUnicode:Hello!My World!!
Artist:fhana
ArtistUnicode:fhána
Creator:Sotarks
Version:Insane
Source:ナイツ&マジック
Tags:Knight's & Magic ending ed tv size lantis Junichi Sato yuxuki waga kevin mitsunaga towana akitoshi corinn rizia kawaiwkyik
BeatmapID:1401890
BeatmapSetID:635110

[Difficulty]
HPDrainRate:5.5
CircleSize:3.8
OverallDifficulty:7.8
ApproachRate:9
SliderMultiplier:1.42
SliderTickRate:1

[Events]
//Background and Video events
Video,0,"video.avi"
0,0,"BG.jpg",0,0
//Break Periods
//Storyboard Layer 0 (Background)
//Storyboard Layer 1 (Fail)
//Storyboard Layer 2 (Pass)
//Storyboard Layer 3 (Foreground)
//Storyboard Sound Samples

[TimingPoints]
-891,425.531914893617,4,2,22,42,1,0
598,-121.951219512195,4,2,22,42,0,0
7406,-65.7894736842105,4,2,22,62,0,0
14321,-54.9450549450549,4,2,22,82,0,0
19427,-161.290322580645,4,2,22,82,0,0
19534,-161.290322580645,4,2,22,72,0,0
19959,-161.290322580645,4,2,22,62,0,0
20385,-161.290322580645,4,2,22,52,0,0
20598,-65.7894736842105,4,2,22,52,0,0
21023,-75.7575757575758,4,2,22,52,0,0
36555,-75.7575757575758,4,2,22,22,0,0
36768,-75.7575757575758,4,2,22,32,0,0
37193,-75.7575757575758,4,2,22,42,0,0
37619,-75.7575757575758,4,2,22,52,0,0
37832,-75.7575757575758,4,2,22,62,0,0
38044,-75.7575757575758,4,2,22,72,0,0
38257,-75.7575757575758,4,2,2,42,0,0
43151,-70.4225352112676,4,2,22,52,0,0
45066,-70.4225352112676,4,2,22,22,0,0
45278,-70.4225352112676,4,2,22,32,0,0
45491,-70.4225352112676,4,2,22,42,0,0
45704,-70.4225352112676,4,2,22,52,0,0
45917,-70.4225352112676,4,2,22,62,0,0
46129,-70.4225352112676,4,2,22,72,0,0
46555,-52.0833333333333,4,2,22,92,0,1
67406,-54.9450549450549,4,2,22,82,0,1
87406,-52.0833333333333,4,2,22,82,0,0
89108,-52.0833333333333,4,2,22,5,0,0

[Colours]
Combo1 : 251,202,209
Combo2 : 88,121,220
Combo3 : 243,73,24
Combo4 : 41,36,255
SliderBorder : 240,255,255
SliderTrackOverride : 10,0,0

[HitObjects]
83,136,598,6,0,P|147:124|218:119,1,116.440001776733,2|2,0:0|0:0,0:0:0:0:
276,167,1236,1,2,0:0:0:0:
362,152,1449,1,2,0:0:0:0:
469,68,1661,2,0,P|456:115|446:209,1,116.440001776733,2|2,0:0|0:0,0:0:0:0:
480,285,2300,6,0,P|416:297|345:302,1,116.440001776733,2|2,0:0|0:0,0:0:0:0:
287,254,2938,1,2,0:0:0:0:
201,269,3151,1,2,0:0:0:0:
94,353,3363,2,0,P|107:306|117:212,1,116.440001776733,2|2,0:0|0:0,0:0:0:0:
58,42,4215,6,0,L|70:154,1,87.3300013325501,2|2,0:0|0:0,0:0:0:0:
151,153,4853,1,0,0:0:0:0:
233,39,5172,2,0,P|283:28|335:46,1,87.3300013325501,2|2,0:0|0:0,0:0:0:0:
385,93,5704,1,2,0:0:0:0:
285,196,5917,2,0,L|274:86,2,87.3300013325501,2|2|2,0:0|0:0|0:0,0:0:0:0:
294,328,6768,1,10,0:0:0:0:
159,256,6980,2,0,L|109:245,3,29.1100004441834,8|8|8|8,0:0|0:0|0:0|0:0,0:0:0:0:
137,304,7406,6,0,L|129:235,1,53.9599993413086,2|0,1:0|0:0,0:0:0:0:
43,265,7619,2,0,L|49:211,1,53.9599993413086,8|0,0:0|0:0,0:0:0:0:
17,126,7832,2,0,P|82:135|140:100,1,107.919998682617,10|2,0:0|1:0,0:0:0:0:
171,50,8151,1,0,1:0:0:0:
229,138,8257,2,0,P|245:202|246:215,1,53.9599993413086,10|0,0:0|0:0,0:0:0:0:
141,239,8470,2,0,P|146:212|155:187,1,53.9599993413086,2|0,1:0|0:0,0:0:0:0:
220,266,8683,1,8,0:0:0:0:
327,189,8895,1,2,1:0:0:0:
327,189,9002,1,8,0:0:0:0:
327,189,9108,6,0,L|337:256,1,53.9599993413086,6|0,1:0|0:0,0:0:0:0:
426,233,9321,2,0,L|416:300,1,53.9599993413086,8|0,0:0|0:0,0:0:0:0:
497,172,9534,2,0,L|518:313,1,107.919998682617,10|2,0:0|1:0,0:0:0:0:
448,365,9853,1,0,1:0:0:0:
356,343,9959,2,0,P|301:329|292:328,1,53.9599993413086,10|0,0:0|0:0,0:0:0:0:
245,256,10172,2,0,P|218:261|192:269,1,53.9599993413086,2|0,1:0|0:0,0:0:0:0:
144,345,10385,1,8,0:0:0:0:
102,217,10597,1,2,1:0:0:0:
102,217,10704,1,8,0:0:0:0:
102,217,10810,2,0,L|94:154,1,53.9599993413086,8|8,0:0|0:0,0:0:0:0:
208,56,11023,6,0,P|178:115|176:129,1,53.9599993413086,2|8,1:0|0:0,0:0:0:0:
271,117,11236,2,0,P|280:182|286:195,1,53.9599993413086,0|0,0:0|0:0,0:0:0:0:
365,186,11449,2,0,P|395:245|397:259,1,53.9599993413086,0|8,1:0|0:0,0:0:0:0:
302,247,11662,2,0,P|292:312|286:325,1,53.9599993413086,8|0,0:0|0:0,0:0:0:0:
204,266,11874,2,0,L|141:279,1,53.9599993413086,0|0,1:0|1:0,0:0:0:0:
121,354,12087,2,0,L|68:343,1,53.9599993413086,8|8,0:0|0:0,0:0:0:0:
69,254,12300,1,0,1:0:0:0:
80,216,12406,1,0,0:0:0:0:
86,174,12512,1,8,0:0:0:0:
80,133,12619,1,8,0:0:0:0:
63,100,12725,5,6,1:0:0:0:
150,79,13044,1,2,1:0:0:0:
232,61,13363,1,2,1:0:0:0:
351,144,13576,1,2,1:0:0:0:
270,213,13789,5,8,0:0:0:0:
263,198,13895,1,8,0:0:0:0:
258,182,14001,1,10,3:0:0:0:
255,167,14108,1,4,3:0:0:0:
253,149,14214,1,4,3:0:0:0:
280,72,14321,6,0,L|425:60,1,129.22000433783,6|0,1:0|0:0,0:0:0:0:
416,150,14640,2,0,L|340:143,1,64.6100021689149,0|0,1:0|0:0,0:0:0:0:
387,233,14853,2,0,P|394:297|393:311,2,64.6100021689149,8|8|8,0:0|0:0|0:0,0:0:0:0:
270,191,15172,6,0,B|204:175|216:248|112:210,1,129.22000433783,4|0,1:0|0:0,0:0:0:0:
95,137,15491,2,0,P|127:135|159:139,1,64.6100021689149,0|0,1:0|0:0,0:0:0:0:
254,93,15704,2,0,P|194:67|188:61,2,64.6100021689149,8|8|8,0:0|0:0|0:0,0:0:0:0:
356,21,16023,6,0,L|368:180,1,129.22000433783,4|0,1:0|0:0,0:0:0:0:
455,88,16342,2,0,L|450:174,1,64.6100021689149,0|0,1:0|0:0,0:0:0:0:
378,238,16555,2,0,L|301:211,2,64.6100021689149,8|8|8,0:0|0:0|0:0,0:0:0:0:
451,339,16874,6,0,P|353:343|306:327,1,129.22000433783,4|0,1:0|0:0,0:0:0:0:
240,280,17193,2,0,P|174:300|170:303,1,64.6100021689149,4|0,1:0|1:0,0:0:0:0:
90,351,17406,1,8,0:0:0:0:
99,300,17512,1,8,0:0:0:0:
96,248,17618,1,8,0:0:0:0:
35,199,17725,6,0,B|89:206|89:206|186:167,1,129.22000433783,4|0,1:0|0:0,0:0:0:0:
79,124,18044,2,0,L|155:93,1,64.6100021689149,0|0,1:0|0:0,0:0:0:0:
227,132,18257,2,0,P|240:197|231:216,2,64.6100021689149,8|8|8,0:0|0:0|0:0,0:0:0:0:
325,54,18576,2,0,P|362:135|359:227,1,129.22000433783,4|0,1:0|0:0,0:0:0:0:
323,251,18895,2,0,P|305:325|304:348,1,64.6100021689149,0|0,1:0|0:0,0:0:0:0:
453,314,19108,2,0,P|387:296|366:303,2,64.6100021689149,8|8|8,0:0|0:0|0:0,0:0:0:0:
396,374,19427,6,0,L|184:344,1,198.089992141205,4|0,1:0|0:0,0:0:0:0:
124,306,20598,2,0,L|77:316,3,35.9733328942057,8|4|8|8,3:0|3:0|3:0|3:0,0:0:0:0:
238,226,21023,5,4,1:0:0:0:
238,226,21449,1,2,3:0:0:0:
290,100,21661,1,10,0:0:0:0:
341,228,21874,1,2,3:0:0:0:
375,97,22087,2,0,P|358:46|348:36,1,46.8599998569946,2|0,1:0|0:0,0:0:0:0:
422,234,22300,2,0,P|419:257|409:278,1,46.8599998569946,2|0,3:0|0:0,0:0:0:0:
457,96,22512,1,8,0:0:0:0:
476,310,22725,6,0,L|276:315,1,187.439999427979,2|2,1:0|3:0,0:0:0:0:
152,287,23363,1,10,0:0:0:0:
224,248,23576,1,2,3:0:0:0:
69,184,23789,5,2,1:0:0:0:
161,143,24002,1,2,3:0:0:0:
245,149,24215,1,10,0:0:0:0:
293,184,24427,1,2,3:0:0:0:
293,184,24640,6,0,P|345:160|356:156,1,46.8599998569946,0|0,1:0|0:0,0:0:0:0:
455,185,24853,2,0,P|434:174|412:164,1,46.8599998569946,2|0,3:0|0:0,0:0:0:0:
369,248,25066,1,10,0:0:0:0:
450,350,25278,1,2,3:0:0:0:
455,185,25491,1,2,1:0:0:0:
453,267,25704,1,2,3:0:0:0:
459,102,25917,1,10,0:0:0:0:
276,32,26129,6,0,P|218:52|135:155,1,187.439999427979,2|2,1:0|3:0,0:0:0:0:
264,119,26768,1,10,0:0:0:0:
211,196,26980,1,0,3:0:0:0:
352,130,27193,1,2,1:0:0:0:
231,276,27406,6,0,P|172:273|154:261,1,46.8599998569946,10|0,0:0|0:0,0:0:0:0:
353,216,27619,2,0,P|412:219|430:231,1,46.8599998569946,10|0,0:0|0:0,0:0:0:0:
298,299,27832,6,0,P|211:318|76:285,1,187.439999427979,4|2,1:0|3:0,0:0:0:0:
84,176,28470,1,10,0:0:0:0:
33,255,28683,1,2,3:0:0:0:
45,98,28895,2,0,P|96:93|107:98,1,46.8599998569946,2|0,1:0|0:0,0:0:0:0:
172,177,29108,2,0,P|195:178|217:170,1,46.8599998569946,2|0,3:0|0:0,0:0:0:0:
290,83,29321,1,8,0:0:0:0:
319,268,29534,6,0,P|260:273|222:160,1,187.439999427979,2|2,1:0|3:0,0:0:0:0:
338,152,30172,1,10,0:0:0:0:
403,281,30385,1,2,3:0:0:0:
421,148,30597,2,0,P|404:97|396:85,1,46.8599998569946,2|0,1:0|0:0,0:0:0:0:
319,268,30810,2,0,P|310:289|305:312,1,46.8599998569946,2|0,3:0|0:0,0:0:0:0:
257,148,31023,2,0,P|274:97|282:85,1,46.8599998569946,10|0,0:0|0:0,0:0:0:0:
226,284,31236,5,4,1:0:0:0:
226,284,31661,2,0,L|152:296,1,46.8599998569946,2|0,3:0|0:0,0:0:0:0:
118,195,31874,2,0,L|165:203,1,46.8599998569946,10|0,0:0|0:0,0:0:0:0:
55,247,32087,1,2,3:0:0:0:
55,247,32300,2,0,P|33:191|50:152,2,93.7199997139893,2|2|10,1:0|3:0|0:0,0:0:0:0:
115,108,32938,6,0,B|207:67|199:157|311:107,1,187.439999427979,6|2,1:0|3:0,0:0:0:0:
414,74,33576,2,0,P|373:125|374:179,1,93.7199997139893,10|0,0:0|3:0,0:0:0:0:
251,41,34002,1,2,1:0:0:0:
300,202,34215,2,0,L|286:260,1,46.8599998569946,0|0,3:0|0:0,0:0:0:0:
197,244,34427,2,0,L|207:289,1,46.8599998569946,8|0,0:0|0:0,0:0:0:0:
312,355,34640,6,0,L|96:331,1,187.439999427979,6|2,1:0|3:0,0:0:0:0:
37,200,35278,2,0,P|107:233|118:348,1,187.439999427979,10|2,0:0|1:0,0:0:0:0:
145,156,35917,2,0,L|206:150,1,46.8599998569946,0|0,3:0|0:0,0:0:0:0:
205,236,36129,2,0,L|251:240,1,46.8599998569946,8|0,0:0|0:0,0:0:0:0:
348,109,36342,6,0,B|290:203|399:206|322:311,1,187.439999427979,6|8,1:0|0:0,0:0:0:0:
268,337,36874,1,8,0:0:0:0:
185,322,36980,2,0,L|121:330,1,46.8599998569946,10|8,0:0|0:0,0:0:0:0:
95,237,37193,2,0,L|141:242,1,46.8599998569946,10|8,0:0|0:0,0:0:0:0:
224,206,37406,2,0,L|231:152,1,46.8599998569946,10|8,0:0|0:0,0:0:0:0:
140,116,37619,2,0,L|146:162,1,46.8599998569946,10|8,0:0|0:0,0:0:0:0:
215,84,37832,2,0,P|267:92|284:110,1,46.8599998569946,10|8,0:0|0:0,0:0:0:0:
312,154,38044,5,2,1:0:0:0:
465,29,38257,1,8,0:0:0:0:
395,322,38683,1,8,0:0:0:0:
403,126,38895,2,0,P|394:104|384:82,1,46.8599998569946,2|0,0:0|0:0,0:0:0:0:
453,202,39108,2,0,P|443:223|434:245,1,46.8599998569946,10|0,0:0|0:0,0:0:0:0:
429,122,39321,2,0,P|420:100|410:78,1,46.8599998569946,2|0,0:0|0:0,0:0:0:0:
478,197,39534,2,0,P|468:218|459:240,1,46.8599998569946,10|0,0:0|0:0,0:0:0:0:
459,119,39746,5,2,0:0:0:0:
348,280,39959,1,8,0:0:0:0:
182,34,40385,1,8,0:0:0:0:
146,233,40598,2,0,P|89:229|75:226,1,46.8599998569946,2|0,0:0|0:0,0:0:0:0:
223,181,40810,2,0,P|246:178|269:178,1,46.8599998569946,10|0,0:0|0:0,0:0:0:0:
147,260,41023,2,0,P|90:256|76:253,1,46.8599998569946,2|0,0:0|0:0,0:0:0:0:
224,208,41236,2,0,P|247:205|270:205,1,46.8599998569946,10|0,0:0|0:0,0:0:0:0:
146,287,41449,5,2,0:0:0:0:
113,96,41661,1,8,0:0:0:0:
240,332,42087,2,0,P|287:321|294:319,1,46.8599998569946,10|0,0:0|0:0,0:0:0:0:
415,342,42300,2,0,P|392:337|369:331,1,46.8599998569946,2|0,0:0|0:0,0:0:0:0:
234,244,42513,2,0,P|292:232|339:246,1,93.7199997139893,10|0,0:0|0:0,0:0:0:0:
116,341,42938,2,0,P|63:322|50:312,1,46.8599998569946,10|0,0:0|0:0,0:0:0:0:
31,234,43151,5,6,1:0:0:0:
96,189,43363,1,8,0:0:0:0:
202,168,43576,1,10,0:0:0:0:
316,206,43789,1,10,0:0:0:0:
342,350,44002,1,10,0:0:0:0:
444,206,44215,1,10,0:0:0:0:
386,35,44427,1,10,0:0:0:0:
141,29,44640,1,10,0:0:0:0:
51,280,44853,5,4,1:0:0:0:
164,123,45066,1,8,0:0:0:0:
208,120,45172,1,8,0:0:0:0:
250,118,45278,2,0,P|245:182|248:200,1,50.4099974616548,2|8,1:0|0:0,0:0:0:0:
327,268,45491,2,0,P|325:242|321:218,1,50.4099974616548,2|8,1:0|0:0,0:0:0:0:
402,118,45704,2,0,P|397:182|400:200,1,50.4099974616548,2|8,1:0|0:0,0:0:0:0:
448,278,45917,5,2,1:0:0:0:
407,274,46023,1,0,1:0:0:0:
367,271,46129,1,2,1:0:0:0:
327,268,46236,1,0,1:0:0:0:
287,265,46342,1,2,1:0:0:0:
39,319,46555,6,0,P|111:333|186:276,1,136.320003328125,6|0,1:0|0:0,0:0:0:0:
208,232,46874,1,0,1:0:0:0:
148,166,46980,2,0,P|136:96|140:79,1,68.1600016640625,10|0,0:0|0:0,0:0:0:0:
207,40,47193,1,2,1:0:0:0:
207,40,47300,1,0,1:0:0:0:
207,40,47406,2,0,L|282:31,1,68.1600016640625,10|0,0:0|1:0,0:0:0:0:
315,122,47619,2,0,L|247:113,1,68.1600016640625,2|0,1:0|1:0,0:0:0:0:
352,27,47832,1,8,0:0:0:0:
282,221,48044,1,2,1:0:0:0:
435,20,48257,6,0,L|452:193,1,136.320003328125,6|0,1:0|0:0,0:0:0:0:
435,244,48576,1,0,1:0:0:0:
368,182,48683,2,0,L|272:189,1,68.1600016640625,10|0,0:0|0:0,0:0:0:0:
245,266,48895,2,0,L|177:261,1,68.1600016640625,2|0,1:0|0:0,0:0:0:0:
106,215,49108,1,10,0:0:0:0:
149,144,49215,2,0,P|191:204|150:284,1,136.320003328125,0|0,1:0|1:0,0:0:0:0:
103,316,49534,1,8,0:0:0:0:
272,188,49746,1,2,1:0:0:0:
391,345,49959,1,8,0:0:0:0:
377,118,50172,6,0,L|228:96,1,136.320003328125,2|8,1:0|0:0,0:0:0:0:
166,152,50491,2,0,L|31:171,1,136.320003328125,2|0,0:0|1:0,0:0:0:0:
116,238,50810,2,0,P|154:310|120:378,1,136.320003328125,10|0,0:0|0:0,0:0:0:0:
232,318,51130,2,0,B|334:306|334:306|379:332,1,136.320003328125,2|0,1:0|0:0,0:0:0:0:
446,366,51449,2,0,P|452:296|448:286,1,68.1600016640625,2|0,1:0|0:0,0:0:0:0:
388,241,51661,2,0,P|382:171|386:161,1,68.1600016640625,10|0,0:0|1:0,0:0:0:0:
455,104,51874,6,0,P|370:117|309:70,1,136.320003328125,6|8,1:0|0:0,0:0:0:0:
247,41,52193,2,0,P|162:28|101:75,1,136.320003328125,2|0,0:0|1:0,0:0:0:0:
69,133,52512,2,0,P|92:208|91:222,1,68.1600016640625,10|0,0:0|1:0,0:0:0:0:
60,284,52725,1,10,0:0:0:0:
92,298,52832,1,0,1:0:0:0:
158,245,52938,1,8,0:0:0:0:
240,230,53044,1,0,1:0:0:0:
317,258,53151,1,8,0:0:0:0:
370,320,53257,1,8,0:0:0:0:
451,306,53363,6,0,B|400:203|508:206|437:87,1,204.480004992188,4|0,1:0|1:0,0:0:0:0:
385,52,53789,2,0,P|316:70|299:67,1,68.1600016640625,10|0,0:0|0:0,0:0:0:0:
229,37,54002,1,2,1:0:0:0:
229,37,54108,1,0,1:0:0:0:
229,37,54215,2,0,L|241:128,1,68.1600016640625,10|0,0:0|1:0,0:0:0:0:
142,138,54427,2,0,L|150:70,1,68.1600016640625,0|0,0:0|1:0,0:0:0:0:
67,43,54640,1,8,0:0:0:0:
198,206,54853,1,2,1:0:0:0:
37,335,55066,6,0,P|133:308|202:312,1,136.320003328125,6|0,1:0|0:0,0:0:0:0:
258,344,55385,1,0,1:0:0:0:
281,358,55491,1,10,0:0:0:0:
106,226,55704,1,2,1:0:0:0:
366,280,55917,1,10,0:0:0:0:
414,212,56023,2,0,P|339:202|288:251,1,136.320003328125,0|0,1:0|1:0,0:0:0:0:
285,323,56342,1,8,0:0:0:0:
311,100,56555,1,2,1:0:0:0:
400,362,56768,1,8,0:0:0:0:
243,157,56980,6,0,L|161:150,1,68.1600016640625,6|0,1:0|0:0,0:0:0:0:
63,236,57193,2,0,P|130:199|195:217,1,136.320003328125,8|0,0:0|0:0,0:0:0:0:
235,278,57512,1,0,1:0:0:0:
314,311,57619,1,10,0:0:0:0:
387,268,57725,2,0,L|230:253,1,136.320003328125,0|2,1:0|1:0,0:0:0:0:
193,346,58044,1,8,0:0:0:0:
307,149,58257,1,2,1:0:0:0:
440,346,58470,1,10,0:0:0:0:
364,82,58683,5,6,1:0:0:0:
307,149,59002,1,2,1:0:0:0:
250,216,59321,1,10,0:0:0:0:
341,303,59534,1,10,0:0:0:0:
180,267,59746,6,0,P|167:196|170:190,1,68.1600016640625,8|8,0:0|0:0,0:0:0:0:
201,124,59959,1,8,3:0:0:0:
206,93,60066,1,4,3:0:0:0:
199,61,60172,1,4,3:0:0:0:
122,98,60278,6,0,L|293:86,1,136.320003328125,6|0,1:0|0:0,0:0:0:0:
340,168,60597,2,0,L|239:161,1,68.1600016640625,2|0,1:0|0:0,0:0:0:0:
347,84,60810,2,0,P|411:126|415:145,2,68.1600016640625,10|10|8,0:0|0:0|0:0,0:0:0:0:
367,288,61130,6,0,P|327:218|345:159,1,136.320003328125,6|0,1:0|0:0,0:0:0:0:
480,226,61449,2,0,L|403:212,1,68.1600016640625,2|0,1:0|0:0,0:0:0:0:
367,288,61661,2,0,L|299:300,2,68.1600016640625,10|10|8,0:0|0:0|0:0,0:0:0:0:
240,233,61981,6,0,P|164:245|82:220,1,136.320003328125,6|0,1:0|0:0,0:0:0:0:
26,161,62300,2,0,P|99:149|123:138,1,68.1600016640625,2|0,1:0|0:0,0:0:0:0:
188,84,62513,2,0,P|115:72|91:61,2,68.1600016640625,10|10|8,0:0|0:0|0:0,0:0:0:0:
323,27,62832,6,0,L|340:184,1,136.320003328125,6|8,1:0|0:0,0:0:0:0:
361,269,63151,2,0,P|278:240|270:238,1,68.1600016640625,0|8,1:0|0:0,0:0:0:0:
250,317,63363,1,8,0:0:0:0:
207,338,63469,1,8,0:0:0:0:
160,344,63577,1,10,0:0:0:0:
114,335,63682,1,10,0:0:0:0:
84,253,63789,6,0,P|96:180|72:104,1,136.320003328125,6|10,1:0|0:0,0:0:0:0:
17,51,64108,2,0,P|96:31|114:37,1,68.1600016640625,10|0,0:0|1:0,0:0:0:0:
159,85,64321,2,0,P|192:79|221:62,1,68.1600016640625,2|8,1:0|0:0,0:0:0:0:
323,29,64534,2,0,P|294:117|312:191,1,136.320003328125,2|2,1:0|1:0,0:0:0:0:
340,242,64853,1,10,0:0:0:0:
221,62,65066,1,0,1:0:0:0:
409,186,65278,6,0,P|426:259|418:285,1,68.1600016640625,10|2,0:0|1:0,0:0:0:0:
378,333,65491,2,0,L|192:318,1,136.320003328125,6|10,1:0|0:0,0:0:0:0:
166,268,65810,2,0,L|94:280,1,68.1600016640625,2|0,1:0|0:0,0:0:0:0:
26,331,66023,1,10,0:0:0:0:
16,254,66129,1,8,0:0:0:0:
6,174,66236,2,0,L|155:152,1,136.320003328125,2|0,1:0|1:0,0:0:0:0:
211,191,66555,1,2,1:0:0:0:
289,195,66661,1,8,0:0:0:0:
364,170,66768,1,10,0:0:0:0:
410,102,66874,1,8,0:0:0:0:
405,20,66980,6,0,L|421:313,1,272.64000665625,6|0,1:0|3:0,0:0:0:0:
294,114,67619,2,0,P|225:100|209:101,1,64.6100021689149,10|0,0:0|0:0,0:0:0:0:
109,201,67832,2,0,L|276:174,2,129.22000433783,2|0|0,3:0|1:0|3:0,0:0:0:0:
364,60,68470,2,0,P|379:131|365:160,1,64.6100021689149,10|0,0:0|0:0,0:0:0:0:
278,242,68683,6,0,L|298:72,1,129.22000433783,2|0,3:0|0:0,0:0:0:0:
334,318,69108,2,0,P|252:333|235:323,1,64.6100021689149,2|0,0:0|0:0,0:0:0:0:
164,252,69321,2,0,P|246:267|287:223,1,129.22000433783,10|2,0:0|3:0,0:0:0:0:
218,70,69640,2,0,B|203:163|203:163|226:216,1,129.22000433783,2|0,0:0|0:0,0:0:0:0:
293,90,69959,2,0,L|282:160,1,64.6100021689149,2|0,3:0|0:0,0:0:0:0:
138,75,70172,2,0,L|127:145,1,64.6100021689149,8|0,0:0|0:0,0:0:0:0:
323,25,70385,6,0,L|287:299,1,258.440008675659,4|0,1:0|3:0,0:0:0:0:
391,101,71023,2,0,P|462:85|474:88,1,64.6100021689149,10|0,0:0|0:0,0:0:0:0:
441,290,71236,2,0,B|428:196|428:196|445:151,2,129.22000433783,2|0|0,3:0|1:0|3:0,0:0:0:0:
263,102,71874,2,0,P|192:86|180:89,1,64.6100021689149,10|0,0:0|0:0,0:0:0:0:
213,291,72087,6,0,B|226:197|226:197|209:152,1,129.22000433783,2|0,3:0|1:0,0:0:0:0:
128,308,72512,1,2,3:0:0:0:
213,291,72725,1,10,0:0:0:0:
100,254,72938,1,2,3:0:0:0:
266,223,73151,1,2,1:0:0:0:
61,182,73363,1,2,3:0:0:0:
317,155,73576,1,10,0:0:0:0:
18,106,73789,6,0,L|49:382,1,258.440008675659,6|0,1:0|3:0,0:0:0:0:
145,158,74427,2,0,B|166:131|226:139,1,64.6100021689149,10|0,0:0|0:0,0:0:0:0:
314,208,74640,2,0,P|211:226|179:177,2,129.22000433783,2|0|0,3:0|1:0|3:0,0:0:0:0:
463,35,75278,2,0,L|477:120,1,64.6100021689149,10|0,0:0|0:0,0:0:0:0:
415,222,75491,6,0,P|393:133|397:66,1,129.22000433783,6|0,1:0|0:0,0:0:0:0:
463,296,75917,2,0,P|388:297|381:288,1,64.6100021689149,2|0,3:0|0:0,0:0:0:0:
322,264,76130,2,0,P|248:265|196:316,1,129.22000433783,10|2,0:0|3:0,0:0:0:0:
161,217,76449,2,0,P|87:216|35:165,1,129.22000433783,2|2,0:0|0:0,0:0:0:0:
73,98,76768,2,0,P|136:84|153:86,1,64.6100021689149,2|0,1:0|0:0,0:0:0:0:
215,36,76980,2,0,P|247:38|277:50,1,64.6100021689149,8|0,0:0|0:0,0:0:0:0:
381,37,77193,6,0,P|402:112|412:248,1,193.830006506745,6|0,1:0|0:0,0:0:0:0:
467,286,77619,2,0,P|395:308|360:308,1,64.6100021689149,2|0,3:0|0:0,0:0:0:0:
329,350,77832,2,0,P|259:320|232:298,1,64.6100021689149,10|0,0:0|0:0,0:0:0:0:
187,317,78044,2,0,P|152:249|146:215,1,64.6100021689149,2|0,3:0|0:0,0:0:0:0:
87,218,78257,2,0,P|103:144|121:114,1,64.6100021689149,10|0,0:0|1:0,0:0:0:0:
62,84,78470,2,0,P|122:38|155:26,1,64.6100021689149,2|0,3:0|1:0,0:0:0:0:
200,47,78683,1,8,0:0:0:0:
332,269,78895,6,0,P|183:281|125:209,1,193.830006506745,6|0,1:0|0:0,0:0:0:0:
193,180,79321,2,0,P|264:166|276:169,1,64.6100021689149,2|0,3:0|0:0,0:0:0:0:
265,78,79534,2,0,P|328:112|335:122,1,64.6100021689149,10|0,0:0|0:0,0:0:0:0:
386,51,79746,2,0,P|412:118|411:130,1,64.6100021689149,2|0,3:0|0:0,0:0:0:0:
489,107,79959,2,0,P|465:175|457:184,1,64.6100021689149,2|0,1:0|1:0,0:0:0:0:
396,182,80172,2,0,P|419:250|427:259,1,64.6100021689149,2|0,3:0|1:0,0:0:0:0:
487,268,80385,2,0,P|463:336|455:345,1,64.6100021689149,10|0,0:0|0:0,0:0:0:0:
383,323,80598,6,0,B|267:290|311:377|159:326,1,193.830006506745,4|0,1:0|1:2,0:0:0:0:
116,295,81023,2,0,P|97:226|97:210,1,64.6100021689149,0|0,1:0|0:0,0:0:0:0:
173,183,81236,2,0,P|192:114|192:98,1,64.6100021689149,10|0,0:0|0:0,0:0:0:0:
45,60,81449,6,0,B|161:93|117:6|269:57,1,193.830006506745,6|0,1:0|1:0,0:0:0:0:
326,70,81874,2,0,P|345:139|345:155,1,64.6100021689149,0|0,1:0|0:0,0:0:0:0:
269,182,82087,2,0,P|250:251|250:267,1,64.6100021689149,10|0,0:0|0:0,0:0:0:0:
394,323,82300,6,0,B|278:290|322:377|170:326,1,193.830006506745,6|0,1:0|1:0,0:0:0:0:
186,251,82725,2,0,L|261:242,1,64.6100021689149,2|0,1:0|0:0,0:0:0:0:
346,176,82938,2,0,L|170:163,1,129.22000433783,10|2,0:0|1:0,0:0:0:0:
156,94,83257,1,8,0:0:0:0:
156,94,83363,2,0,L|258:81,1,64.6100021689149,8|0,0:0|1:0,0:0:0:0:
363,100,83576,2,0,L|261:87,1,64.6100021689149,2|0,1:0|0:0,0:0:0:0:
152,73,83789,2,0,L|254:60,1,64.6100021689149,10|0,0:0|0:0,0:0:0:0:
419,33,84002,6,0,B|399:94|399:94|429:152|429:152|415:222,1,193.830006506745,4|0,1:0|1:0,0:0:0:0:
448,306,84427,2,0,L|357:290,1,64.6100021689149,0|0,1:0|0:0,0:0:0:0:
293,332,84640,2,0,L|229:343,1,64.6100021689149,10|0,0:0|0:0,0:0:0:0:
143,317,84853,2,0,B|123:256|123:256|153:198|153:198|139:128,1,193.830006506745,6|0,1:0|1:0,0:0:0:0:
86,62,85278,2,0,L|177:46,1,64.6100021689149,0|0,1:0|0:0,0:0:0:0:
241,88,85491,2,0,L|304:99,1,64.6100021689149,10|0,0:0|0:0,0:0:0:0:
419,33,85704,5,6,1:0:0:0:
360,190,85917,1,8,0:0:0:0:
321,212,86023,1,8,0:0:0:0:
276,202,86129,1,8,0:0:0:0:
234,185,86236,1,8,0:0:0:0:
189,185,86342,1,8,1:2:0:0:
158,218,86449,1,8,0:0:0:0:
152,261,86555,1,8,0:0:0:0:
172,303,86661,1,8,0:0:0:0:
215,316,86768,1,8,1:2:0:0:
258,302,86874,1,8,0:0:0:0:
304,295,86980,2,0,P|376:302|383:307,1,64.6100021689149,0|0,1:0|0:0,0:0:0:0:
441,347,87193,1,4,3:0:0:0:
304,99,87406,5,6,1:0:0:0:
256,192,87512,12,0,89108,0:0:0:0:
