osu file format v14

[General]
AudioFilename: audio.mp3
AudioLeadIn: 0
PreviewTime: 127966
Countdown: 0
SampleSet: Soft
StackLeniency: 0.5
Mode: 0
LetterboxInBreaks: 0
WidescreenStoryboard: 0

[Editor]
Bookmarks: 112965,119561,171476,178390
DistanceSpacing: 1.2
BeatDivisor: 4
GridSize: 8
TimelineZoom: 2.1

[Metadata]
Title:Hello!My World!!
TitleUnicode:Hello!My World!!
Artist:fhana
ArtistUnicode:fhána
Creator:Sotarks
Version:Aki's Normal
Source:ナイツ&マジック
Tags:Knight's & Magic ending ed full ver version lantis Junichi Sato yuxuki waga kevin mitsunaga towana doormat akitoshi corinn kalibe irohas mugiwarasekai toybot haruto haruto_aizawa
BeatmapID:1407983
BeatmapSetID:657341

[Difficulty]
HPDrainRate:4
CircleSize:3
OverallDifficulty:4
ApproachRate:4.5
SliderMultiplier:1.4
SliderTickRate:1

[Events]
//Background and Video events
0,0,"BG.jpg",0,0
//Break Periods
2,112952,118301
2,171676,177130
//Storyboard Layer 0 (Background)
//Storyboard Layer 1 (Fail)
//Storyboard Layer 2 (Pass)
//Storyboard Layer 3 (Foreground)
//Storyboard Sound Samples

[TimingPoints]
625,425.531914893617,4,2,22,52,1,0
5944,-100,4,2,22,52,0,0
6051,-100,4,2,22,52,0,0
6263,-100,4,2,22,52,0,0
8922,-100,4,2,22,52,0,0
8923,-100,4,2,22,62,0,0
15837,-100,4,2,22,62,0,0
15838,-100,4,2,22,72,0,0
16050,-100,4,2,22,72,0,0
20944,-100,4,2,22,52,0,0
22114,-100,4,2,22,52,0,0
22540,-100,4,2,22,52,0,0
33071,-100,4,2,22,52,0,0
33178,-100,4,2,22,52,0,0
38923,-100,4,2,22,62,0,0
39242,-100,4,2,22,72,0,0
39561,-100,4,2,22,52,0,0
39774,-100,4,2,2,52,0,0
41795,-100,4,2,2,52,0,0
41901,-100,4,2,2,52,0,0
43497,-100,4,2,2,52,0,0
43603,-100,4,2,2,52,0,0
46583,-100,4,2,22,52,0,0
47433,-100,4,2,22,52,0,0
47859,-100,4,2,22,52,0,0
48071,-100,4,2,22,52,0,0
48072,-100,4,2,22,82,0,0
61263,-100,4,2,22,82,0,0
61795,-100,4,2,22,82,0,0
68923,-100,4,2,22,72,0,0
95731,-100,4,2,22,72,0,0
95732,-100,4,2,22,82,0,0
112753,-100,4,2,22,92,0,0
119561,-100,4,2,2,52,0,0
126582,-100,4,2,2,52,0,0
127434,-100,4,2,22,52,0,0
128071,-100,4,2,22,52,0,0
128072,-100,4,2,22,32,0,0
128390,-100,4,2,22,32,0,0
128497,-100,4,2,22,92,0,1
129028,-100,4,2,22,92,0,1
129348,-100,4,2,22,92,0,1
129773,-100,4,2,22,92,0,0
129774,-100,4,2,22,52,0,0
130199,-100,4,2,22,52,0,0
130200,-100,4,2,22,82,0,0
141476,-100,4,2,22,82,0,0
141795,-100,4,2,22,82,0,0
141901,-100,4,2,22,82,0,0
148497,-100,4,2,22,82,0,1
162114,-100,4,2,22,82,0,0
162539,-100,4,2,22,82,0,0
162752,-100,4,2,22,82,0,0
162965,-100,4,2,22,82,0,0
163390,-100,4,2,22,82,0,0
163603,-100,4,2,22,82,0,0
163816,-100,4,2,22,82,0,0
164241,-100,4,2,22,82,0,0
165518,-100,4,2,22,82,0,0
165943,-100,4,2,22,82,0,0
166156,-100,4,2,22,82,0,0
166369,-100,4,2,22,82,0,0
166794,-100,4,2,22,82,0,0
167007,-100,4,2,22,82,0,0
167433,-100,4,2,22,82,0,0
167859,-100,4,2,22,82,0,0
168178,-100,4,2,22,82,0,0
168284,-100,4,2,22,82,0,0
168922,-100,4,2,22,82,0,0
169135,-100,4,2,22,82,0,0
170837,-100,4,2,22,82,0,0
171050,-100,4,2,22,82,0,0
171475,-100,4,2,22,82,0,0
171688,425.531914893617,4,2,22,82,1,0
183496,-100,4,2,22,92,0,1
186901,-100,4,2,22,92,0,1
190305,-100,4,2,22,92,0,0

[Colours]
Combo1 : 196,193,232
Combo2 : 244,231,181
Combo3 : 187,228,244
Combo4 : 255,187,255

[HitObjects]
53,281,2114,6,0,P|111:251|200:271,1,140,6|2,0:0|0:0,0:0:0:0:
253,307,2752,1,2,0:0:0:0:
402,229,3178,2,0,L|391:68,1,140,2|2,0:0|0:0,0:0:0:0:
331,31,3816,2,0,B|254:15|275:64|172:38,1,140,2|2,0:0|0:0,0:0:0:0:
113,19,4454,1,2,0:0:0:0:
22,160,4880,2,0,B|7:250|7:250|30:310,1,140,2|2,0:0|0:0,0:0:0:0:
185,342,5731,6,0,B|251:331|251:331|320:354|320:354|401:339,2,210,2|2|2,0:0|0:0|0:0,0:0:0:0:
124,292,7220,1,2,0:0:0:0:
124,292,7433,2,0,P|104:222|138:147,1,140,2|0,0:0|0:0,0:0:0:0:
260,59,8284,2,0,L|336:64,1,70,10|8,0:0|0:0,0:0:0:0:
418,77,8710,1,8,0:0:0:0:
418,77,8922,6,0,B|443:142|391:144|430:229,1,140,2|10,1:0|0:0,0:0:0:0:
473,281,9561,1,2,1:0:0:0:
313,333,9986,2,0,P|275:303|182:303,1,140,2|10,1:0|0:0,0:0:0:0:
115,346,10625,2,0,P|145:308|145:215,1,140,2|10,1:0|0:0,0:0:0:0:
87,159,11263,1,2,1:0:0:0:
187,24,11688,2,0,B|262:11|253:62|332:46,1,140,2|10,1:0|0:0,0:0:0:0:
488,28,12539,6,0,P|448:82|454:170,1,140,2|0,1:0|1:0,0:0:0:0:
490,226,13178,2,0,L|480:345,2,105,2|2|10,1:0|0:0|0:0,0:0:0:0:
322,213,14242,6,0,B|271:227|271:227|196:214,2,105,6|2|2,1:0|1:0|1:0,0:0:0:0:
399,179,15093,2,0,P|405:107|368:39,1,140,2|6,1:0|3:0,0:0:0:0:
252,24,15837,6,0,P|205:54|177:114,1,105,6|0,1:0|1:0,0:0:0:0:
148,173,16369,2,0,L|29:164,2,105,8|4|0,0:0|1:0|1:0,0:0:0:0:
220,218,17220,2,0,P|209:271|204:345,2,105,8|0|0,0:0|1:0|1:0,0:0:0:0:
289,170,18071,2,0,P|278:117|273:43,2,105,8|4|0,0:0|1:0|1:0,0:0:0:0:
362,210,18922,1,8,0:0:0:0:
310,326,19242,6,0,L|183:320,1,105,4|0,1:0|1:0,0:0:0:0:
134,276,19773,2,0,P|73:286|17:272,2,105,8|4|0,0:0|1:0|1:0,0:0:0:0:
190,213,20624,2,0,L|186:104,1,105,8|4,0:0|1:0,0:0:0:0:
186,108,22539,6,0,P|164:181|201:254,1,140,4|2,1:0|1:0,0:0:0:0:
254,287,23178,1,10,0:0:0:0:
421,300,23603,2,0,L|430:369,2,70,2|2|8,1:0|3:0|0:0,0:0:0:0:
376,228,24242,2,0,L|384:89,1,140,2|2,1:0|1:0,0:0:0:0:
330,23,24880,1,10,0:0:0:0:
162,39,25305,2,0,P|120:94|125:186,1,140,2|10,1:0|0:0,0:0:0:0:
148,327,26156,6,0,B|197:340|197:340|310:327,1,140,0|10,1:0|0:0,0:0:0:0:
452,304,27007,2,0,L|467:373,2,70,2|2|10,1:0|3:0|0:0,0:0:0:0:
401,236,27646,2,0,B|414:172|371:177|394:94,1,140,2|2,1:0|1:0,0:0:0:0:
425,21,28284,1,10,0:0:0:0:
263,66,28710,2,0,L|176:61,1,70,2|10,1:0|0:0,0:0:0:0:
119,33,29135,1,10,0:0:0:0:
119,33,29348,6,0,B|92:78|92:78|111:175,1,140,4|2,1:0|1:0,0:0:0:0:
130,245,29986,1,10,0:0:0:0:
290,296,30412,2,0,L|286:381,2,70,2|2|8,1:0|3:0|0:0,0:0:0:0:
321,217,31050,2,0,B|401:201|390:253|483:232,1,140,2|2,1:0|1:0,0:0:0:0:
510,171,31688,1,10,0:0:0:0:
407,37,32114,2,0,P|340:22|255:51,1,140,2|10,1:0|0:0,0:0:0:0:
221,106,32752,6,0,B|217:158|217:158|232:192|232:192|226:258,1,140,2|2,1:0|1:0,0:0:0:0:
214,325,33390,1,10,0:0:0:0:
68,240,33816,2,0,L|-2:248,2,70,2|2|10,1:0|3:0|0:0,0:0:0:0:
126,180,34454,2,0,L|135:33,1,140,6|2,1:0|1:0,0:0:0:0:
215,16,35093,1,10,0:0:0:0:
319,147,35518,2,0,P|386:167|461:144,1,140,2|8,1:0|0:0,0:0:0:0:
499,79,36156,6,0,L|491:234,1,140,6|2,1:0|1:0,0:0:0:0:
482,302,36795,1,10,0:0:0:0:
320,346,37220,2,0,P|282:353|230:348,2,70,2|0|8,1:0|3:0|0:0,0:0:0:0:
369,277,37859,2,0,B|375:228|375:228|364:191|364:191|372:118,1,140,6|10,1:0|0:0,0:0:0:0:
377,55,38497,1,10,0:0:0:0:
214,98,38922,2,0,L|136:90,2,70,10|10|10,0:0|0:0|0:0,0:0:0:0:
263,166,39561,5,10,0:0:0:0:
256,192,39773,12,10,42327,0:0:0:0:
338,178,44667,6,0,P|275:171|194:229,1,140,2|10,0:0|0:0,0:0:0:0:
156,271,45305,1,10,0:0:0:0:
14,180,45731,2,0,L|20:97,1,70,10|10,0:0|0:0,0:0:0:0:
79,52,46156,1,0,0:0:0:0:
79,52,46369,2,0,P|136:76|216:62,1,140,0|10,0:0|0:0,0:0:0:0:
281,17,47007,2,0,L|363:25,1,70,10|10,0:0|0:0,0:0:0:0:
432,45,47433,2,0,B|442:95|416:132|416:132|429:181,1,140,0|8,3:0|1:0,0:0:0:0:
492,233,48071,6,0,P|446:211|341:247,1,140,6|10,1:0|0:0,0:0:0:0:
294,279,48710,1,2,1:0:0:0:
131,236,49135,2,0,L|122:156,1,70,2|8,1:0|0:0,0:0:0:0:
115,86,49561,1,2,1:0:0:0:
115,86,49773,2,0,P|177:55|266:73,1,140,2|10,1:0|0:0,0:0:0:0:
321,100,50412,2,0,L|399:89,1,70,2|10,1:0|0:0,0:0:0:0:
455,36,50837,2,0,P|424:98|442:187,1,140,0|0,0:0|1:0,0:0:0:0:
496,321,51688,6,0,L|353:310,1,140,2|0,1:0|1:0,0:0:0:0:
280,272,52327,2,0,P|234:305|148:312,2,140,10|10|10,0:0|0:0|0:0,0:0:0:0:
332,207,53390,2,0,L|459:216,2,105,2|2|8,1:0|0:0|0:0,0:0:0:0:
280,140,54242,2,0,P|234:107|148:100,1,140,2|8,0:0|0:0,0:0:0:0:
78,139,54880,6,0,B|66:234|66:234|102:292,1,140,6|10,1:0|0:0,0:0:0:0:
140,338,55518,1,2,1:0:0:0:
304,302,55944,2,0,L|391:308,1,70,2|8,0:0|0:0,0:0:0:0:
462,316,56369,1,2,1:0:0:0:
462,316,56582,2,0,P|485:259|464:175,1,140,6|10,1:0|0:0,0:0:0:0:
401,135,57220,2,0,L|309:143,1,70,2|10,1:0|0:0,0:0:0:0:
263,191,57646,2,0,L|115:179,1,140,0|2,0:0|1:0,0:0:0:0:
6,58,58497,6,0,P|44:31|156:23,1,140,6|0,1:0|1:0,0:0:0:0:
197,73,59135,2,0,L|321:70,2,105,10|2|2,0:0|1:0|1:0,0:0:0:0:
91,203,60199,6,0,B|74:254|74:254|92:314,2,105,2|2|2,1:0|1:0|1:0,0:0:0:0:
163,160,61050,2,0,P|209:181|316:158,1,140,2|10,1:0|3:0,0:0:0:0:
393,90,61795,6,0,L|405:225,1,105,6|2,1:0|1:0,0:0:0:0:
408,278,62327,2,0,P|459:284|506:308,2,105,10|6|2,0:0|1:0|1:0,0:0:0:0:
332,240,63178,2,0,P|300:281|256:310,2,105,10|6|2,0:0|1:0|1:0,0:0:0:0:
402,194,64029,2,0,L|533:207,2,105,10|6|0,0:0|1:0|1:0,0:0:0:0:
326,157,64880,1,8,0:0:0:0:
187,251,65305,6,0,P|141:269|67:265,1,105,6|2,1:0|0:0,0:0:0:0:
32,212,65837,1,2,1:0:0:0:
32,212,66050,2,0,P|39:163|79:101,1,105,2|10,1:0|0:0,0:0:0:0:
141,78,66582,1,0,1:0:0:0:
280,171,67007,2,0,L|390:162,1,105,6|2,1:0|1:0,0:0:0:0:
471,151,67539,1,10,0:0:0:0:
471,151,67752,2,0,P|483:99|464:41,1,105,4|10,1:0|0:0,0:0:0:0:
392,31,68284,1,10,0:0:0:0:
392,31,68497,6,0,P|333:61|238:46,1,140,4|2,1:0|0:0,0:0:0:0:
180,31,69135,2,0,L|35:44,2,140,6|6|0,3:0|3:0|0:0,0:0:0:0:
261,56,70199,2,0,P|291:115|276:210,1,140,6|10,1:0|3:0,0:0:0:0:
239,256,70837,1,10,3:0:0:0:
71,248,71263,2,0,P|47:206|53:123,1,105,6|4,3:0|3:0,0:0:0:0:
126,56,71901,6,0,B|177:74|177:74|285:51,1,140,6|0,1:0|1:0,0:0:0:0:
340,27,72539,2,0,P|392:27|468:75,2,140,14|14|4,0:0|3:0|3:0,0:0:0:0:
261,56,73603,2,0,B|253:111|253:111|267:140|267:140|256:214,1,140,6|14,1:0|3:0,0:0:0:0:
231,271,74242,1,10,0:0:0:0:
391,318,74667,2,0,P|442:301|473:245,1,105,14|14,3:0|0:0,0:0:0:0:
493,136,75305,6,0,B|432:113|418:155|354:131,1,140,6|2,1:0|1:0,0:0:0:0:
291,76,75944,2,0,P|316:116|294:224,2,140,14|6|12,0:0|3:0|0:0,0:0:0:0:
218,34,77007,2,0,B|169:60|169:60|60:49,1,140,6|6,1:0|3:0,0:0:0:0:
11,93,77646,1,14,0:0:0:0:
86,243,78071,2,0,P|127:255|198:243,1,105,14|14,0:0|0:0,0:0:0:0:
308,205,78710,6,0,L|464:216,1,140,6|2,1:0|1:0,0:0:0:0:
504,276,79348,1,14,0:0:0:0:
354,353,79773,2,0,P|301:360|243:345,1,105,6|14,3:0|3:0,0:0:0:0:
141,287,80412,2,0,L|149:129,1,140,6|6,1:0|3:0,0:0:0:0:
157,63,81050,1,10,0:0:0:0:
290,164,81476,2,0,P|346:176|396:163,1,105,14|14,0:0|0:0,0:0:0:0:
492,89,82114,6,0,L|502:243,1,140,14|2,1:2|1:0,0:0:0:0:
509,312,82752,1,14,0:0:0:0:
344,347,83178,2,0,B|295:335|295:335|180:346,1,140,6|10,3:0|0:0,0:0:0:0:
128,311,83816,2,0,P|106:244|135:163,1,140,14|6,1:2|3:0,0:0:0:0:
167,107,84454,1,10,0:0:0:0:
331,71,84880,2,0,L|447:79,1,105,6|0,3:0|1:0,0:0:0:0:
505,183,85518,6,0,P|448:204|352:170,1,140,6|0,1:0|1:0,0:0:0:0:
296,150,86156,1,14,0:0:0:0:
149,67,86582,2,0,L|138:181,1,105,6|6,3:0|3:0,0:0:0:0:
119,295,87220,2,0,P|174:324|269:314,1,140,6|6,1:0|3:0,0:0:0:0:
320,275,87859,1,14,0:0:0:0:
422,142,88284,2,0,L|411:19,1,105,14|14,0:0|0:0,0:0:0:0:
287,46,88922,6,0,B|248:67|248:67|124:49,1,140,14|6,1:2|3:0,0:0:0:0:
70,68,89561,2,0,P|38:110|40:205,2,140,14|6|8,0:0|3:0|0:0,0:0:0:0:
153,53,90625,2,0,P|201:73|247:156,1,140,6|6,1:0|3:0,0:0:0:0:
252,229,91263,2,0,L|406:220,1,140,14|6,0:0|3:0,0:0:0:0:
503,95,92114,1,10,0:0:0:0:
503,95,92327,6,0,P|468:56|372:42,1,140,4|8,1:0|0:0,0:0:0:0:
304,63,92965,1,12,3:0:0:0:
167,160,93390,2,0,L|184:311,1,140,12|10,3:0|0:0,0:0:0:0:
242,358,94029,2,0,P|162:330|90:355,1,140,6|0,1:0|1:0,0:0:0:0:
32,373,94667,1,12,0:0:0:0:
5,206,95093,2,0,L|21:73,1,105,0|10,1:0|0:0,0:0:0:0:
129,44,95731,6,0,B|205:37|189:83|280:67,1,140,6|10,1:0|0:0,0:0:0:0:
341,36,96369,2,0,P|403:34|464:57,2,105,2|6|8,1:0|1:0|0:0,0:0:0:0:
264,69,97220,2,0,L|275:188,2,105,2|6|8,1:0|1:0|0:0,0:0:0:0:
186,36,98071,2,0,P|124:34|63:57,2,105,0|6|8,1:0|1:0|0:0,0:0:0:0:
264,69,98922,1,0,1:0:0:0:
378,121,99242,6,0,L|370:259,1,105,6|8,1:0|0:0,0:0:0:0:
374,309,99773,2,0,P|431:325|491:309,2,105,0|6|8,1:0|1:0|0:0,0:0:0:0:
299,268,100625,2,0,P|242:252|182:268,2,105,2|6|8,1:0|1:0|0:0,0:0:0:0:
371,225,101476,1,2,1:0:0:0:
338,103,101795,2,0,L|214:99,1,105,6|8,1:0|0:0,0:0:0:0:
149,92,102327,1,8,0:0:0:0:
29,133,102646,6,0,P|13:180|43:254,1,105,6|8,1:0|0:0,0:0:0:0:
100,271,103178,2,0,L|90:378,2,105,2|6|8,1:0|1:0|0:0,0:0:0:0:
173,229,104029,2,0,P|218:253|289:256,2,105,2|6|8,1:0|1:0|0:0,0:0:0:0:
124,160,104880,2,0,P|79:184|8:187,2,105,2|6|8,1:0|1:0|0:0,0:0:0:0:
189,107,105731,1,2,1:0:0:0:
285,25,106050,6,0,L|406:32,1,105,6|8,1:0|0:0,0:0:0:0:
466,65,106582,2,0,P|489:112|500:178,2,105,2|6|8,1:0|1:0|0:0,0:0:0:0:
399,117,107433,1,2,1:0:0:0:
300,194,107752,6,0,L|123:176,1,175,6|8,1:0|0:0,0:0:0:0:
13,119,108603,2,0,P|69:63|180:65,1,175,6|8,1:0|0:0,0:0:0:0:
283,85,109454,2,0,L|469:73,1,175,6|8,1:0|0:0,0:0:0:0:
503,191,110305,2,0,P|493:265|408:324,1,175,6|8,1:0|0:0,0:0:0:0:
295,288,111156,6,0,L|177:295,1,105,6|12,1:0|0:0,0:0:0:0:
106,304,111688,1,12,0:0:0:0:
35,199,112007,2,0,P|26:150|47:81,1,105,12|12,0:0|0:0,0:0:0:0:
99,36,112539,1,4,3:0:0:0:
182,23,112752,1,4,1:0:0:0:
73,163,119561,6,0,P|135:142|258:241,1,210,4|8,1:0|0:0,0:0:0:0:
293,293,120412,1,2,0:0:0:0:
293,293,120624,2,0,L|451:281,1,140,10|10,0:0|0:0,0:0:0:0:
497,228,121263,2,0,P|507:163|480:79,1,140,2|0,1:0|0:0,0:0:0:0:
420,41,121901,1,8,0:0:0:0:
253,64,122327,2,0,L|163:51,2,70,10|2|10,0:0|0:0|0:0,0:0:0:0:
291,138,122965,6,0,P|245:180|154:177,1,140,2|0,1:0|0:0,0:0:0:0:
97,142,123603,1,10,0:0:0:0:
21,292,124029,2,0,L|181:306,1,140,10|10,0:0|0:0,0:0:0:0:
222,361,124667,2,0,L|382:347,1,140,6|8,1:0|1:2,0:0:0:0:
444,334,125305,1,8,1:2:0:0:
492,172,125731,2,0,P|495:139|491:90,2,70,8|8|10,1:2|1:2|1:2,0:0:0:0:
412,198,126369,6,0,P|379:176|255:161,1,140,6|10,1:0|0:0,0:0:0:0:
207,194,127007,2,0,L|137:187,1,70,10|10,0:0|0:0,0:0:0:0:
78,126,127433,2,0,L|8:133,2,70,10|10|0,0:0|0:0|0:0,0:0:0:0:
304,15,128497,5,14,0:0:0:0:
304,15,128710,2,0,P|322:52|320:100,1,70,14|6,0:0|3:0,0:0:0:0:
256,131,129135,2,0,P|317:116|416:154,1,140,2|10,1:0|0:0,0:0:0:0:
451,192,129773,2,0,L|442:339,1,140,14|10,1:2|0:0,0:0:0:0:
363,361,130412,2,0,P|324:361|294:352,1,70,2|8,1:0|0:0,0:0:0:0:
241,286,130837,2,0,P|167:272|92:301,1,140,0|2,0:0|1:0,0:0:0:0:
28,142,131688,6,0,P|102:156|177:127,1,140,2|0,1:0|1:0,0:0:0:0:
217,72,132327,2,0,L|365:84,1,140,10|8,0:0|0:0,0:0:0:0:
440,88,132965,1,2,1:0:0:0:
498,245,133390,2,0,P|489:326|471:356,2,105,2|2|10,1:0|0:0|0:0,0:0:0:0:
421,209,134242,2,0,B|377:227|377:227|264:213,1,140,2|8,0:0|0:0,0:0:0:0:
238,145,134880,6,0,P|195:119|100:128,1,140,6|10,1:0|0:0,0:0:0:0:
37,169,135518,1,2,1:0:0:0:
103,323,135944,2,0,L|204:316,1,70,0|8,0:0|0:0,0:0:0:0:
235,262,136369,1,2,1:0:0:0:
235,262,136582,2,0,P|293:227|391:248,1,140,6|10,1:0|0:0,0:0:0:0:
445,246,137220,2,0,L|451:164,1,70,2|10,1:0|0:0,0:0:0:0:
487,100,137646,2,0,P|429:135|331:114,1,140,0|0,0:0|1:0,0:0:0:0:
213,45,138497,6,0,L|51:57,1,140,6|0,1:0|0:0,0:0:0:0:
22,122,139135,2,0,P|7:187|24:272,1,140,10|8,0:0|0:0,0:0:0:0:
83,311,139773,1,2,1:0:0:0:
249,288,140199,2,0,B|295:310|295:310|367:308,2,105,6|2|2,1:0|1:0|1:0,0:0:0:0:
203,217,141050,2,0,L|211:71,1,140,2|14,1:0|3:0,0:0:0:0:
328,31,141795,6,0,P|369:54|409:125,1,105,6|2,1:0|1:0,0:0:0:0:
388,183,142327,2,0,P|347:207|266:206,2,105,10|6|6,0:0|1:0|1:0,0:0:0:0:
466,154,143178,2,0,P|490:194|489:275,2,105,10|6|2,0:0|1:0|1:0,0:0:0:0:
402,100,144029,1,10,0:0:0:0:
278,123,144348,2,0,P|203:129|144:108,1,105,2|0,1:0|1:0,0:0:0:0:
107,72,144880,1,8,0:0:0:0:
12,210,145305,6,0,L|23:334,1,105,2|2,1:0|1:0,0:0:0:0:
103,353,145837,1,2,1:0:0:0:
103,353,146050,2,0,P|171:334|224:342,1,105,2|10,1:0|0:0,0:0:0:0:
286,356,146582,1,0,1:0:0:0:
437,283,147007,2,0,L|427:160,1,105,6|6,1:0|1:0,0:0:0:0:
367,129,147539,1,10,0:0:0:0:
367,129,147752,2,0,P|303:139|251:125,1,105,6|10,1:0|0:0,0:0:0:0:
206,79,148284,1,10,0:0:0:0:
206,79,148497,6,0,P|231:141|203:225,1,140,14|0,1:2|3:0,0:0:0:0:
144,256,149135,1,10,0:0:0:0:
144,256,149348,2,0,L|54:262,1,70,2|0,1:0|1:0,0:0:0:0:
204,375,149986,1,10,0:0:0:0:
204,375,150199,2,0,P|268:373|339:318,1,140,2|2,3:0|3:0,0:0:0:0:
378,263,150837,2,0,L|491:276,2,105,10|2|2,0:0|0:0|3:0,0:0:0:0:
344,191,151688,1,8,0:0:0:0:
344,191,151901,6,0,P|278:157|196:167,1,140,4|0,1:0|3:0,0:0:0:0:
136,185,152539,1,10,0:0:0:0:
136,185,152752,2,0,L|129:102,1,70,2|0,3:0|1:0,0:0:0:0:
267,18,153390,1,10,0:0:0:0:
267,18,153603,2,0,P|333:52|415:42,1,140,2|2,3:0|3:0,0:0:0:0:
476,19,154242,1,10,0:0:0:0:
507,183,154667,2,0,L|501:267,1,70,2|10,1:0|0:0,0:0:0:0:
429,294,155093,1,10,0:0:0:0:
429,294,155305,6,0,P|355:268|267:294,1,140,6|0,1:0|1:0,0:0:0:0:
217,303,155944,1,10,0:0:0:0:
217,303,156156,2,0,L|207:223,1,70,2|0,3:0|1:0,0:0:0:0:
184,71,156795,1,10,0:0:0:0:
184,71,157007,2,0,P|252:43|336:67,1,140,2|2,3:0|3:0,0:0:0:0:
381,107,157646,2,0,L|504:93,2,105,10|2|2,0:0|0:0|3:0,0:0:0:0:
322,167,158497,1,8,0:0:0:0:
322,167,158710,6,0,P|305:223|339:314,1,140,6|2,1:0|3:0,0:0:0:0:
387,358,159348,1,10,0:0:0:0:
509,243,159773,2,0,L|502:150,1,70,2|2,1:0|3:0,0:0:0:0:
494,93,160199,1,8,0:0:0:0:
494,93,160412,2,0,P|419:98|350:68,1,140,2|2,3:0|3:0,0:0:0:0:
296,19,161050,1,10,0:0:0:0:
141,85,161476,2,0,L|136:166,1,70,2|10,1:0|3:0,0:0:0:0:
67,201,161901,1,10,0:0:0:0:
67,201,162114,6,0,P|141:199|206:246,1,140,4|4,1:0|3:0,0:0:0:0:
252,303,162752,1,10,0:0:0:0:
252,303,162965,2,0,L|246:372,1,70,6|0,1:0|0:0,0:0:0:0:
405,317,163603,1,10,0:0:0:0:
405,317,163816,2,0,L|393:166,1,140,6|6,1:0|3:0,0:0:0:0:
381,94,164454,2,0,P|436:92|482:68,2,105,10|10|10,0:0|0:0|0:0,0:0:0:0:
303,60,165305,1,10,0:0:0:0:
303,60,165518,6,0,L|146:67,1,140,0|4,1:0|3:0,0:0:0:0:
95,115,166156,1,10,0:0:0:0:
95,115,166369,2,0,P|89:161|95:189,1,70,6|0,1:0|0:0,0:0:0:0:
200,320,167007,1,10,0:0:0:0:
200,320,167220,2,0,B|246:309|246:309|361:321,1,140,6|8,3:0|0:0,0:0:0:0:
422,326,167859,1,0,1:0:0:0:
490,172,168284,2,0,L|485:85,1,70,0|10,1:0|0:0,0:0:0:0:
430,48,168710,1,6,3:0:0:0:
430,48,168922,1,6,1:0:0:0:
256,192,169135,12,6,171476,1:0:0:0:
471,115,178390,6,0,P|396:97|297:135,1,175,4|0,1:0|1:0,0:0:0:0:
215,38,179242,2,0,P|140:56|41:18,1,175,4|0,1:0|1:0,0:0:0:0:
14,146,180093,6,0,L|27:338,1,175,4|0,1:0|1:0,0:0:0:0:
140,374,180944,2,0,L|151:199,1,175,4|0,1:0|1:0,0:0:0:0:
214,89,181795,6,0,P|285:86|375:140,1,175,0|0,1:0|1:0,0:0:0:0:
490,183,182646,2,0,P|419:180|329:234,1,175,0|0,1:0|1:0,0:0:0:0:
244,322,183497,6,0,L|125:309,1,105,0|4,1:0|1:0,0:0:0:0:
56,299,184029,1,8,0:0:0:0:
13,180,184348,2,0,P|7:128|26:70,1,105,4|4,1:0|1:0,0:0:0:0:
93,33,184880,1,8,0:0:0:0:
211,76,185199,2,0,B|264:90|264:90|327:81,1,105,4|4,1:0|1:0,0:0:0:0:
396,66,185731,1,8,0:0:0:0:
382,191,186050,2,0,B|329:177|329:177|266:186,1,105,0|4,1:0|3:0,0:0:0:0:
202,218,186582,2,0,P|127:244|82:234,1,105,8|4,0:0|1:0,0:0:0:0:
256,192,187220,12,8,190305,0:0:0:0:
