osu file format v14

[General]
AudioFilename: audio.mp3
AudioLeadIn: 1500
PreviewTime: 232528
Countdown: 0
SampleSet: Soft
StackLeniency: 0.7
Mode: 0
LetterboxInBreaks: 0
WidescreenStoryboard: 1

[Editor]
DistanceSpacing: 1.2
BeatDivisor: 4
GridSize: 4
TimelineZoom: 1.3

[Metadata]
Title:Hajimari no Sayounara
TitleUnicode:はじまりのサヨウナラ
Artist:fhana
ArtistUnicode:fhána
Creator:Yohanes
Version:Fycho's Normal
Source:
Tags:sayonara tiny lamp ぎんぎつね gingitsune トワナ towana goodbye beginnings Unsfamiliar Fycho Laurier japanese pop jpop j-pop outside of melancholy
BeatmapID:3262663
BeatmapSetID:1561508

[Difficulty]
HPDrainRate:3
CircleSize:3
OverallDifficulty:3
ApproachRate:4
SliderMultiplier:1.4
SliderTickRate:1

[Events]
//Background and Video events
0,0,"BG.jpg",0,0
//Break Periods
2,80895,98041
2,187561,204708
//Storyboard Layer 0 (Background)
//Storyboard Layer 1 (Fail)
//Storyboard Layer 2 (Pass)
//Storyboard Layer 3 (Foreground)
//Storyboard Layer 4 (Overlay)
//Storyboard Sound Samples

[TimingPoints]
695,666.666666666667,4,2,3,40,1,0
19361,-100,4,2,1,60,0,0
21695,-100,4,2,3,60,0,0
22028,-100,4,2,1,60,0,0
47695,-100,4,2,2,70,0,0
59361,-100,4,2,1,80,0,1
60028,-100,4,2,1,80,0,1
69861,-100,4,2,1,80,0,0
70028,-100,4,2,1,80,0,1
70528,-100,4,2,1,80,0,1
78028,-100,4,2,1,50,0,0
139361,-100,4,2,1,80,0,1
140028,-100,4,2,1,80,0,1
149861,-100,4,2,1,80,0,0
150028,-100,4,2,1,80,0,1
150528,-100,4,2,1,80,0,1
158028,-100,4,2,1,60,0,0
208695,-133.333333333333,4,2,3,30,0,0
229528,-133.333333333333,4,2,3,5,0,0
232695,-100,4,2,1,80,0,1
243195,-100,4,2,1,80,0,0
243361,-100,4,2,1,80,0,1
251361,-100,4,2,1,60,0,0
275361,-100,4,2,3,30,0,0
280695,-100,4,2,1,30,0,0
280861,-100,4,2,1,5,0,0

[Colours]
Combo1 : 255,157,255
Combo2 : 55,155,255
Combo3 : 178,178,178
Combo4 : 138,197,255
Combo5 : 255,106,106

[HitObjects]
361,43,695,6,0,P|367:87|374:184,1,140,2|2,0:0|0:0,0:0:0:0:
341,260,1695,1,2,0:3:0:0:
273,309,2028,2,0,P|195:330|133:308,1,140,2|2,0:0|0:0,0:0:0:0:
115,232,3028,1,8,0:3:0:0:
167,166,3361,6,0,P|172:105|154:53,2,105,2|0|2,0:0|0:0|0:3,0:0:0:0:
116,233,4695,2,0,L|100:317,1,70,2|0,0:0|0:0,0:0:0:0:
184,321,5361,2,0,L|197:252,1,70,2|8,0:0|0:3,0:0:0:0:
260,196,6028,6,0,B|310:182|310:182|355:199|414:180,2,140,2|2|2,0:0|0:0|0:0,0:0:0:0:
286,275,7695,1,2,0:3:0:0:
352,326,8028,2,0,P|390:328|419:318,1,70,2|8,0:0|0:3,0:0:0:0:
476,255,8695,6,0,P|469:204|481:152,2,105,2|0|2,0:0|0:0|0:3,0:0:0:0:
392,247,10028,2,0,P|320:214|240:239,1,140,2|2,0:0|0:0,0:0:0:0:
147,90,11361,6,0,L|300:106,1,140,2|2,0:0|0:0,0:0:0:0:
369,93,12361,2,0,P|381:47|379:14,2,70,2|2|2,0:3|0:0|0:3,0:0:0:0:
364,177,13361,2,0,L|284:165,1,70,2|8,0:0|0:3,0:0:0:0:
233,109,14028,6,0,P|154:99|91:139,1,140,2|2,0:0|0:0,0:0:0:0:
124,207,15028,2,0,P|126:273|121:355,1,140,2|2,0:3|0:3,0:0:0:0:
205,339,16028,1,2,0:0:0:0:
284,312,16361,1,8,0:3:0:0:
364,336,16695,6,0,P|400:297|389:213,2,140,2|2|2,0:0|0:0|0:0,0:0:0:0:
147,79,19361,6,0,L|259:62,2,105,2|0|2,0:0|3:0|0:3,0:0:0:0:
89,140,20695,2,0,P|82:170|88:216,1,70,2|2,0:0|0:0,0:0:0:0:
130,279,21361,2,0,L|216:279,1,70,0|8,0:0|0:3,0:0:0:0:
283,287,22028,6,0,P|359:293|392:330,2,105,2|2|0,0:0|0:0|0:0,0:0:0:0:
171,160,23695,1,2,0:0:0:0:
254,154,24028,2,0,L|264:79,1,70,0|4,0:0|0:3,0:0:0:0:
341,54,24695,6,0,P|392:66|451:56,2,105,2|0|2,0:0|3:0|0:3,0:0:0:0:
339,137,26028,2,0,P|348:164|348:207,1,70,0|2,0:0|0:0,0:0:0:0:
314,282,26695,2,0,L|305:359,1,70,0|0,0:0|0:0,0:0:0:0:
225,305,27361,6,0,P|154:299|87:344,1,140,2|0,0:0|0:0,0:0:0:0:
144,171,28695,2,0,P|215:177|282:132,1,140,0|2,0:0|0:3,0:0:0:0:
345,101,29695,1,0,0:0:0:0:
411,152,30028,6,0,B|423:204|423:204|413:269,2,105,2|0|2,0:0|3:0|0:3,0:0:0:0:
344,100,31361,1,0,0:0:0:0:
271,142,31695,1,2,0:0:0:0:
226,213,32028,2,0,L|152:204,1,70,0|0,0:0|0:0,0:0:0:0:
99,142,32695,6,0,P|87:95|116:31,2,105,2|2|0,0:0|0:0|0:0,0:0:0:0:
125,307,34361,2,0,L|56:319,2,70,2|0|2,0:0|0:0|0:3,0:0:0:0:
208,314,35361,6,0,P|243:255|233:187,1,140,2|0,0:0|0:0,0:0:0:0:
276,115,36361,1,2,0:3:0:0:
192,104,36695,2,0,P|121:116|33:129,1,140,0|0,0:0|0:0,0:0:0:0:
71,208,37695,1,0,0:0:0:0:
146,243,38028,6,0,L|256:227,2,105,6|2|2,0:0|0:0|0:0,0:0:0:0:
237,101,39695,1,2,0:0:0:0:
311,139,40028,2,0,P|355:152|392:155,1,70,0|0,0:0|0:0,0:0:0:0:
462,159,40695,6,0,P|479:111|469:60,2,105,2|2|2,0:0|0:0|0:0,0:0:0:0:
424,235,42028,1,0,0:0:0:0:
340,226,42361,2,0,P|256:226|206:264,1,140,2|0,0:0|0:0,0:0:0:0:
129,238,43361,6,0,L|134:109,2,105,2|2|2,0:0|0:0|0:0,0:0:0:0:
211,256,44695,2,0,L|204:351,1,70,0|2,0:0|0:0,0:0:0:0:
285,352,45361,2,0,L|290:282,1,70,0|2,0:0|0:0,0:0:0:0:
370,257,46028,6,0,P|420:200|449:168,2,105,2|2|2,0:0|0:0|0:0,0:0:0:0:
286,243,47361,2,0,L|193:237,2,70,0|2|0,0:0|0:0|0:0,0:0:0:0:
297,159,48361,1,2,0:0:0:0:
238,98,48695,6,0,P|177:91|94:81,1,140,6|0,0:0|0:0,0:0:0:0:
41,142,49695,1,8,0:0:0:0:
99,202,50028,2,0,P|79:264|59:351,1,140,0|8,0:0|0:0,0:0:0:0:
145,328,51028,1,0,0:0:0:0:
222,296,51361,6,0,L|294:290,1,70,2|2,0:0|0:3,0:0:0:0:
360,241,52028,2,0,L|432:235,1,70,2|2,0:3|0:3,0:0:0:0:
406,154,52695,2,0,L|334:160,1,70,0|2,0:0|0:3,0:0:0:0:
268,209,53361,2,0,L|196:215,1,70,8|8,0:0|0:0,0:0:0:0:
117,192,54028,6,0,P|102:124|122:57,1,140,2|2,0:0|0:0,0:0:0:0:
206,55,55028,1,2,0:3:0:0:
270,108,55361,2,0,L|342:93,1,70,2|2,0:0|0:3,0:0:0:0:
420,112,56028,2,0,L|418:202,1,70,2|2,0:0|0:3,0:0:0:0:
335,197,56695,6,0,P|324:266|322:336,1,140,2|2,0:0|0:0,0:0:0:0:
239,320,57695,2,0,P|180:308|156:311,1,70,2|2,0:3|0:0,0:0:0:0:
87,318,58361,1,8,0:0:0:0:
68,235,58695,1,8,0:0:0:0:
139,191,59028,1,10,0:0:0:0:
222,200,59361,6,0,P|291:191|361:186,1,140,6|8,0:0|0:0,0:0:0:0:
440,215,60361,1,2,0:3:0:0:
483,143,60695,2,0,P|492:104|494:63,2,70,0|2|8,0:0|0:0|0:0,0:0:0:0:
440,215,61695,1,0,0:0:0:0:
357,199,62028,6,0,P|348:248|351:348,1,140,2|8,0:0|0:0,0:0:0:0:
267,319,63028,1,0,0:0:0:0:
243,238,63361,2,0,L|165:249,1,70,2|2,0:3|0:0,0:0:0:0:
132,322,64028,2,0,L|64:305,1,70,8|0,0:0|0:0,0:0:0:0:
38,226,64695,6,0,P|64:176|145:160,2,140,0|8|0,0:0|0:0|0:0,0:0:0:0:
60,306,66361,1,2,0:0:0:0:
140,331,66695,2,0,L|236:326,1,70,8|0,0:0|0:0,0:0:0:0:
291,344,67361,6,0,P|364:329|394:267,1,140,2|8,0:0|0:0,0:0:0:0:
397,191,68361,1,0,0:0:0:0:
333,135,68695,2,0,L|344:58,1,70,0|2,0:0|0:0,0:0:0:0:
259,62,69361,2,0,L|247:133,1,70,8|0,0:0|0:0,0:0:0:0:
201,201,70028,6,0,P|121:220|47:186,1,140,6|8,0:0|0:0,0:0:0:0:
19,133,71028,1,2,0:3:0:0:
85,81,71361,2,0,P|92:40|96:1,2,70,0|2|8,0:0|0:0|0:0,0:0:0:0:
169,79,72361,1,0,0:0:0:0:
217,147,72695,6,0,P|266:156|367:138,1,140,2|8,0:0|0:0,0:0:0:0:
437,129,73695,2,0,P|463:175|452:279,1,140,2|2,0:0|0:0,0:0:0:0:
393,310,74695,2,0,L|299:287,1,70,8|0,0:0|0:0,0:0:0:0:
246,262,75361,6,0,P|186:240|114:268,2,140,2|8|0,0:0|0:0|0:0,0:0:0:0:
296,194,77028,1,2,0:0:0:0:
343,124,77361,2,0,L|339:39,2,70,8|0|6,0:0|0:0|0:0,0:0:0:0:
256,192,78195,12,4,80695,0:0:0:0:
154,89,99361,6,0,P|137:157|130:227,1,140,6|0,0:0|0:0,0:0:0:0:
277,308,100695,2,0,P|293:240|300:170,1,140,0|8,0:0|0:0,0:0:0:0:
297,86,101695,2,0,L|382:78,1,70,0|2,0:0|0:0,0:0:0:0:
468,5,102528,6,0,L|471:60,1,35,0|8,0:0|0:0,0:0:0:0:
483,123,103028,1,0,0:0:0:0:
411,166,103361,2,0,L|319:161,2,70,0|2|8,0:0|0:0|0:0,0:0:0:0:
443,243,104361,1,0,0:0:0:0:
393,311,104695,6,0,L|223:318,1,140,2|8,0:0|0:0,0:0:0:0:
169,321,105695,1,2,0:3:0:0:
135,243,106028,2,0,B|66:225|66:225|-10:238,1,140,0|8,0:0|0:0,0:0:0:0:
7,152,107028,2,0,P|12:110|32:75,1,70,0|2,0:0|0:0,0:0:0:0:
183,33,108028,6,0,L|264:32,1,70,8|0,0:0|0:0,0:0:0:0:
298,102,108695,2,0,L|304:149,2,35,0|8|2,0:0|0:0|0:0,0:0:0:0:
216,120,109361,2,0,L|212:213,1,70,8|0,0:0|0:0,0:0:0:0:
217,273,110028,6,0,P|259:311|347:303,1,140,6|8,0:0|0:0,0:0:0:0:
397,247,111028,2,0,L|403:170,1,70,2|0,0:3|0:0,0:0:0:0:
327,139,111695,1,2,0:0:0:0:
244,124,112028,2,0,P|235:74|233:51,1,70,8|0,0:0|0:0,0:0:0:0:
316,35,112695,6,0,L|458:58,1,140,2|8,0:0|0:0,0:0:0:0:
463,140,113695,2,0,P|439:196|437:285,1,140,0|0,0:0|0:0,0:0:0:0:
351,281,114695,2,0,L|338:360,1,70,8|2,0:0|0:0,0:0:0:0:
267,307,115361,6,0,P|181:278|131:289,1,140,2|8,0:0|0:0,0:0:0:0:
68,235,116361,1,4,0:3:0:0:
118,168,116695,2,0,P|128:134|123:99,1,70,0|2,0:0|0:0,0:0:0:0:
46,66,117361,2,0,P|36:99|41:134,1,70,8|2,0:0|0:0,0:0:0:0:
52,217,118028,6,0,P|41:268|32:363,1,140,6|8,0:0|0:0,0:0:0:0:
113,333,119028,2,0,P|241:318|261:326,1,140,0|2,0:0|0:0,0:0:0:0:
310,264,120028,1,8,0:0:0:0:
380,308,120361,1,0,0:0:0:0:
441,250,120695,6,0,P|450:165|462:98,1,140,2|8,0:0|0:0,0:0:0:0:
380,81,121695,2,0,P|285:99|245:87,1,140,2|2,0:3|0:0,0:0:0:0:
167,54,122695,2,0,P|151:85|145:119,1,70,8|0,0:0|0:0,0:0:0:0:
168,200,123361,6,0,P|183:329|183:342,1,140,2|8,0:0|0:0,0:0:0:0:
101,360,124361,2,0,P|95:315|94:282,1,70,0|0,0:0|0:0,0:0:0:0:
52,217,125028,2,0,L|68:134,1,70,2|8,0:0|0:0,0:0:0:0:
129,93,125695,1,0,0:0:0:0:
190,150,126028,6,0,P|259:164|332:160,1,140,2|8,0:0|0:0,0:0:0:0:
366,85,127028,1,2,0:3:0:0:
430,138,127361,2,0,P|416:207|420:280,1,140,0|8,0:0|0:0,0:0:0:0:
341,307,128361,1,8,0:0:0:0:
261,335,128695,5,2,0:0:0:0:
204,273,129028,2,0,L|211:186,2,70,0|8|0,0:0|0:0|0:0,0:0:0:0:
119,272,130028,2,0,L|132:125,1,140,0|8,0:0|0:0,0:0:0:0:
203,89,131028,1,0,0:0:0:0:
247,159,131361,6,0,P|319:190|384:172,1,140,2|8,0:0|0:0,0:0:0:0:
436,117,132361,1,2,0:0:0:0:
397,42,132695,2,0,L|324:29,1,70,2|0,0:0|0:0,0:0:0:0:
247,53,133361,2,0,P|186:80|169:81,1,70,8|0,0:0|0:0,0:0:0:0:
98,74,134028,6,0,P|81:141|75:211,2,140,2|8|2,0:0|0:0|0:0,0:0:0:0:
175,109,135695,1,0,0:0:0:0:
246,153,136028,2,0,P|285:151|325:141,1,70,8|0,0:0|0:0,0:0:0:0:
399,150,136695,6,0,P|426:92|497:62,2,140,2|8|2,0:0|0:0|0:0,0:0:0:0:
423,230,138361,2,0,L|422:299,1,70,2|8,0:0|0:0,0:0:0:0:
338,305,139028,1,2,0:0:0:0:
286,238,139361,6,0,P|217:247|147:252,1,140,6|8,0:0|0:0,0:0:0:0:
105,178,140361,1,2,0:3:0:0:
27,144,140695,2,0,P|33:109|34:74,2,70,0|2|8,0:0|0:0|0:0,0:0:0:0:
28,228,141695,1,0,0:0:0:0:
85,289,142028,6,0,P|134:298|234:295,1,140,2|8,0:0|0:0,0:0:0:0:
259,220,143028,1,2,0:3:0:0:
337,249,143361,2,0,L|415:238,1,70,0|2,0:0|0:0,0:0:0:0:
446,165,144028,2,0,L|437:87,1,70,8|0,0:0|0:0,0:0:0:0:
363,56,144695,6,0,P|292:55|256:122,2,140,2|8|0,0:0|0:0|0:0,0:0:0:0:
423,113,146361,1,2,0:0:0:0:
399,193,146695,2,0,L|303:198,1,70,8|2,0:0|0:0,0:0:0:0:
245,200,147361,6,0,P|172:215|117:164,1,140,2|8,0:0|0:0,0:0:0:0:
89,100,148361,1,0,0:0:0:0:
38,167,148695,2,0,L|27:244,1,70,2|2,0:3|0:0,0:0:0:0:
101,277,149361,1,8,0:0:0:0:
179,308,149695,1,4,0:3:0:0:
251,265,150028,6,0,P|331:246|405:280,1,140,4|8,0:0|0:0,0:0:0:0:
465,244,151028,1,0,0:0:0:0:
459,160,151361,2,0,P|463:125|469:90,2,70,2|2|8,0:3|0:0|0:0,0:0:0:0:
382,125,152361,1,2,0:3:0:0:
313,173,152695,6,0,P|254:165|169:132,1,140,2|8,0:0|0:0,0:0:0:0:
157,55,153695,2,0,P|86:45|43:109,1,140,2|2,0:0|0:0,0:0:0:0:
98,157,154695,2,0,L|79:225,1,70,8|2,0:0|0:3,0:0:0:0:
125,294,155361,6,0,P|185:316|257:288,2,140,2|8|2,0:0|0:0|0:3,0:0:0:0:
123,210,157028,1,2,0:0:0:0:
171,141,157361,2,0,L|161:70,1,70,8|0,0:0|0:0,0:0:0:0:
246,87,158028,6,0,P|313:87|406:88,2,140,6|8|0,0:0|0:0|0:0,0:0:0:0:
182,141,159695,2,0,L|96:144,1,70,8|2,0:0|0:3,0:0:0:0:
260,235,160695,6,0,L|404:237,2,140,2|8|0,0:0|0:0|0:0,0:0:0:0:
176,237,162361,2,0,L|166:331,1,70,2|8,0:0|0:0,0:0:0:0:
248,334,163028,1,2,0:0:0:0:
312,279,163361,6,0,L|305:122,2,140,6|10|2,0:0|0:0|0:0,0:0:0:0:
248,333,165028,1,2,0:3:0:0:
171,298,165361,2,0,L|94:291,1,70,10|2,0:0|0:3,0:0:0:0:
53,222,166028,6,0,B|43:147|72:122|72:122|117:109,2,140,6|10|10,0:0|0:0|0:0,0:0:0:0:
133,247,167695,2,0,L|214:242,2,70,0|10|4,0:0|0:0|0:3,0:0:0:0:
120,330,168695,6,0,L|280:333,1,140,6|8,0:0|0:0,0:0:0:0:
394,231,170028,2,0,P|399:195|383:153,1,70,2|2,0:3|0:0,0:0:0:0:
318,118,170695,2,0,B|281:124|246:128,1,70,8|2,0:0|0:3,0:0:0:0:
192,191,171361,6,0,P|111:182|64:132,1,140,6|8,0:0|0:0,0:0:0:0:
190,25,172695,2,0,L|267:7,2,70,2|2|8,0:3|0:0|0:0,0:0:0:0:
90,160,174028,6,0,P|79:215|77:304,1,140,2|8,0:0|0:0,0:0:0:0:
244,311,175361,1,2,0:3:0:0:
363,193,176028,2,0,P|397:184|432:184,1,70,8|0,0:0|0:0,0:0:0:0:
435,100,176695,6,0,L|277:89,1,140,2|8,0:0|0:0,0:0:0:0:
128,108,178028,2,0,P|111:163|122:252,1,140,2|8,0:3|0:0,0:0:0:0:
187,292,179028,1,8,0:0:0:0:
265,321,179361,6,0,L|344:309,1,70,6|8,0:0|0:0,0:0:0:0:
409,272,180028,2,0,L|411:180,1,70,2|8,0:0|0:0,0:0:0:0:
420,118,180695,2,0,L|337:107,1,70,2|8,0:0|0:0,0:0:0:0:
275,146,181361,2,0,L|192:158,1,70,2|8,0:0|0:0,0:0:0:0:
124,179,182028,6,0,P|116:91|161:37,1,140,6|8,0:0|0:0,0:0:0:0:
226,58,183028,1,8,0:0:0:0:
289,113,183361,2,0,P|297:201|252:255,1,140,8|8,0:0|0:0,0:0:0:0:
199,287,184361,2,0,L|189:366,1,70,8|4,0:0|0:0,0:0:0:0:
256,192,184861,12,4,187361,0:0:0:0:
256,192,206028,12,4,208695,0:0:0:0:
256,92,210028,5,2,0:0:0:0:
124,196,211361,1,2,0:0:0:0:
256,300,212695,1,2,0:0:0:0:
382,189,214028,6,0,P|399:84|363:49,1,157.500006008148,2|0,0:0|0:0,0:0:0:0:
328,62,215361,2,0,B|306:65|280:52|280:52|261:88|212:92|212:92|174:65,1,157.500006008148,2|0,0:0|0:0,0:0:0:0:
149,78,216695,6,0,L|22:84,1,105.000004005432,2|0,0:0|0:0,0:0:0:0:
25,207,218028,2,0,L|129:202,1,105.000004005432,2|0,0:0|0:0,0:0:0:0:
255,191,219361,5,2,0:0:0:0:
409,257,220695,1,2,0:0:0:0:
261,336,222028,2,0,P|208:331|177:329,2,78.7500030040742,2|0|2,0:0|0:0|0:0,0:0:0:0:
399,178,224695,6,0,L|224:201,1,157.500006008148,2|0,0:0|0:0,0:0:0:0:
201,204,226028,2,0,L|94:193,1,105.000004005432,2|2,0:0|0:0,0:0:0:0:
99,67,227361,6,0,P|196:38|254:78,1,157.500006008148,2|0,0:0|0:0,0:0:0:0:
266,95,228695,2,0,L|370:78,1,105.000004005432,2|2,0:0|0:0,0:0:0:0:
256,192,229528,12,0,232028,0:0:0:0:
226,146,232695,6,0,P|295:137|365:132,1,140,6|8,0:0|0:0,0:0:0:0:
446,111,233695,1,2,0:3:0:0:
501,174,234028,2,0,P|500:208|494:244,2,70,0|2|8,0:0|0:0|0:0,0:0:0:0:
420,198,235028,1,0,0:0:0:0:
360,257,235361,6,0,P|300:263|211:251,1,140,2|8,0:0|0:0,0:0:0:0:
148,210,236361,1,2,0:3:0:0:
141,126,236695,2,0,L|63:137,1,70,0|2,0:0|0:0,0:0:0:0:
35,211,237361,2,0,L|44:289,1,70,8|2,0:0|0:3,0:0:0:0:
107,334,238028,6,0,P|178:335|238:302,2,140,2|8|0,0:0|0:0|0:0,0:0:0:0:
82,253,239695,1,2,0:0:0:0:
132,185,240028,2,0,L|118:99,1,70,8|2,0:0|0:0,0:0:0:0:
195,77,240695,6,0,P|257:101|339:95,1,140,2|8,0:0|0:0,0:0:0:0:
391,154,241695,1,2,0:3:0:0:
461,199,242028,2,0,P|473:165|470:121,1,70,0|2,0:0|0:0,0:0:0:0:
421,64,242695,1,8,0:0:0:0:
336,71,243028,1,12,0:0:0:0:
265,116,243361,6,0,P|185:135|111:101,1,140,4|8,0:0|0:0,0:0:0:0:
49,100,244361,1,0,0:0:0:0:
39,183,244695,2,0,P|35:218|29:253,2,70,0|2|8,0:0|0:0|0:0,0:0:0:0:
115,218,245695,1,2,0:3:0:0:
184,265,246028,6,0,P|243:273|321:248,1,140,2|8,0:0|0:0,0:0:0:0:
399,227,247028,2,0,P|409:156|348:110,1,140,2|2,0:0|0:0,0:0:0:0:
300,56,248028,2,0,L|212:46,1,70,8|2,0:0|0:3,0:0:0:0:
179,114,248695,6,0,P|104:128|29:115,2,140,2|8|0,0:0|0:0|0:0,0:0:0:0:
253,75,250361,1,2,0:0:0:0:
330,108,250695,2,0,L|317:176,1,70,8|0,0:0|0:0,0:0:0:0:
292,255,251361,6,0,P|225:255|132:254,2,140,6|8|0,0:0|0:0|0:0,0:0:0:0:
311,336,253028,2,0,L|397:333,1,70,2|8,0:0|0:0,0:0:0:0:
442,276,253695,1,0,0:0:0:0:
418,195,254028,6,0,P|412:125|408:55,1,140,2|8,0:0|0:0,0:0:0:0:
249,108,255361,2,0,P|254:177|258:247,1,140,0|8,0:0|0:0,0:0:0:0:
95,207,256695,6,0,L|105:127,1,70,2|2,0:0|0:3,0:0:0:0:
182,108,257361,2,0,P|220:94|321:160,1,140,8|0,0:0|0:0,0:0:0:0:
314,215,258361,1,2,0:0:0:0:
369,277,258695,2,0,P|402:267|436:258,1,70,8|0,0:0|0:0,0:0:0:0:
453,176,259361,6,0,P|444:77|395:37,1,140,2|8,0:0|0:0,0:0:0:0:
336,66,260361,2,0,L|260:80,1,70,2|2,0:3|0:0,0:0:0:0:
202,132,261028,2,0,L|114:123,1,70,2|10,0:0|0:0,0:0:0:0:
48,123,261695,1,2,0:3:0:0:
69,203,262028,6,0,P|147:220|187:275,2,140,4|8|0,0:0|0:0|0:0,0:0:0:0:
42,123,263695,1,2,0:0:0:0:
105,66,264028,2,0,L|174:68,1,70,8|0,0:0|0:0,0:0:0:0:
206,146,264695,6,0,P|211:76|215:6,1,140,2|8,0:0|0:0,0:0:0:0:
359,93,266028,2,0,P|353:162|349:232,1,140,0|8,0:0|0:0,0:0:0:0:
209,325,267361,6,0,L|219:249,1,70,2|0,0:0|0:3,0:0:0:0:
267,188,268028,2,0,P|330:214|395:192,1,140,8|0,0:0|0:0,0:0:0:0:
424,113,269028,1,2,0:0:0:0:
345,82,269361,2,0,P|311:72|277:63,1,70,8|0,0:0|0:0,0:0:0:0:
198,35,270028,6,0,P|159:91|164:160,1,140,2|8,0:0|0:0,0:0:0:0:
195,238,271028,2,0,L|185:317,2,70,2|2|2,0:3|0:0|0:0,0:0:0:0:
251,175,272028,2,0,L|259:105,2,70,8|2|6,0:0|0:0|0:0,0:0:0:0:
256,192,272861,12,2,275361,0:0:0:0:
256,192,275528,12,2,278028,0:0:0:0:
141,102,278695,6,0,L|122:240,1,140,0|2,0:0|0:0,0:0:0:0:
267,155,280028,1,0,0:0:0:0:
324,215,280361,2,0,L|413:202,1,70,0|4,0:0|0:0,0:0:0:0:
256,192,280861,12,0,286028,0:0:0:0:
