osu file format v14

[General]
AudioFilename: audio.mp3
AudioLeadIn: 0
PreviewTime: 47470
Countdown: 0
SampleSet: Soft
StackLeniency: 0.7
Mode: 0
LetterboxInBreaks: 0
WidescreenStoryboard: 1

[Editor]
DistanceSpacing: 1.4
BeatDivisor: 4
GridSize: 16
TimelineZoom: 1.4

[Metadata]
Title:Genzaichi
TitleUnicode:現在地
Artist:fhana
ArtistUnicode:fhána
Creator:Sotarks
Version:Hard
Source:
Tags:青空のラプソディ junichi sato yuxuki waga kevin mitsunaga Lantis Akitoshi Corinn aozora no rhapsody single edition
BeatmapID:1249152
BeatmapSetID:590023

[Difficulty]
HPDrainRate:5
CircleSize:3.5
OverallDifficulty:7
ApproachRate:7.5
SliderMultiplier:1.52
SliderTickRate:1

[Events]
//Background and Video events
0,0,"wakarani.jpg",0,0
//Break Periods
//Storyboard Layer 0 (Background)
//Storyboard Layer 1 (Fail)
//Storyboard Layer 2 (Pass)
//Storyboard Layer 3 (Foreground)
//Storyboard Sound Samples

[TimingPoints]
4920,303.030303030303,4,2,22,32,1,0
4920,-192.307692307692,4,2,22,32,0,0
14598,303.030303030303,4,2,22,52,1,0
14598,-121.951219512195,4,2,22,52,0,0
18226,303.030303030303,4,2,22,52,1,0
18377,-121.951219512195,4,2,22,52,0,0
19431,303.030303030303,4,2,22,52,1,0
19431,-121.951219512195,4,2,22,52,0,0
30359,303.030303030303,4,2,22,52,1,0
30359,-121.951219512195,4,2,22,52,0,0
33540,-121.951219512195,4,3,2,52,0,0
34001,303.030303030303,4,3,22,62,1,0
34001,-98.0392156862745,4,3,22,62,0,0
35042,303.030303030303,4,3,22,62,1,0
35042,-98.0392156862745,4,3,22,62,0,0
35497,303.030303030303,4,3,22,62,1,0
36860,303.030303030303,4,3,22,62,1,0
36860,-98.0392156862745,4,3,22,62,0,0
37901,303.030303030303,4,3,22,62,1,0
37901,-98.0392156862745,4,3,22,62,0,0
38839,303.030303030303,4,3,22,62,1,0
38839,-98.0392156862745,4,3,22,62,0,0
43687,-98.0392156862745,4,3,22,62,0,0
46107,303.030303030303,4,3,22,62,1,0
46107,-98.0392156862745,4,3,22,62,0,0
48552,303.030303030303,4,2,2,72,1,1
48552,-89.2857142857143,4,2,2,72,0,1
51560,303.030303030303,4,2,2,72,1,1
51560,-89.2857142857143,4,2,2,72,0,1
52166,303.030303030303,4,2,2,72,1,1
53302,-89.2857142857143,4,2,2,12,0,1
53378,-89.2857142857143,4,2,2,72,0,1
57772,-89.2857142857143,4,2,2,72,0,0
58226,303.030303030303,4,2,2,72,1,1
58226,-89.2857142857143,4,2,2,72,0,1
58453,-89.2857142857143,4,2,2,5,0,0
58542,303.030303030303,4,2,2,72,1,1
58542,-89.2857142857143,4,2,2,72,0,1
58769,-89.2857142857143,4,2,2,5,0,1
58845,-89.2857142857143,4,2,2,72,0,1
59299,303.030303030303,4,2,2,72,1,1
59299,-89.2857142857143,4,2,2,72,0,1
59763,303.030303030303,4,2,2,72,1,1
59763,-89.2857142857143,4,2,2,72,0,1
60596,-89.2857142857143,4,2,2,12,0,1
60672,303.030303030303,4,2,2,72,1,1
60672,-89.2857142857143,4,2,2,72,0,1
61259,303.030303030303,4,2,2,72,1,1
61259,-89.2857142857143,4,2,2,72,0,1
61865,303.030303030303,4,2,2,72,1,1
62395,-89.2857142857143,4,2,2,12,0,1
62471,-89.2857142857143,4,2,2,72,0,1
63077,303.030303030303,4,2,2,72,1,1
63077,-89.2857142857143,4,2,2,72,0,1
65505,303.030303030303,4,2,2,72,1,1
65505,-89.2857142857143,4,2,2,72,0,1
67168,-89.2857142857143,4,2,2,72,0,1
67925,303.030303030303,4,2,2,62,1,1
67925,-98.0392156862745,4,2,2,62,0,1
68992,303.030303030303,4,2,2,62,1,0
68992,-98.0392156862745,4,2,2,62,0,0
69465,303.030303030303,4,2,2,62,1,0
69465,-98.0392156862745,4,2,2,62,0,0
70355,303.030303030303,4,2,2,62,1,0
77615,303.030303030303,4,2,2,62,1,0
77615,-98.0392156862745,4,2,2,62,0,0
79445,303.030303030303,4,2,2,62,1,0
79445,-98.0392156862745,4,2,2,62,0,0
80043,303.030303030303,4,2,2,62,1,0
82486,303.030303030303,4,2,2,72,1,0
82934,303.030303030303,4,2,2,72,1,0
83540,303.030303030303,4,2,2,72,1,0
83691,303.030303030303,4,2,2,72,1,0
87347,303.030303030303,4,2,2,72,1,0

[Colours]
Combo1 : 210,239,201
Combo2 : 245,200,251
Combo3 : 80,160,226
Combo4 : 255,36,36
Combo5 : 219,232,238
Combo6 : 255,222,159
SliderBorder : 235,240,244
SliderTrackOverride : 15,15,12

[HitObjects]
97,132,4920,6,0,P|140:121|191:115,1,79.0399995175781,2|0,0:0|0:0,0:0:0:0:
256,160,5374,2,0,P|295:154|333:144,1,79.0399995175781,2|0,0:0|0:0,0:0:0:0:
428,111,5829,1,0,3:0:0:0:
428,111,5980,2,0,P|412:154|414:205,1,79.0399995175781,2|2,0:0|0:0,0:0:0:0:
431,272,6435,1,0,0:0:0:0:
431,272,6738,2,0,L|377:275,1,39.5199997587891,0|0,0:0|0:0,0:0:0:0:
311,310,7041,2,0,L|271:307,1,39.5199997587891,0|0,0:0|0:0,0:0:0:0:
192,237,7344,6,0,P|195:272|184:326,1,79.0399995175781,2|0,0:0|3:0,0:0:0:0:
107,274,7798,2,0,P|100:235|102:195,1,79.0399995175781,2|0,0:0|0:0,0:0:0:0:
60,115,8253,1,0,3:0:0:0:
60,115,8404,2,0,L|141:110,1,79.0399995175781,2|0,0:0|0:0,0:0:0:0:
225,134,8859,1,2,0:0:0:0:
225,134,9162,2,0,P|234:90|238:80,1,39.5199997587891,0|0,0:0|0:0,0:0:0:0:
321,96,9465,2,0,P|325:115|328:134,1,39.5199997587891,0|0,0:0|0:0,0:0:0:0:
274,207,9768,6,0,L|284:301,1,79.0399995175781,2|0,0:0|3:0,0:0:0:0:
329,365,10223,2,0,P|292:365|234:360,1,79.0399995175781,2|0,0:0|0:0,0:0:0:0:
173,320,10677,1,2,0:0:0:0:
173,320,10829,2,0,L|89:314,1,79.0399995175781,0|2,0:0|0:0,0:0:0:0:
27,254,11283,1,0,0:0:0:0:
27,254,11586,2,0,P|37:220|39:203,1,39.5199997587891,0|0,0:0|0:0,0:0:0:0:
28,126,11889,2,0,P|21:107|17:88,1,39.5199997587891,0|0,0:0|0:0,0:0:0:0:
108,89,12192,6,0,P|138:89|198:75,1,79.0399995175781,2|0,0:0|3:0,0:0:0:0:
254,22,12647,2,0,P|284:22|344:36,1,79.0399995175781,2|0,0:0|0:0,0:0:0:0:
384,103,13101,2,0,P|390:140|392:158,1,39.5199997587891,0|0,0:0|0:0,0:0:0:0:
379,228,13404,1,6,0:0:0:0:
379,228,14465,5,0,0:0:0:0:
379,228,14598,2,0,L|243:217,1,124.640001901855,6|0,1:2|1:0,0:0:0:0:
165,268,15052,1,2,0:2:0:0:
165,268,15204,2,0,P|170:224|136:145,1,124.640001901855,2|0,1:2|1:0,0:0:0:0:
63,105,15658,1,2,0:2:0:0:
63,105,15810,2,0,L|201:92,1,124.640001901855,2|0,1:2|1:0,0:0:0:0:
262,32,16264,1,2,0:2:0:0:
262,32,16416,2,0,P|277:67|280:98,1,62.3200009509277,2|0,1:2|3:0,0:0:0:0:
366,105,16719,2,0,P|351:140|348:171,1,62.3200009509277,10|0,0:2|3:0,0:0:0:0:
401,240,17022,6,0,P|364:255|273:220,2,124.640001901855,2|2|2,1:2|1:2|1:2,0:0:0:0:
453,73,17931,1,2,1:2:0:0:
281,32,18226,1,0,1:0:0:0:
211,94,18377,2,0,L|135:86,1,62.3200009509277,8|0,0:0|1:0,0:0:0:0:
75,169,18680,1,8,0:0:0:0:
167,176,18832,2,0,L|244:182,1,62.3200009509277,8|0,0:0|1:0,0:0:0:0:
284,258,19135,1,2,1:2:0:0:
230,336,19286,1,8,0:0:0:0:
345,326,19431,6,0,P|369:290|348:197,1,124.640001901855,6|0,1:2|1:0,0:0:0:0:
274,163,19885,1,2,0:2:0:0:
274,163,20037,2,0,P|245:108|258:49,1,124.640001901855,2|0,1:2|1:2,0:0:0:0:
343,96,20491,1,2,0:2:0:0:
343,96,20643,2,0,P|441:90|478:90,1,124.640001901855,2|0,1:2|1:0,0:0:0:0:
355,223,21249,2,0,P|351:267|349:304,1,62.3200009509277,2|0,1:2|0:0,0:0:0:0:
429,328,21552,1,8,0:0:0:0:
256,304,21855,6,0,L|183:311,1,62.3200009509277,2|0,1:2|0:0,0:0:0:0:
100,321,22158,1,2,1:2:0:0:
142,239,22309,2,0,P|143:203|100:121,2,124.640001901855,2|2|0,0:2|0:2|0:0,0:0:0:0:
220,172,23067,2,0,P|265:167|296:167,1,62.3200009509277,2|0,1:2|0:0,0:0:0:0:
325,251,23370,2,0,P|280:246|249:246,1,62.3200009509277,0|2,1:0|0:2,0:0:0:0:
288,328,23673,1,2,1:2:0:0:
196,301,23824,2,0,L|123:318,1,62.3200009509277,8|0,0:0|1:0,0:0:0:0:
52,342,24127,1,8,0:0:0:0:
79,245,24279,6,0,P|75:205|53:113,1,124.640001901855,6|0,1:2|1:0,0:0:0:0:
27,37,24734,1,2,0:2:0:0:
27,37,24885,2,0,L|160:29,1,124.640001901855,2|0,1:2|1:0,0:0:0:0:
218,100,25340,1,2,0:2:0:0:
218,100,25491,2,0,P|261:114|349:74,1,124.640001901855,2|0,1:2|1:0,0:0:0:0:
398,27,25946,1,2,0:2:0:0:
426,110,26097,2,0,L|417:182,1,62.3200009509277,2|0,1:2|0:0,0:0:0:0:
355,238,26400,2,0,L|364:310,1,62.3200009509277,10|0,0:2|0:0,0:0:0:0:
423,352,26703,6,0,L|283:336,1,124.640001901855,2|2,1:2|1:2,0:0:0:0:
214,350,27158,1,0,0:0:0:0:
126,324,27309,2,0,P|137:275|86:196,1,124.640001901855,2|2,1:2|1:2,0:0:0:0:
28,153,27764,2,0,P|77:158|167:134,1,124.640001901855,0|0,3:3|3:3,0:0:0:0:
231,94,28218,1,0,1:0:0:0:
392,158,28521,2,0,P|403:200|409:237,1,62.3200009509277,0|0,1:0|0:0,0:0:0:0:
319,212,28824,2,0,P|308:254|302:291,1,62.3200009509277,10|2,0:2|0:2,0:0:0:0:
357,341,29127,6,0,P|310:361|225:315,1,124.640001901855,2|0,1:2|1:0,0:0:0:0:
162,287,29582,1,2,0:2:0:0:
162,287,29734,2,0,L|148:142,1,124.640001901855,2|0,1:2|1:0,0:0:0:0:
209,89,30188,1,2,0:2:0:0:
209,89,30359,2,0,B|271:108|270:66|349:94,1,124.640001901855
297,170,30813,1,2,0:2:0:0:
386,159,30965,2,0,P|383:203|376:233,1,62.3200009509277,2|0,1:2|0:0,0:0:0:0:
297,256,31268,2,0,P|300:300|307:330,1,62.3200009509277,8|2,0:0|0:2,0:0:0:0:
371,364,31571,6,0,L|229:355,1,124.640001901855,2|0,1:2|1:0,0:0:0:0:
160,331,32025,2,0,P|154:277|207:220,2,124.640001901855,2|2|0,0:2|0:2|0:0,0:0:0:0:
71,311,32783,2,0,P|72:266|110:193,1,124.640001901855,0|8,1:2|0:0,0:0:0:0:
101,111,33237,2,0,L|98:77,2,31.1600004754639,8|8|10,0:0|0:0|0:2,0:0:0:0:
183,137,33540,2,0,L|180:49,2,62.3200009509277,8|4|4,3:0|3:0|3:0,0:0:0:0:
263,183,34001,6,0,P|315:184|416:161,1,155.040000946289,4|8,0:0|0:2,0:0:0:0:
485,124,34455,2,0,P|418:122|313:89,1,155.040000946289,2|2,0:2|0:0,0:0:0:0:
239,56,34910,1,8,0:0:0:0:
162,114,35042,2,0,B|146:167|146:167|167:277,1,155.040000946289,2|2,0:0|0:0,0:0:0:0:
88,332,35496,2,0,L|263:314,1,155.040000946289,8|2,0:2|0:0,0:0:0:0:
324,348,35950,1,2,0:0:0:0:
388,281,36103,2,0,L|394:198,1,76,8|0,0:2|0:2,0:0:0:0:
462,146,36406,6,0,P|406:160|303:115,1,152,6|8,0:0|0:0,0:0:0:0:
256,61,36860,2,0,P|206:50|167:55,2,77.5200004731445,0|2|0,0:2|0:0|0:0,0:0:0:0:
211,134,37314,1,8,0:0:0:0:
151,202,37466,2,0,P|202:225|299:215,1,155.040000946289,6|2,0:0|0:0,0:0:0:0:
373,157,37901,1,8,0:0:0:0:
373,157,38204,2,0,P|384:201|384:239,1,77.5200004731445,2|2,0:0|0:0,0:0:0:0:
295,250,38507,2,0,P|284:294|284:332,1,77.5200004731445,8|0,0:0|0:0,0:0:0:0:
345,366,38839,6,0,L|166:347,1,155.040000946289,6|8,0:0|0:0,0:0:0:0:
94,358,39293,1,0,0:0:0:0:
94,358,39445,2,0,P|104:282|56:210,1,155.040000946289,2|8,0:0|0:0,0:0:0:0:
1,142,39899,1,0,0:0:0:0:
1,142,40051,2,0,B|55:134|55:134|97:143|97:143|174:132,1,155.040000946289,2|8,0:0|0:0,0:0:0:0:
330,43,40657,2,0,L|344:132,1,77.5200004731445,2|2,0:0|0:0,0:0:0:0:
359,209,40960,1,8,0:0:0:0:
201,327,41263,6,0,P|254:303|348:318,1,155.040000946289,6|8,0:0|0:0,0:0:0:0:
434,355,41717,1,0,0:0:0:0:
434,355,41869,2,0,B|431:257|431:257|459:200,1,155.040000946289,2|0,0:0|0:0,0:0:0:0:
449,114,42323,1,0,0:0:0:0:
449,114,42475,2,0,L|365:106,1,77.5200004731445,2|2,0:0|0:0,0:0:0:0:
297,162,42778,2,0,L|219:169,1,77.5200004731445,8|0,0:0|0:0,0:0:0:0:
120,128,43081,2,0,P|131:174|136:209,1,77.5200004731445,2|2,0:0|0:0,0:0:0:0:
104,294,43384,1,8,0:0:0:0:
303,313,43687,6,0,B|333:238|266:238|306:130,1,155.040000946289,6|8,0:0|0:0,0:0:0:0:
368,91,44142,2,0,P|318:111|210:63,1,155.040000946289,2|2,0:2|0:0,0:0:0:0:
131,25,44596,2,0,B|141:88|141:88|124:131|124:131|129:197,1,155.040000946289,10|2,0:2|0:0,0:0:0:0:
85,261,45051,2,0,L|6:250,2,77.5200004731445,2|8|0,0:2|0:0|0:0,0:0:0:0:
148,323,45505,2,0,P|192:320|232:307,1,77.5200004731445,2|2,0:0|0:0,0:0:0:0:
279,239,45808,1,10,0:2:0:0:
424,78,46107,6,0,L|434:247,1,155.040000946289,6|0,0:0|0:0,0:0:0:0:
378,311,46561,1,8,0:0:0:0:
378,311,46637,1,8,0:0:0:0:
378,311,46713,2,0,P|325:314|293:311,1,77.5200004731445,8|8,0:0|0:0,0:0:0:0:
241,237,47016,2,0,P|202:234|163:238,1,77.5200004731445,8|8,0:0|0:0,0:0:0:0:
87,288,47319,1,8,0:0:0:0:
31,78,47622,6,0,L|110:66,1,77.5200004731445,10|8,0:2|0:0,0:0:0:0:
186,119,47925,2,0,L|262:130,1,77.5200004731445,10|8,0:2|0:0,0:0:0:0:
340,70,48228,2,0,P|360:122|357:162,1,77.5200004731445,10|8,0:2|0:0,0:0:0:0:
312,229,48552,6,0,P|376:239|454:168,2,170.240002078125,6|8|0,1:2|0:0|0:0,0:0:0:0:
134,127,49461,1,8,0:0:0:0:
53,188,49612,2,0,L|70:359,1,170.240002078125,2|0,1:2|1:0,0:0:0:0:
154,299,50067,2,0,P|202:290|243:286,1,85.1200010390625,10|0,0:2|0:0,0:0:0:0:
325,338,50370,2,0,P|373:347|414:351,1,85.1200010390625,2|0,1:2|1:0,0:0:0:0:
486,283,50673,1,10,0:2:0:0:
442,83,50976,6,0,B|396:79|396:79|355:91|355:91|260:78,1,170.240002078125,6|8,1:2|0:0,0:0:0:0:
75,32,51560,2,0,P|62:79|63:123,1,85.1200010390625,2|0,1:2|1:0,0:0:0:0:
88,214,51863,1,8,0:0:0:0:
151,134,52014,2,0,P|184:191|194:300,1,170.240002078125,2|0,1:2|1:0,0:0:0:0:
107,347,52469,2,0,L|288:328,1,152,10|0,0:2|0:0,0:0:0:0:
375,351,52923,1,2,1:2:0:0:
342,253,53075,1,10,0:2:0:0:
245,72,53378,6,0,B|155:44|160:111|55:71,1,170.240002078125,2|10,1:2|0:2,0:0:0:0:
17,161,53833,2,0,P|63:180|190:168,1,170.240002078125,2|0,0:2|0:0,0:0:0:0:
260,108,54287,1,8,0:0:0:0:
335,177,54439,2,0,L|354:357,1,170.240002078125,2|0,1:2|1:0,0:0:0:0:
263,298,54893,2,0,L|174:290,1,85.1200010390625,10|0,0:2|0:0,0:0:0:0:
97,353,55196,2,0,L|12:360,1,85.1200010390625,2|0,1:2|1:0,0:0:0:0:
43,263,55499,1,10,0:2:0:0:
103,67,55802,6,0,B|153:57|153:57|203:74|203:74|276:58,1,170.240002078125,6|10,1:2|0:2,0:0:0:0:
366,33,56257,2,0,P|347:86|347:204,2,170.240002078125,2|2|0,0:2|1:2|0:0,0:0:0:0:
454,82,57014,1,6,1:2:0:0:
462,286,57317,2,0,P|400:292|372:287,1,85.1200010390625,10|0,0:2|0:0,0:0:0:0:
296,350,57620,2,0,P|236:331|212:315,1,85.1200010390625,2|8,1:2|0:0,0:0:0:0:
115,326,57923,2,0,P|91:289|83:267,3,42.5600005195313,10|8|8|8,0:2|0:0|0:0|0:0,0:0:0:0:
135,263,58226,6,0,P|120:205|120:157,1,85.1200010390625,2|0,1:2|0:0,0:0:0:0:
213,162,58542,2,0,P|217:204|229:244,1,85.1200010390625,12|0,0:0|0:0,0:0:0:0:
307,179,58845,2,0,B|434:174|434:174|496:151,1,170.240002078125,2|8,1:2|0:0,0:0:0:0:
405,83,59299,2,0,P|346:89|217:64,1,170.240002078125,2|0,1:2|1:0,0:0:0:0:
140,21,59763,2,0,P|129:77|130:117,1,85.1200010390625,10|0,0:2|0:0,0:0:0:0:
208,169,60066,2,0,P|219:225|218:265,1,85.1200010390625,0|0,1:0|1:0,0:0:0:0:
157,334,60369,1,10,0:2:0:0:
360,318,60672,6,0,P|367:263|354:130,1,170.240002078125,6|8,1:2|0:0,0:0:0:0:
190,32,61259,2,0,P|180:92|182:210,1,170.240002078125,2|8,1:2|0:0,0:0:0:0:
248,277,61713,2,0,P|156:241|89:255,1,170.240002078125,2|0,1:2|1:0,0:0:0:0:
21,332,62168,1,10,0:2:0:0:
32,128,62471,2,0,P|93:111|122:107,1,85.1200010390625,2|2,1:2|1:2,0:0:0:0:
214,130,62774,1,10,0:2:0:0:
409,72,63077,6,0,P|346:68|234:112,1,170.240002078125,6|10,1:2|0:2,0:0:0:0:
335,151,63531,2,0,P|366:211|382:316,1,170.240002078125,2|2,0:2|1:2,0:0:0:0:
289,283,63986,1,8,0:0:0:0:
210,348,64137,2,0,L|28:326,1,170.240002078125,2|0,1:2|1:0,0:0:0:0:
112,253,64592,2,0,L|105:157,1,85.1200010390625,10|0,0:2|0:0,0:0:0:0:
8,201,64895,2,0,L|14:116,1,85.1200010390625,2|0,1:2|1:0,0:0:0:0:
105,69,65198,1,8,0:0:0:0:
269,189,65505,6,0,P|327:197|408:121,1,170.240002078125,6|8,1:2|0:0,0:0:0:0:
436,30,65960,1,2,0:2:0:0:
436,30,66111,2,0,L|257:19,1,170.240002078125,2|0,1:2|0:0,0:0:0:0:
177,71,66566,1,2,0:2:0:0:
177,71,66717,2,0,P|162:137|167:242,1,170.240002078125,14|2,0:2|1:2,0:0:0:0:
224,318,67171,2,0,P|154:322|60:279,2,170.240002078125,14|2|8,0:2|1:2|0:0,0:0:0:0:
269,217,67925,6,0,P|334:204|440:205,1,155.040000946289,6|8,1:2|0:0,0:0:0:0:
493,285,68380,2,0,P|476:119|478:106,1,155.040000946289,2|0,0:2|1:0,0:0:0:0:
445,28,68834,1,10,0:0:0:0:
389,119,68992,2,0,L|209:95,1,155.040000946289,0|2,1:0|0:0,0:0:0:0:
153,23,69465,1,8,0:0:0:0:
46,179,69768,2,0,P|56:247|66:277,1,77.5200004731445,2|0,1:2|1:0,0:0:0:0:
151,243,70071,2,0,P|169:289|206:323,1,77.5200004731445,8|0,0:0|0:0,0:0:0:0:
266,251,70355,6,0,B|336:232|338:278|431:247,1,152,6|8,1:2|0:0,0:0:0:0:
497,184,70809,2,0,P|437:174|397:170,1,76,0|0,0:0|1:0,0:0:0:0:
315,166,71112,1,0,1:0:0:0:
391,91,71264,2,0,P|315:75|228:64,1,152,10|0,0:2|0:0,0:0:0:0:
138,90,71718,2,0,L|162:266,1,152,2|0,1:2|0:0,0:0:0:0:
93,325,72173,2,0,P|156:331|189:322,1,76,2|0,1:2|1:0,0:0:0:0:
248,258,72476,2,0,P|311:252|344:261,1,76,10|0,0:2|0:0,0:0:0:0:
403,324,72779,6,0,P|383:283|424:181,1,152,6|8,1:2|0:0,0:0:0:0:
491,114,73233,2,0,B|380:107|380:107|324:79,1,152,2|0,0:2|1:0,0:0:0:0:
259,29,73688,1,10,0:2:0:0:
259,29,73839,2,0,P|185:44|173:118,1,152,0|2,1:0|1:2,0:0:0:0:
243,174,74294,2,0,L|248:272,1,76,8|0,0:2|0:0,0:0:0:0:
141,274,74597,2,0,L|160:359,1,76,2|2,1:2|1:2,0:0:0:0:
265,333,74900,2,0,L|366:322,1,76,10|0,0:2|0:0,0:0:0:0:
440,294,75203,6,0,P|367:288|322:215,1,152,6|8,1:2|0:0,0:0:0:0:
399,153,75658,2,0,B|351:139|351:139|310:149|310:149|237:129,1,152,2|0,0:2|1:0,0:0:0:0:
184,52,76112,1,10,0:2:0:0:
111,130,76264,2,0,P|130:167|128:281,2,152,2|2|2,1:2|1:2|0:2,0:0:0:0:
30,61,77021,1,0,1:0:0:0:
31,167,77173,2,0,P|51:216|51:249,1,76,2|8,0:2|0:0,0:0:0:0:
23,343,77476,5,8,0:0:0:0:
23,343,77551,1,8,0:0:0:0:
23,343,77615,2,0,B|75:338|75:338|119:354|119:354|192:351,1,155.040000946289,4|8,1:0|0:0,0:0:0:0:
280,324,78069,2,0,P|204:303|174:217,1,155.040000946289,2|0,0:2|1:0,0:0:0:0:
212,137,78524,1,10,0:0:0:0:
269,228,78675,2,0,L|444:212,1,155.040000946289,0|2,1:0|1:2,0:0:0:0:
496,133,79130,1,8,0:0:0:0:
300,38,79445,2,0,L|220:31,1,77.5200004731445,2|0,1:2|1:0,0:0:0:0:
212,137,79748,2,0,L|134:143,1,77.5200004731445,10|0,0:2|0:0,0:0:0:0:
66,226,80043,6,0,L|224:214,1,152,2|8,1:2|0:0,0:0:0:0:
316,253,80497,2,0,B|344:182|277:186|317:74,1,152,2|0,0:2|1:0,0:0:0:0:
382,29,80952,1,10,0:2:0:0:
388,134,81103,2,0,P|406:174|413:220,1,76,2|0,1:2|0:0,0:0:0:0:
401,307,81406,1,2,1:2:0:0:
401,307,81558,2,0,P|350:280|262:312,2,152,8|2|10,0:0|1:2|0:2,0:0:0:0:
307,105,82486,6,0,L|146:87,1,152,6|8,1:2|0:0,0:0:0:0:
72,153,82934,2,0,P|144:132|216:170,1,152,2|0,0:2|1:0,0:0:0:0:
134,238,83388,2,0,P|126:291|139:336,2,76,10|2|0,0:2|1:2|0:0,0:0:0:0:
232,280,83843,1,2,1:2:0:0:
232,280,83994,2,0,L|390:267,1,152,8|2,0:0|1:2,0:0:0:0:
445,69,84600,1,10,0:2:0:0:
234,50,84904,5,6,1:2:0:0:
159,147,85055,2,0,L|144:73,1,76,8|8,0:0|0:0,0:0:0:0:
265,134,85358,2,0,L|253:196,2,38,2|0|12,1:2|1:0|0:0,0:0:0:0:
368,159,85661,2,0,L|356:221,2,38,0|0|10,1:0|1:0|0:2,0:0:0:0:
454,96,85964,2,0,P|471:149|442:239,1,152,14|10,0:2|0:2,0:0:0:0:
353,297,86419,2,0,L|253:275,1,76,12|2,0:0|1:2,0:0:0:0:
189,221,86722,2,0,P|180:284|180:294,3,38,8|8|10|0,0:0|0:0|0:2|0:0,0:0:0:0:
129,248,87025,2,0,P|138:311|138:321,3,38,4|4|4|4,3:3|3:0|3:0|3:0,0:0:0:0:
77,280,87347,5,6,0:0:0:0:
