osu file format v14

[General]
AudioFilename: audio.mp3
AudioLeadIn: 0
PreviewTime: 47470
Countdown: 0
SampleSet: Soft
StackLeniency: 0.7
Mode: 0
LetterboxInBreaks: 0
WidescreenStoryboard: 1

[Editor]
DistanceSpacing: 1
BeatDivisor: 4
GridSize: 4
TimelineZoom: 1.4

[Metadata]
Title:Genzaichi
TitleUnicode:現在地
Artist:fhana
ArtistUnicode:fhána
Creator:Sotarks
Version:Akitoshi's Normal
Source:
Tags:青空のラプソディ junichi sato yuxuki waga kevin mitsunaga Lantis Akitoshi Corinn aozora no rhapsody single edition
BeatmapID:1249722
BeatmapSetID:590023

[Difficulty]
HPDrainRate:3.5
CircleSize:2.8
OverallDifficulty:4
ApproachRate:4.5
SliderMultiplier:0.989999999999999
SliderTickRate:1

[Events]
//Background and Video events
0,0,"wakarani.jpg",0,0
//Break Periods
//Storyboard Layer 0 (Background)
//Storyboard Layer 1 (Fail)
//Storyboard Layer 2 (Pass)
//Storyboard Layer 3 (Foreground)
//Storyboard Sound Samples

[TimingPoints]
4920,303.030303030303,4,2,22,32,1,0
14598,303.030303030303,4,2,22,52,1,0
18226,303.030303030303,4,2,22,52,1,0
19431,303.030303030303,4,2,22,52,1,0
30359,303.030303030303,4,2,22,52,1,0
34001,303.030303030303,4,3,22,62,1,0
35042,303.030303030303,4,3,22,62,1,0
35497,303.030303030303,4,3,22,62,1,0
36860,303.030303030303,4,3,22,62,1,0
37901,303.030303030303,4,3,22,62,1,0
38839,303.030303030303,4,3,22,62,1,0
46107,303.030303030303,4,3,22,62,1,0
48552,303.030303030303,4,2,2,72,1,1
51560,303.030303030303,4,2,2,72,1,1
52166,303.030303030303,4,2,2,72,1,1
58226,303.030303030303,4,2,2,72,1,1
58542,303.030303030303,4,2,2,72,1,1
59299,303.030303030303,4,2,2,72,1,1
59763,303.030303030303,4,2,2,72,1,1
60672,303.030303030303,4,2,2,72,1,1
61259,303.030303030303,4,2,2,72,1,1
61865,303.030303030303,4,2,2,72,1,1
63077,303.030303030303,4,2,2,72,1,1
65505,303.030303030303,4,2,2,72,1,1
67925,303.030303030303,4,2,2,62,1,1
68992,303.030303030303,4,2,2,62,1,0
69465,303.030303030303,4,2,2,62,1,0
70355,303.030303030303,4,2,2,62,1,0
77615,303.030303030303,4,2,2,62,1,0
79445,303.030303030303,4,2,2,62,1,0
80043,303.030303030303,4,2,2,62,1,0
82486,303.030303030303,4,2,2,72,1,0
82934,303.030303030303,4,2,2,72,1,0
83540,303.030303030303,4,2,2,72,1,0
83691,303.030303030303,4,2,2,72,1,0
87347,303.030303030303,4,2,2,72,1,0

[Colours]
Combo1 : 210,239,201
Combo2 : 245,200,251
Combo3 : 80,160,226
Combo4 : 255,36,36
Combo5 : 219,232,238
Combo6 : 255,222,159
SliderBorder : 235,240,244
SliderTrackOverride : 15,15,12

[HitObjects]
336,165,4920,6,0,P|391:141|485:171,2,148.5,2|2|0,0:0|0:0|3:0,0:0:0:0:
229,268,6283,2,0,B|131:262|131:262|101:204,1,148.5,2|0,0:0|0:0,0:0:0:0:
80,121,7041,1,0,0:0:0:0:
152,51,7344,6,0,P|223:31|296:65,2,148.5,2|2|0,0:0|0:0|3:0,0:0:0:0:
214,185,8707,2,0,L|368:171,1,148.5,0|0,0:0|0:0,0:0:0:0:
437,235,9465,1,0,0:0:0:0:
405,330,9768,6,0,P|332:362|260:356,2,148.5,2|2|2,0:0|0:0|0:0,0:0:0:0:
309,216,11132,2,0,B|241:202|229:247|163:231,1,148.5,2|0,0:0|0:0,0:0:0:0:
91,163,11889,1,0,0:0:0:0:
133,73,12192,6,0,B|190:60|190:60|294:69,2,148.5,2|2|0,0:0|0:0|0:0,0:0:0:0:
91,163,13404,2,0,L|98:282,1,98.9999999999999,6|0,0:0|0:0,0:0:0:0:
138,351,14010,2,0,P|183:359|255:339,1,98.9999999999999,0|0,0:0|0:0,0:0:0:0:
279,260,14598,6,0,B|338:249|338:249|416:263|416:263|487:248,1,198,6|2,1:2|1:2,0:0:0:0:
508,158,15507,1,0,1:0:0:0:
451,76,15810,2,0,P|354:67|259:114,1,198,2|2,1:2|1:2,0:0:0:0:
209,190,16719,1,10,0:2:0:0:
279,260,17022,6,0,P|295:313|282:371,2,98.9999999999999,2|2|2,1:2|1:2|1:2,0:0:0:0:
202,196,17931,1,2,1:2:0:0:
138,260,18226,2,0,P|90:270|35:253,1,98.9999999999999,0|0,1:0|1:0,0:0:0:0:
1,171,18832,1,8,0:0:0:0:
28,74,19135,1,2,1:2:0:0:
121,37,19431,6,0,L|325:50,1,198,6|2,1:2|1:2,0:0:0:0:
416,60,20340,1,0,1:2:0:0:
456,150,20643,2,0,P|444:223|322:270,1,198,2|2,1:2|1:2,0:0:0:0:
249,235,21552,1,8,0:0:0:0:
180,163,21855,6,0,L|26:170,2,148.5,2|2|0,1:2|0:2|1:0,0:0:0:0:
249,235,23067,2,0,P|238:308|118:361,1,198,2|2,1:2|1:2,0:0:0:0:
40,339,23976,1,0,1:0:0:0:
3,246,24279,6,0,L|22:35,1,198,6|2,1:2|1:2,0:0:0:0:
116,22,25188,1,0,1:0:0:0:
196,79,25491,2,0,B|253:98|253:98|399:70,1,198,2|2,1:2|1:2,0:0:0:0:
483,43,26400,1,10,0:2:0:0:
460,139,26703,6,0,L|472:243,2,98.9999999999999,2|2|2,1:2|1:2|1:2,0:0:0:0:
388,72,27612,1,2,1:2:0:0:
310,134,27915,2,0,P|269:154|203:153,1,98.9999999999999,0|0,0:0|1:0,0:0:0:0:
125,116,28521,1,0,1:0:0:0:
40,167,28824,1,10,0:2:0:0:
47,265,29127,6,0,P|93:314|217:341,1,198,2|2,1:2|1:2,0:0:0:0:
314,324,30037,1,0,1:0:0:0:
401,276,30359,2,0,B|414:146|414:146|375:85,1,198,2|2,1:2|1:2,0:0:0:0:
310,16,31268,1,8,0:0:0:0:
219,55,31571,6,0,P|158:70|72:47,2,148.5,2|2|0,1:2|0:2|0:0,0:0:0:0:
310,16,32783,2,0,L|415:20,1,98.9999999999999,0|8,1:2|0:0,0:0:0:0:
481,92,33389,2,0,L|477:197,1,98.9999999999999,10|4,0:2|3:0,0:0:0:0:
405,262,34001,6,0,P|335:287|258:257,1,148.5,4|2,0:0|0:2,0:0:0:0:
206,186,34758,1,2,0:0:0:0:
242,98,35042,1,2,0:0:0:0:
102,53,35496,2,0,L|2:44,2,98.9999999999999,8|2|8,0:2|0:0|0:2,0:0:0:0:
126,148,36405,6,0,P|127:212|134:306,1,148.5,6|0,0:0|0:2,0:0:0:0:
209,358,37163,1,0,0:0:0:0:
307,358,37466,1,6,0:0:0:0:
386,240,37901,2,0,P|433:253|495:244,2,98.9999999999999
312,165,38839,6,0,P|222:143|131:203,1,198,6|2,0:0|0:0,0:0:0:0:
96,285,39748,1,8,0:0:0:0:
163,357,40051,2,0,P|253:379|344:319,1,198,2|2,0:0|0:0,0:0:0:0:
386,240,40960,1,8,0:0:0:0:
420,147,41263,6,0,L|413:33,2,98.9999999999999,6|8|2,0:0|0:0|0:0,0:0:0:0:
386,240,42172,1,8,0:0:0:0:
339,327,42475,2,0,P|284:329|222:327,2,98.9999999999999,2|8|2,0:0|0:0|0:0,0:0:0:0:
437,325,43384,1,8,0:0:0:0:
386,240,43687,6,0,P|375:155|369:81,1,148.5,6|2,0:0|0:2,0:0:0:0:
231,37,44596,2,0,P|163:28|92:89,2,148.5,10|2|0,0:2|0:2|0:0,0:0:0:0:
185,124,45808,1,10,0:2:0:0:
130,199,46107,6,0,L|147:366,2,148.5,6|8|8,0:0|0:0|0:0,0:0:0:0:
42,152,47319,1,8,0:0:0:0:
101,72,47622,2,0,P|136:53|209:59,2,98.9999999999999,10|0|0,0:2|0:0|0:0,0:0:0:0:
166,155,48552,6,0,L|279:146,1,98.9999999999999,6|8,1:2|0:0,0:0:0:0:
338,81,49158,2,0,L|492:93,2,148.5,2|2|0,1:2|1:2|0:0,0:0:0:0:
264,147,50370,2,0,P|247:194|257:255,1,98.9999999999999,2|10,1:2|0:2,0:0:0:0:
317,316,50976,6,0,P|259:341|211:332,1,98.9999999999999,6|8,1:2|0:0,0:0:0:0:
155,266,51560,2,0,L|2:281,2,148.5,2|2|0,1:2|1:2|0:0,0:0:0:0:
251,241,52772,2,0,P|247:189|212:133,1,98.9999999999999,2|10,1:2|0:2,0:0:0:0:
132,114,53378,6,0,P|166:67|269:59,1,148.5,2|2,1:2|0:2,0:0:0:0:
344,86,54136,1,2,1:2:0:0:
402,167,54439,2,0,L|390:320,1,148.5,2|10,1:2|0:2,0:0:0:0:
301,358,55196,2,0,P|245:360|198:334,1,98.9999999999999,2|10,1:2|0:2,0:0:0:0:
123,289,55802,6,0,B|108:191|108:191|124:131,1,148.5,6|2,1:2|0:2,0:0:0:0:
167,55,56560,2,0,P|232:34|320:58,1,148.5,2|6,1:2|1:2,0:0:0:0:
394,99,57317,1,10,0:2:0:0:
472,158,57620,2,0,B|486:207|486:207|478:272,1,98.9999999999999,2|10,1:2|0:2,0:0:0:0:
420,333,58226,5,2,1:2:0:0:
322,365,58542,1,12,0:0:0:0:
233,324,58845,2,0,B|183:321|137:345|137:345|76:331,1,148.5,2|2,1:2|1:2,0:0:0:0:
13,202,59763,2,0,L|9:102,2,98.9999999999999,10|0|10,0:2|1:0|0:2,0:0:0:0:
110,220,60672,6,0,P|147:222|204:201,1,98.9999999999999,6|8,1:2|0:0,0:0:0:0:
277,133,61259,2,0,L|428:120,2,148.5,2|2|10,1:2|1:2|0:2,0:0:0:0:
204,200,62471,2,0,P|202:237|223:294,1,98.9999999999999,2|10,1:2|0:2,0:0:0:0:
300,356,63077,6,0,L|453:345,1,148.5,6|2,1:2|0:2,0:0:0:0:
506,265,63834,1,2,1:2:0:0:
479,169,64137,2,0,P|431:137|330:149,1,148.5,2|10,1:2|0:2,0:0:0:0:
258,193,64895,2,0,L|139:188,1,98.9999999999999,2|8,1:2|0:0,0:0:0:0:
99,109,65505,6,0,P|60:174|120:281,1,198,6|2,1:2|1:2,0:0:0:0:
207,286,66414,1,8,0:0:0:0:
300,252,66717,1,14,0:2:0:0:
437,199,67171,2,0,B|448:294|448:294|419:360,1,148.5,14|12,0:2|0:0,0:0:0:0:
331,368,67925,6,0,L|127:356,1,198,6|0,1:2|1:0,0:0:0:0:
44,311,68834,1,10,0:0:0:0:
118,115,69465,2,0,P|160:98|229:117,2,98.9999999999999,8|2|8,0:0|1:2|0:0,0:0:0:0:
172,193,70355,6,0,B|236:206|236:206|389:186,1,198,6|0,1:2|1:0,0:0:0:0:
464,168,71264,1,10,0:2:0:0:
409,358,71870,2,0,P|366:368|309:351,2,98.9999999999999,8|2|10,0:0|1:2|0:2,0:0:0:0:
364,269,72779,6,0,B|326:250|293:255|269:269|269:269|227:240|162:262,1,198,6|0,1:2|1:0,0:0:0:0:
122,342,73688,2,0,P|81:292|135:168,1,198,10|8,0:2|0:2,0:0:0:0:
209,133,74597,2,0,L|324:140,1,98.9999999999999,2|10,1:2|0:2,0:0:0:0:
381,205,75203,6,0,P|404:118|316:41,1,198,6|0,1:2|1:0,0:0:0:0:
237,45,76112,2,0,B|202:92|202:92|230:251,1,198,10|8,0:2|0:0,0:0:0:0:
209,326,77021,2,0,P|156:338|104:324,1,98.9999999999999,0|8,1:0|0:0,0:0:0:0:
35,273,77615,6,0,L|53:65,1,198,4|0,1:0|1:0,0:0:0:0:
140,31,78524,2,0,P|172:62|314:36,1,198,10|8,0:0|0:0,0:0:0:0:
409,37,79445,2,0,L|421:150,1,98.9999999999999,2|10,1:2|0:2,0:0:0:0:
399,232,80043,6,0,B|294:261|309:196|200:225,1,198,2|0,1:2|1:0,0:0:0:0:
123,279,80952,1,10,0:2:0:0:
8,120,81558,2,0,L|5:11,2,98.9999999999999,8|2|10,0:0|1:2|0:2,0:0:0:0:
61,210,82486,6,0,B|106:187|106:187|171:188,1,98.9999999999999,6|8,1:2|0:0,0:0:0:0:
252,186,83085,1,0,1:0:0:0:
350,200,83388,2,0,P|336:132|217:94,1,198,10|8,0:2|0:0,0:0:0:0:
252,186,84297,1,2,1:2:0:0:
220,283,84600,1,10,0:2:0:0:
298,337,84904,6,0,P|357:320|413:189,1,198,6|0,1:2|0:0,0:0:0:0:
375,115,85812,1,8,0:0:0:0:
293,58,86115,2,0,B|243:49|243:49|178:64,1,98.9999999999999,10|0,0:0|0:0,0:0:0:0:
127,131,86722,2,0,B|118:181|118:181|133:246,1,98.9999999999999,8|0,0:0|0:0,0:0:0:0:
167,325,87347,5,6,0:0:0:0:
