osu file format v14

[General]
AudioFilename: audio.mp3
AudioLeadIn: 0
PreviewTime: 47470
Countdown: 0
SampleSet: Soft
StackLeniency: 0.7
Mode: 0
LetterboxInBreaks: 0
WidescreenStoryboard: 0

[Editor]
DistanceSpacing: 1.2
BeatDivisor: 4
GridSize: 4
TimelineZoom: 1.4

[Metadata]
Title:Genzaichi
TitleUnicode:現在地
Artist:fhana
ArtistUnicode:fhána
Creator:Sotarks
Version:Melancholy
Source:
Tags:青空のラプソディ junichi sato yuxuki waga kevin mitsunaga Lantis Akitoshi Corinn aozora no rhapsody single edition
BeatmapID:1248817
BeatmapSetID:590023

[Difficulty]
HPDrainRate:6.2
CircleSize:4.2
OverallDifficulty:9
ApproachRate:9.3
SliderMultiplier:1.92
SliderTickRate:1

[Events]
//Background and Video events
0,0,"wakarani.jpg",0,0
//Break Periods
//Storyboard Layer 0 (Background)
//Storyboard Layer 1 (Fail)
//Storyboard Layer 2 (Pass)
//Storyboard Layer 3 (Foreground)
//Storyboard Sound Samples

[TimingPoints]
4920,303.030303030303,4,2,22,32,1,0
4920,-192.307692307692,4,2,22,32,0,0
14598,303.030303030303,4,2,22,52,1,0
14598,-121.951219512195,4,2,22,52,0,0
18226,303.030303030303,4,2,22,52,1,0
19431,303.030303030303,4,2,22,52,1,0
19431,-121.951219512195,4,2,22,52,0,0
30359,303.030303030303,4,2,22,52,1,0
30359,-121.951219512195,4,2,22,52,0,0
33540,-100,4,3,2,52,0,0
34001,303.030303030303,4,3,22,62,1,0
34001,-98.0392156862745,4,3,22,62,0,0
35042,303.030303030303,4,3,22,62,1,0
35042,-98.0392156862745,4,3,22,62,0,0
35497,303.030303030303,4,3,22,62,1,0
35497,-98.0392156862745,4,3,22,62,0,0
36860,303.030303030303,4,3,22,62,1,0
36860,-98.0392156862745,4,3,22,62,0,0
37901,303.030303030303,4,3,22,62,1,0
38839,303.030303030303,4,3,22,62,1,0
38839,-98.0392156862745,4,3,22,62,0,0
43611,-98.0392156862745,4,3,22,5,0,0
43687,-98.0392156862745,4,3,22,62,0,0
46107,303.030303030303,4,3,22,62,1,0
46107,-98.0392156862745,4,3,22,62,0,0
48552,303.030303030303,4,2,2,72,1,1
48552,-89.2857142857143,4,2,2,72,0,1
51560,303.030303030303,4,2,2,72,1,1
51560,-89.2857142857143,4,2,2,72,0,1
52166,303.030303030303,4,2,2,72,1,1
52166,-89.2857142857143,4,2,2,72,0,1
53302,-89.2857142857143,4,2,2,12,0,1
53378,-89.2857142857143,4,2,2,72,0,1
57772,-89.2857142857143,4,2,2,72,0,0
58226,303.030303030303,4,2,2,72,1,1
58226,-108.695652173913,4,2,2,72,0,1
58453,-89.2857142857143,4,2,2,5,0,0
58542,303.030303030303,4,2,2,72,1,1
58542,-89.2857142857143,4,2,2,72,0,1
58769,-89.2857142857143,4,2,2,5,0,1
58845,-89.2857142857143,4,2,2,72,0,1
59299,303.030303030303,4,2,2,72,1,1
59299,-89.2857142857143,4,2,2,72,0,1
59763,303.030303030303,4,2,2,72,1,1
59763,-89.2857142857143,4,2,2,72,0,1
60596,-89.2857142857143,4,2,2,12,0,1
60672,303.030303030303,4,2,2,72,1,1
60672,-89.2857142857143,4,2,2,72,0,1
61259,303.030303030303,4,2,2,72,1,1
61259,-89.2857142857143,4,2,2,72,0,1
61714,-89.2857142857143,4,2,2,72,0,1
61865,303.030303030303,4,2,2,72,1,1
61865,-89.2857142857143,4,2,2,72,0,1
62395,-89.2857142857143,4,2,2,12,0,1
62471,-89.2857142857143,4,2,2,72,0,1
63077,303.030303030303,4,2,2,72,1,1
63077,-89.2857142857143,4,2,2,72,0,1
65505,303.030303030303,4,2,2,72,1,1
65505,-89.2857142857143,4,2,2,72,0,1
67925,303.030303030303,4,2,2,62,1,1
67925,-98.0392156862745,4,2,2,62,0,1
68992,303.030303030303,4,2,2,62,1,0
68992,-98.0392156862745,4,2,2,62,0,0
69465,303.030303030303,4,2,2,62,1,0
69465,-98.0392156862745,4,2,2,62,0,0
70355,303.030303030303,4,2,2,62,1,0
70355,-98.0392156862745,4,2,2,62,0,0
77615,303.030303030303,4,2,2,62,1,0
79445,303.030303030303,4,2,2,62,1,0
80043,303.030303030303,4,2,2,62,1,0
80043,-98.0392156862745,4,2,2,62,0,0
82486,303.030303030303,4,2,2,72,1,0
82934,303.030303030303,4,2,2,72,1,0
83540,303.030303030303,4,2,2,72,1,0
83691,303.030303030303,4,2,2,72,1,0
87347,303.030303030303,4,2,2,72,1,0

[Colours]
Combo1 : 210,239,201
Combo2 : 245,200,251
Combo3 : 80,160,226
Combo4 : 255,36,36
Combo5 : 219,232,238
Combo6 : 255,222,159
SliderBorder : 235,240,244
SliderTrackOverride : 15,15,12

[HitObjects]
216,84,4920,6,0,P|228:136|240:192,1,99.839999390625,2|0,0:0|0:0,0:0:0:0:
191,322,5374,2,0,P|213:275|275:264,1,99.839999390625,2|0,0:0|0:0,0:0:0:0:
388,274,5829,1,0,3:0:0:0:
448,220,5980,2,0,P|404:193|343:207,2,99.839999390625,2|2|0,0:0|0:0|0:0,0:0:0:0:
404,110,6738,2,0,L|406:81,2,24.9599998476563
324,94,7041,1,0,0:0:0:0:
246,118,7192,1,0,0:0:0:0:
159,83,7344,6,0,P|166:115|167:142,1,49.9199996953125,2|0,0:0|0:0,0:0:0:0:
88,171,7647,1,0,3:0:0:0:
182,295,7798,2,0,L|288:281,1,99.839999390625,2|0,0:0|0:0,0:0:0:0:
424,207,8253,1,0,3:0:0:0:
474,277,8404,2,0,P|441:287|364:269,1,99.839999390625,2|0,0:0|0:0,0:0:0:0:
252,208,8859,2,0,P|297:203|317:204,1,49.9199996953125,2|0,0:0|0:0,0:0:0:0:
424,207,9162,2,0,P|429:185|428:172,2,24.9599998476563
361,151,9465,1,0,0:0:0:0:
394,75,9616,1,0,0:0:0:0:
328,232,9768,5,2,0:0:0:0:
314,86,9920,1,0,0:0:0:0:
472,60,10071,1,0,3:0:0:0:
314,86,10223,2,0,P|257:80|197:77,1,99.839999390625,2|0,0:0|0:0,0:0:0:0:
99,151,10677,2,0,P|146:145|171:143,1,49.9199996953125,2|0,0:0|0:0,0:0:0:0:
254,155,10980,1,0,3:0:0:0:
98,237,11132,2,0,P|155:227|203:250,1,99.839999390625,2|0,0:0|0:0,0:0:0:0:
291,307,11586,2,0,P|285:317|279:329,2,24.9599998476563
334,242,11889,1,0,0:0:0:0:
376,169,12041,1,0,0:0:0:0:
454,221,12192,6,0,P|462:184|460:164,1,49.9199996953125,2|0,0:0|0:0,0:0:0:0:
426,94,12495,1,0,3:0:0:0:
279,148,12647,2,0,P|311:162|390:167,1,99.839999390625,2|0,0:0|0:0,0:0:0:0:
336,82,13101,1,0,0:0:0:0:
201,114,13253,1,0,0:0:0:0:
196,137,13329,1,0,0:0:0:0:
192,159,13404,1,6,0:0:0:0:
104,181,14465,5,0,0:0:0:0:
68,259,14598,2,0,L|160:252,1,78.7200012011719,6|0,1:2|0:0,0:0:0:0:
222,300,14901,1,0,1:0:0:0:
312,153,15052,1,2,0:2:0:0:
346,234,15204,2,0,L|254:227,1,78.7200012011719,2|0,1:2|0:0,0:0:0:0:
228,152,15507,1,0,1:0:0:0:
307,306,15658,1,2,0:2:0:0:
312,153,15810,2,0,L|423:150,1,78.7200012011719,2|0,1:2|0:0,0:0:0:0:
267,228,16113,2,0,L|156:225,1,78.7200012011719,0|2,1:0|0:2,0:0:0:0:
228,152,16416,1,2,1:2:0:0:
223,302,16567,1,0,3:0:0:0:
206,122,16719,1,10,0:2:0:0:
121,283,16870,1,0,3:0:0:0:
137,70,17022,6,0,P|189:46|229:43,1,78.7200012011719,2|0,1:2|0:0,0:0:0:0:
300,178,17325,2,0,P|248:154|208:151,1,78.7200012011719,2|0,1:2|0:0,0:0:0:0:
121,283,17628,2,0,P|173:259|213:256,1,78.7200012011719,2|0,1:2|0:0,0:0:0:0:
325,344,17931,1,2,1:2:0:0:
186,334,18082,1,0,0:0:0:0:
369,269,18226,1,0,1:0:0:0:
156,176,18377,1,8,0:0:0:0:
223,259,18529,1,0,1:0:0:0:
270,132,18680,1,8,0:0:0:0:
316,334,18832,1,8,0:0:0:0:
368,163,18983,1,0,1:0:0:0:
294,221,19135,1,2,1:2:0:0:
172,62,19286,1,8,0:0:0:0:
57,214,19431,6,0,P|139:205|231:188,1,157.440002402344,6|0,1:2|1:0,0:0:0:0:
341,103,19885,1,2,0:2:0:0:
463,180,20037,2,0,P|413:184|309:97,1,157.440002402344,2|0,1:2|1:2,0:0:0:0:
418,101,20491,1,2,0:2:0:0:
383,280,20643,2,0,L|283:259,1,78.7200012011719,2|0,1:2|0:0,0:0:0:0:
306,264,20946,1,0,1:0:0:0:
91,144,21249,1,2,1:2:0:0:
213,158,21400,1,0,0:0:0:0:
133,330,21552,1,8,0:0:0:0:
132,224,21703,1,0,0:0:0:0:
224,360,21855,6,0,P|219:300|211:262,1,78.7200012011719,2|0,1:2|0:0,0:0:0:0:
110,140,22158,1,2,1:2:0:0:
47,333,22309,2,0,L|139:318,1,78.7200012011719,2|0,0:2|1:0,0:0:0:0:
295,275,22612,2,0,L|203:260,1,78.7200012011719,2|0,0:2|1:0,0:0:0:0:
117,228,22915,1,0,0:0:0:0:
270,182,23067,2,0,P|226:170|117:216,1,157.440002402344,2|0,1:2|1:0,0:0:0:0:
218,270,23521,1,2,0:2:0:0:
174,93,23673,1,2,1:2:0:0:
128,290,23824,1,8,0:0:0:0:
249,125,23976,1,0,1:0:0:0:
325,344,24127,1,8,0:0:0:0:
346,196,24279,6,0,P|183:177|155:177,1,157.440002402344,6|0,1:2|1:0,0:0:0:0:
46,245,24734,1,2,0:2:0:0:
248,256,24885,2,0,P|192:250|140:255,1,78.7200012011719,2|0,1:2|0:0,0:0:0:0:
0,172,25188,2,0,P|56:166|108:171,1,78.7200012011719,0|2,1:0|0:2,0:0:0:0:
254,64,25491,2,0,P|194:94|200:191,1,157.440002402344,2|0,1:2|1:0,0:0:0:0:
326,106,25946,1,2,0:2:0:0:
113,85,26097,2,0,P|51:91|12:99,1,78.7200012011719,2|0,1:2|0:0,0:0:0:0:
282,186,26400,2,0,P|344:192|383:200,1,78.7200012011719,10|0,0:2|0:0,0:0:0:0:
87,163,26703,6,0,B|53:248|129:235|89:348,1,157.440002402344,2|2,1:2|1:2,0:0:0:0:
18,280,27158,1,0,0:0:0:0:
157,205,27309,2,0,L|248:216,1,78.7200012011719,2|0,1:2|0:0,0:0:0:0:
300,307,27612,1,2,1:2:0:0:
404,189,27764,2,0,P|357:196|267:127,1,157.440002402344,0|0,3:3|3:3,0:0:0:0:
357,113,28218,1,0,1:0:0:0:
357,113,28521,1,0,1:0:0:0:
379,305,28673,1,0,0:0:0:0:
434,81,28824,1,10,0:2:0:0:
384,193,28976,1,2,0:2:0:0:
295,54,29127,6,0,B|241:43|241:43|199:55|199:55|136:45,1,157.440002402344,2|0,1:2|1:0,0:0:0:0:
245,122,29582,1,2,0:2:0:0:
68,13,29734,2,0,B|35:92|112:87|54:189,1,157.440002402344,2|0,1:2|1:0,0:0:0:0:
0,122,30188,1,2,0:2:0:0:
149,125,30359,2,0,P|147:179|123:224,1,78.7200012011719,2|0,1:2|0:0,0:0:0:0:
75,323,30662,2,0,P|70:263|74:228,1,78.7200012011719,0|2,1:0|0:2,0:0:0:0:
223,246,30965,1,2,1:2:0:0:
66,165,31116,1,0,0:0:0:0:
146,283,31268,1,8,0:0:0:0:
151,124,31419,1,2,0:2:0:0:
220,328,31571,6,0,P|364:319|380:319,1,157.440002402344,2|0,1:2|1:0,0:0:0:0:
497,248,32025,2,0,P|437:239|409:231,1,78.7200012011719,2|0,0:2|1:0,0:0:0:0:
307,103,32328,2,0,P|345:159|332:255,1,157.440002402344,2|0,0:2|0:0,0:0:0:0:
192,196,32783,2,0,P|239:180|275:175,1,78.7200012011719,0|0,1:2|0:0,0:0:0:0:
125,258,33086,5,8,0:0:0:0:
337,245,33237,1,8,0:0:0:0:
291,247,33313,1,8,0:0:0:0:
252,255,33389,1,10,0:2:0:0:
418,272,33540,1,8,3:0:0:0:
192,325,33692,1,4,3:0:0:0:
332,328,33843,1,4,3:0:0:0:
63,261,34001,6,0,B|164:221|140:311|271:245,1,195.840001195313,4|8,0:0|0:2,0:0:0:0:
208,55,34455,2,0,P|201:118|184:171,1,97.9200005976563,2|2,0:2|0:0,0:0:0:0:
109,334,34758,1,2,0:0:0:0:
125,96,34910,1,8,0:0:0:0:
221,283,35042,2,0,B|373:267|373:267|308:250,1,195.840001195313,2|2,0:0|0:0,0:0:0:0:
52,231,35497,2,0,P|110:220|157:212,1,97.9200005976563,8|0,0:2|0:0,0:0:0:0:
372,189,35800,1,2,0:0:0:0:
146,131,35951,1,2,0:0:0:0:
224,300,36102,1,8,0:2:0:0:
246,181,36254,1,0,0:2:0:0:
140,313,36405,6,0,P|170:363|301:327,1,195.840001195313,6|8,0:0|0:0,0:0:0:0:
371,118,36860,2,0,P|356:176|363:227,1,97.9200005976563,0|2,0:2|0:0,0:0:0:0:
458,346,37163,1,0,0:0:0:0:
440,170,37314,1,8,0:0:0:0:
263,240,37466,2,0,B|178:256|108:213|108:213|148:186,1,195.840001195313,6|2,0:0|0:0,0:0:0:0:
306,75,37901,1,8,0:0:0:0:
306,75,38203,1,2,0:0:0:0:
316,321,38355,1,2,0:0:0:0:
223,153,38506,1,8,0:0:0:0:
183,277,38658,1,0,0:0:0:0:
435,227,38839,6,0,B|346:200|341:282|227:218,2,195.840001195313,6|8|2,0:0|0:0|0:0,0:0:0:0:
302,165,39596,1,2,0:0:0:0:
331,369,39748,2,0,P|379:335|391:288,1,97.9200005976563,8|0,0:0|0:0,0:0:0:0:
209,163,40051,2,0,P|172:228|253:308,1,195.840001195313,2|8,0:0|0:0,0:0:0:0:
243,307,40657,1,2,0:0:0:0:
72,312,40808,1,2,0:0:0:0:
250,226,40960,2,0,P|311:222|377:229,1,97.9200005976563,8|0,0:0|0:0,0:0:0:0:
463,331,41263,6,0,P|436:273|497:139,1,195.840001195313,6|8,0:0|0:0,0:0:0:0:
476,154,41869,1,2,0:0:0:0:
359,301,42020,1,2,0:0:0:0:
274,93,42171,1,8,0:0:0:0:
378,193,42323,1,0,0:0:0:0:
440,49,42474,1,2,0:0:0:0:
458,248,42626,1,2,0:0:0:0:
369,109,42778,2,0,L|249:90,1,97.9200005976563,8|0,0:0|0:0,0:0:0:0:
100,189,43081,1,2,0:0:0:0:
292,172,43232,1,2,0:0:0:0:
212,33,43384,2,0,B|192:88|192:88|207:193,1,146.880000896484,8|0,0:0|0:2,0:0:0:0:
158,263,43687,6,0,B|207:286|257:261|257:261|297:237|347:257,1,195.840001195313,6|8,0:0|0:0,0:0:0:0:
464,360,44142,2,0,P|395:355|353:321,1,97.9200005976563,2|2,0:2|0:0,0:0:0:0:
205,188,44445,1,2,0:0:0:0:
442,105,44595,2,0,B|387:190|473:200|432:298,1,195.840001195313,10|2,0:2|0:0,0:0:0:0:
501,158,45051,1,2,0:2:0:0:
356,251,45202,2,0,L|229:232,1,97.9200005976563,8|0,0:0|0:0,0:0:0:0:
145,135,45504,1,2,0:0:0:0:
318,165,45657,1,2,0:0:0:0:
206,319,45807,1,10,0:2:0:0:
204,189,45960,1,0,0:0:0:0:
297,359,46107,6,0,L|90:341,1,195.840001195313,6|0,0:0|0:0,0:0:0:0:
125,90,46562,2,8,P|146:141|148:150,1,48.9600002988281
195,282,46713,1,8,0:0:0:0:
66,148,46864,1,8,0:0:0:0:
268,54,47016,1,8,0:0:0:0:
203,199,47167,1,8,0:0:0:0:
87,18,47319,1,8,0:0:0:0:
87,18,47621,5,10,0:2:0:0:
230,124,47773,1,8,0:0:0:0:
18,157,47924,1,10,0:2:0:0:
335,188,48076,1,8,0:0:0:0:
114,141,48227,1,10,0:2:0:0:
315,107,48379,1,8,0:0:0:0:
69,262,48552,6,0,B|158:210|178:310|291:243,1,215.040002625,6|8,1:2|0:0,0:0:0:0:
122,325,49005,1,0,0:0:0:0:
226,142,49157,1,2,1:2:0:0:
309,323,49308,1,0,1:0:0:0:
268,70,49461,1,8,0:0:0:0:
397,293,49612,2,0,B|334:307|234:278|234:278|284:245,1,215.040002625,2|0,1:2|1:0,0:0:0:0:
476,175,50066,2,0,B|498:161|498:161|389:136,1,107.5200013125,10|0,0:2|0:0,0:0:0:0:
218,218,50370,2,0,B|196:232|196:232|305:257,1,107.5200013125,2|0,1:2|1:0,0:0:0:0:
368,67,50673,2,0,P|338:121|344:184,1,107.5200013125,10|0,0:2|0:0,0:0:0:0:
213,90,50976,6,0,B|175:159|208:258|208:258|221:200,1,215.040002625,6|8,1:2|0:0,0:0:0:0:
122,107,51430,1,0,0:0:0:0:
206,301,51560,1,2,1:2:0:0:
276,148,51711,1,0,1:0:0:0:
122,335,51863,1,8,0:0:0:0:
182,21,52014,2,0,B|214:89|214:89|188:147|188:147|221:234,1,215.040002625,2|0,1:2|1:0,0:0:0:0:
399,162,52468,2,0,P|337:142|287:140,1,107.5200013125,10|0,0:2|0:0,0:0:0:0:
123,219,52771,1,2,1:2:0:0:
319,215,52923,1,2,1:2:0:0:
102,135,53075,2,0,P|50:174|52:264,1,161.28000196875,10|0,0:2|0:0,0:0:0:0:
104,328,53378,6,0,B|203:277|211:376|323:317,1,215.040002625,2|10,1:2|0:2,0:0:0:0:
451,174,53832,2,0,P|386:185|338:224,1,107.5200013125,2|0,0:2|1:0,0:0:0:0:
388,345,54135,1,2,1:2:0:0:
424,94,54287,1,8,0:0:0:0:
482,316,54438,2,0,L|237:287,1,215.040002625,2|0,1:2|1:0,0:0:0:0:
91,119,54893,2,0,B|78:92|78:92|71:187,1,107.5200013125,10|0,0:2|0:0,0:0:0:0:
179,299,55196,2,0,B|192:326|192:326|197:248,1,107.5200013125,2|0,1:2|1:0,0:0:0:0:
160,77,55499,1,10,0:2:0:0:
160,77,55802,6,0,B|220:72|220:72|267:92|267:92|339:83|339:83|294:66,1,215.040002625,6|10,1:2|0:2,0:0:0:0:
182,254,56256,2,0,P|188:178|206:141,1,107.5200013125,2|0,0:2|1:0,0:0:0:0:
269,11,56560,1,2,1:2:0:0:
262,217,56711,1,8,0:0:0:0:
149,66,56862,1,2,0:2:0:0:
346,178,57014,2,0,P|351:247|210:296,2,215.040002625,6|10|2,1:2|0:2|1:2,0:0:0:0:
229,41,57772,6,0,P|209:96|206:114,1,53.76000065625,8|8,0:0|0:0,0:0:0:0:
268,229,57923,2,0,P|245:173|239:166,1,53.76000065625,10|8,0:2|0:0,0:0:0:0:
111,145,58075,2,0,P|168:156|177:154,1,53.76000065625,8|8,0:0|0:0,0:0:0:0:
401,120,58226,6,0,P|339:101|279:140,1,132.479995552735,2|0,1:2|2:0,0:0:0:0:
277,180,58542,6,0,P|343:138|417:163,1,161.28000196875,12|0,0:0|2:0,0:0:0:0:
354,217,58845,1,2,1:2:0:0:
328,24,58996,1,0,1:0:0:0:
286,258,59148,1,8,0:0:0:0:
123,96,59299,2,0,L|245:74,1,107.5200013125,2|0,1:2|0:0,0:0:0:0:
337,117,59602,1,0,1:0:0:0:
54,38,59763,2,0,B|-8:139|109:142|31:264,1,215.040002625,10|0,0:2|1:0,0:0:0:0:
115,91,60218,1,0,1:0:0:0:
182,229,60369,2,0,P|124:201|30:278,1,161.28000196875,10|0,0:2|0:0,0:0:0:0:
115,281,60672,6,0,B|184:262|184:262|241:289|241:289|339:270,1,215.040002625,6|8,1:2|0:0,0:0:0:0:
320,274,61259,1,2,1:2:0:0:
256,89,61410,1,0,1:0:0:0:
177,347,61562,1,8,0:0:0:0:
384,212,61714,2,0,P|326:193|247:206,1,107.5200013125,2|0,1:2|0:0,0:0:0:0:
206,269,62016,1,0,1:0:0:0:
85,191,62168,2,0,B|184:227|150:148|273:200,1,161.28000196875,10|0,0:2|0:0,0:0:0:0:
270,210,62471,1,2,1:2:0:0:
128,121,62622,1,2,1:2:0:0:
209,283,62774,1,10,0:2:0:0:
209,283,63077,6,0,P|275:306|359:198,1,215.040002625,6|10,1:2|0:2,0:0:0:0:
237,88,63531,2,0,P|250:154|277:227,1,107.5200013125,2|0,0:2|1:0,0:0:0:0:
327,119,63834,1,2,1:2:0:0:
170,165,63985,1,8,0:0:0:0:
307,41,64137,2,0,B|240:62|240:62|169:39|169:39|90:62,1,215.040002625,2|0,1:2|1:0,0:0:0:0:
45,204,64592,2,0,P|94:183|162:169,1,107.5200013125,10|0,0:2|0:0,0:0:0:0:
300,271,64895,2,0,P|250:250|183:236,1,107.5200013125,2|0,1:2|1:0,0:0:0:0:
8,334,65198,1,8,0:0:0:0:
8,334,65505,6,0,B|93:286|114:382|218:315,1,215.040002625,6|8,1:2|0:0,0:0:0:0:
271,169,65959,1,2,0:2:0:0:
399,302,66111,2,0,P|333:293|294:265,1,107.5200013125,2|0,1:2|1:0,0:0:0:0:
357,78,66413,1,8,0:0:0:0:
376,213,66565,1,2,0:2:0:0:
109,138,66717,6,0,P|175:96|272:174,1,215.040002625,14|2,0:2|1:2,0:0:0:0:
36,340,67171,2,0,B|26:288|26:288|44:230|44:230|2:174|20:112,1,215.040002625,14|2,0:2|1:2,0:0:0:0:
118,38,67626,2,0,B|186:28|186:28|241:37,1,107.5200013125,12|8,0:0|0:0,0:0:0:0:
300,80,67853,1,8,0:0:0:0:
312,87,67925,6,0,P|246:72|174:169,1,195.840001195313,6|8,1:2|0:0,0:0:0:0:
263,296,68380,2,0,P|284:221|285:183,1,97.9200005976563,2|0,0:2|1:0,0:0:0:0:
342,346,68683,1,0,1:0:0:0:
201,235,68834,1,10,0:0:0:0:
82,354,68992,2,0,L|66:240,1,97.9200005976563,0|0,1:0|0:0,0:0:0:0:
103,93,69295,1,2,0:0:0:0:
156,308,69465,2,0,P|209:318|283:206,1,195.840001195313,8|2,0:0|1:2,0:0:0:0:
206,48,69919,1,0,1:0:0:0:
201,235,70071,2,0,P|189:171|193:127,1,97.9200005976563,8|0,0:0|0:0,0:0:0:0:
389,47,70355,6,0,B|311:81|311:81|174:38,1,195.840001195313,6|8,1:2|0:0,0:0:0:0:
281,181,70809,1,0,0:0:0:0:
205,47,70961,1,0,1:0:0:0:
375,140,71112,1,0,1:0:0:0:
117,148,71264,1,10,0:2:0:0:
290,83,71415,2,0,L|278:211,1,97.9200005976563,0|0,1:0|0:0,0:0:0:0:
132,282,71718,1,2,1:2:0:0:
300,268,71870,1,8,0:0:0:0:
208,229,72021,1,0,0:0:0:0:
261,356,72173,1,2,1:2:0:0:
281,180,72324,1,0,1:0:0:0:
370,368,72476,1,10,0:2:0:0:
392,285,72627,1,0,0:0:0:0:
113,275,72779,6,0,B|178:259|178:259|237:278|237:278|320:264,1,195.840001195313,6|8,1:2|0:0,0:0:0:0:
90,187,73233,2,0,P|39:230|24:280,1,97.9200005976563,2|0,0:2|1:0,0:0:0:0:
51,334,73536,1,0,1:0:0:0:
247,199,73688,1,10,0:2:0:0:
197,269,73839,2,0,P|167:217|172:164,1,97.9200005976563,0|0,1:0|0:0,0:0:0:0:
220,108,74142,1,2,1:2:0:0:
284,275,74294,2,0,P|259:333|116:312,1,195.840001195313,8|2,0:2|1:2,0:0:0:0:
167,180,74748,1,2,1:2:0:0:
337,352,74900,2,0,L|453:332,1,97.9200005976563,10|0,0:2|0:0,0:0:0:0:
431,146,75203,6,0,B|379:243|470:242|425:359,1,195.840001195313,6|8,1:2|0:0,0:0:0:0:
357,120,75658,2,0,P|336:185|340:240,1,97.9200005976563,2|0,0:2|1:0,0:0:0:0:
340,353,75961,1,0,1:0:0:0:
260,140,76112,1,10,0:2:0:0:
184,308,76264,2,0,P|243:303|297:289,1,97.9200005976563,2|0,1:2|0:0,0:0:0:0:
120,74,76567,2,0,P|103:139|120:200,1,97.9200005976563,2|8,1:2|0:0,0:0:0:0:
356,119,76870,2,0,P|319:76|264:52,1,97.9200005976563,2|0,0:2|1:0,0:0:0:0:
162,261,77173,2,0,P|225:278|272:276,1,97.9200005976563,2|8,0:2|0:0,0:0:0:0:
204,116,77476,2,0,P|195:147|195:163,1,48.9600002988281,8|8,0:0|0:0,0:0:0:0:
298,187,77615,6,0,L|82:163,1,192,4|8,1:0|0:0,0:0:0:0:
368,272,78069,2,0,P|385:214|389:153,1,96,2|0,0:2|1:0,0:0:0:0:
300,35,78372,1,0,1:0:0:0:
308,204,78524,1,10,0:0:0:0:
418,63,78675,2,0,L|193:50,1,192,0|2,1:0|1:2,0:0:0:0:
46,120,79130,1,8,0:0:0:0:
46,120,79445,1,2,1:2:0:0:
134,32,79596,1,0,1:0:0:0:
173,199,79748,1,10,0:2:0:0:
129,116,79899,1,0,0:0:0:0:
252,179,80043,6,0,P|244:247|116:264,1,195.840001195313,2|8,1:2|0:0,0:0:0:0:
219,96,80497,2,0,L|336:84,1,97.9200005976563,2|0,0:2|1:0,0:0:0:0:
421,186,80800,1,0,1:0:0:0:
373,17,80952,1,10,0:2:0:0:
332,187,81103,2,0,P|338:250|344:304,1,97.9200005976563,2|0,1:2|0:0,0:0:0:0:
396,97,81406,1,2,1:2:0:0:
424,255,81558,2,0,P|418:332|409:378,1,97.9200005976563,8|0,0:0|0:0,0:0:0:0:
298,149,81861,2,0,P|304:212|316:283,1,97.9200005976563,2|0,1:2|1:0,0:0:0:0:
444,57,82164,2,0,P|438:120|426:189,1,97.9200005976563,10|0,0:2|0:0,0:0:0:0:
212,18,82486,6,0,B|263:104|164:111|246:226,1,192,6|8,1:2|0:0,0:0:0:0:
61,87,82934,2,0,P|124:70|162:70,1,96,2|0,0:2|1:0,0:0:0:0:
287,142,83237,1,0,1:0:0:0:
120,150,83388,1,10,0:2:0:0:
353,80,83540,2,0,P|290:63|252:63,1,96,2|0,1:2|0:0,0:0:0:0:
203,204,83843,1,2,1:2:0:0:
36,87,83994,2,0,P|122:64|207:130,1,192,8|2,0:0|1:2,0:0:0:0:
203,288,84449,1,2,1:2:0:0:
259,62,84600,2,0,P|285:120|274:162,1,96,10|0,0:2|0:0,0:0:0:0:
117,313,84903,5,6,1:2:0:0:
331,245,85054,1,8,0:0:0:0:
64,224,85205,2,0,P|121:219|164:231,1,96,8|2,0:0|1:2,0:0:0:0:
186,247,85432,1,0,1:0:0:0:
213,280,85508,1,12,0:0:0:0:
261,97,85660,2,0,P|281:151|285:169,1,48,0|0,1:0|1:0,0:0:0:0:
288,327,85811,1,10,0:2:0:0:
352,101,85963,1,14,0:2:0:0:
392,306,86115,6,0,P|399:359|399:365,2,48,0|0|10,1:0|1:0|0:2,0:0:0:0:
194,152,86418,1,12,0:0:0:0:
454,239,86569,1,2,1:2:0:0:
413,223,86644,1,0,1:0:0:0:
371,221,86720,1,8,0:0:0:0:
330,236,86796,1,8,0:0:0:0:
291,255,86872,1,10,0:2:0:0:
250,264,86947,1,8,0:0:0:0:
207,256,87024,2,0,P|169:239|148:217,1,48,4|4,3:3|3:0,0:0:0:0:
262,116,87175,2,0,P|270:168|268:177,1,48,4|4,3:0|3:0,0:0:0:0:
165,147,87347,5,6,0:0:0:0:
