osu file format v14

[General]
AudioFilename: audio.mp3
AudioLeadIn: 0
PreviewTime: 47383
Countdown: 0
SampleSet: Soft
StackLeniency: 0.7
Mode: 0
LetterboxInBreaks: 0
WidescreenStoryboard: 0

[Editor]
Bookmarks: 25545,164864,174560
DistanceSpacing: 1.2
BeatDivisor: 4
GridSize: 8
TimelineZoom: 1.7

[Metadata]
Title:Genzaichi
TitleUnicode:現在地
Artist:fhana
ArtistUnicode:fhána
Creator:Knotts
Version:Extra
Source:
Tags:小林さんちのメイドラゴン Miss Kobayashi's Dragon Maid Rhapsody of Blue Sky
BeatmapID:1228487
BeatmapSetID:580203

[Difficulty]
HPDrainRate:6
CircleSize:4.2
OverallDifficulty:9
ApproachRate:9.2
SliderMultiplier:1.7
SliderTickRate:1

[Events]
//Background and Video events
0,0,"tohru.jpg",0,0
//Break Periods
2,164864,173989
//Storyboard Layer 0 (Background)
//Storyboard Layer 1 (Fail)
//Storyboard Layer 2 (Pass)
//Storyboard Layer 3 (Foreground)
//Storyboard Sound Samples

[TimingPoints]
15,303.030303030303,4,2,1,40,1,0
4863,-133.333333333333,4,2,1,40,0,0
14559,-100,4,2,1,60,0,0
33272,-100,4,2,1,70,0,0
47590,-100,4,2,1,40,0,0
48499,-100,4,2,1,75,0,0
57741,-100,4,2,1,40,0,0
57893,-100,4,2,1,70,0,0
57969,-100,4,2,1,40,0,0
58196,-100,4,2,1,75,0,0
101529,-76.9230769230769,4,2,1,75,0,0
101832,-100,4,2,1,75,0,0
120317,-100,4,2,1,30,0,0
121226,-100,4,2,1,70,0,0
130393,-100,4,2,1,30,0,0
130620,-100,4,2,1,70,0,0
130696,-100,4,2,1,30,0,0
130923,-100,4,2,1,70,0,0
155620,-83.3333333333333,4,2,1,70,0,0
155923,-100,4,2,1,70,0,0
156529,-83.3333333333333,4,2,1,70,0,0
156832,-100,4,2,1,70,0,0
158044,-83.3333333333333,4,2,1,70,0,0
158347,-100,4,2,1,70,0,0
158953,-83.3333333333333,4,2,1,70,0,0
160014,-100,4,2,1,30,0,0
162438,-100,4,2,1,40,0,0
174559,-100,4,2,1,60,0,0
184559,-100,4,2,1,40,0,0
185469,-100,4,2,1,50,0,0
186681,-100,4,2,1,60,0,0
187893,-133.333333333333,4,2,1,40,0,0
188802,-200,4,2,1,60,0,0
189408,-100,4,2,1,70,0,0
198196,-100,4,2,1,30,0,0
198499,-100,4,2,1,70,0,0
198575,-100,4,2,1,30,0,0
198802,-100,4,2,1,70,0,0
227135,-100,4,2,1,40,0,0
227893,-100,4,2,1,60,0,0

[Colours]
Combo1 : 255,192,0
Combo2 : 0,202,0
Combo3 : 18,124,255
Combo4 : 242,24,57

[HitObjects]
256,192,15,12,0,4560,0:0:0:0:
58,94,4863,6,0,B|142:64|142:64|201:81,1,127.500004863739
228,153,5317,2,0,P|309:132|380:121,1,127.500004863739
352,124,5772,1,0,0:0:0:0:
220,241,5923,6,0,P|161:220|137:164,1,127.500004863739
320,223,6378,2,0,P|313:253|307:295,1,63.7500024318696
228,153,6681,2,0,P|225:132|223:96,2,31.8750012159348
220,241,6984,1,0,0:0:0:0:
214,332,7135,1,0,0:0:0:0:
121,252,7287,6,0,P|117:184|110:112,1,127.500004863739
172,32,7741,2,0,P|244:40|275:110,1,127.500004863739
348,148,8196,1,0,0:0:0:0:
174,129,8347,6,0,B|117:114|77:109|77:109|110:153,1,127.500004863739
204,223,8802,2,0,P|239:213|289:204,1,63.7500024318696
269,74,9105,2,0,L|277:23,2,31.8750012159348
348,148,9408,1,0,0:0:0:0:
407,293,9559,1,0,0:0:0:0:
407,293,9635,1,0,0:0:0:0:
407,293,9711,6,0,P|465:287|493:219,1,127.500004863739
325,242,10166,2,0,P|278:232|177:216,1,127.500004863739
145,140,10620,1,0,0:0:0:0:
65,262,10772,6,0,B|53:219|53:219|62:171|62:171|46:114,1,127.500004863739
189,233,11226,2,0,P|178:294|172:360,1,127.500004863739
275,338,11681,1,0,0:0:0:0:
87,294,11832,1,0,0:0:0:0:
261,363,11984,1,0,0:0:0:0:
414,281,12135,6,0,P|364:225|295:232,1,127.500004863739
259,138,12590,2,0,P|252:80|238:-1,1,127.500004863739
279,276,13044,1,0,0:0:0:0:
211,207,13196,6,0,B|269:175|269:175|358:196,1,127.500004863739
173,296,13650,2,0,P|113:277|34:261,1,127.500004863739
111,185,14029,1,0,0:0:0:0:
111,185,14105,1,0,0:0:0:0:
202,319,14256,1,0,0:0:0:0:
298,231,14408,1,0,0:0:0:0:
459,338,14559,5,2,0:0:0:0:
459,338,14711,2,0,P|417:330|371:318,1,85,0|2,0:0|0:0,0:0:0:0:
202,319,15014,1,0,0:0:0:0:
383,224,15166,2,0,P|342:155|260:155,1,170,2|0,0:0|0:0,0:0:0:0:
99,255,15620,2,0,P|143:238|209:219,1,85,0|2,0:0|0:0,0:0:0:0:
294,238,15923,5,0,0:0:0:0:
209,116,16075,2,0,P|196:75|190:34,1,85,2|0,0:0|0:0,0:0:0:0:
494,154,16378,2,0,P|451:149|410:138,1,85,2|0,0:0|0:0,0:0:0:0:
349,20,16681,2,0,P|328:57|313:97,1,85,8|0,0:0|0:0,0:0:0:0:
404,241,16984,6,0,B|350:232|296:208|296:208|259:219|247:264,1,170,2|2,0:0|0:0,0:0:0:0:
312,307,17438,1,0,0:0:0:0:
211,149,17590,2,0,P|207:96|209:50,1,85,2|0,0:0|0:0,0:0:0:0:
373,146,17893,2,0,P|410:154|457:169,1,85,2|0,0:0|0:0,0:0:0:0:
287,208,18196,5,2,0:0:0:0:
401,251,18347,1,8,0:0:0:0:
397,64,18499,1,2,0:0:0:0:
316,288,18650,1,8,0:0:0:0:
477,162,18802,2,0,P|429:156|363:150,1,85,8|4,0:0|0:3,0:0:0:0:
288,67,19105,1,2,0:0:0:0:
364,173,19256,1,8,0:0:0:0:
217,249,19408,6,0,B|160:241|122:209|122:209|80:221|45:217,1,170,2|2,0:0|0:0,0:0:0:0:
73,131,19862,1,0,0:0:0:0:
209,73,20014,2,0,L|194:162,1,85,2|0,0:0|0:0,0:0:0:0:
174,286,20317,1,2,0:0:0:0:
357,273,20469,1,0,0:0:0:0:
357,273,20620,6,0,B|245:243|245:243|178:277,1,170,2|2,0:0|0:0,0:0:0:0:
178,182,21075,1,0,0:0:0:0:
228,366,21226,2,0,L|331:343,1,85,2|0,0:0|0:0,0:0:0:0:
116,290,21529,2,0,L|21:278,1,85,8|0,0:0|0:0,0:0:0:0:
181,153,21832,6,0,P|187:111|198:65,2,85,2|0|2,0:0|0:0|0:0,0:0:0:0:
327,99,22287,1,0,0:0:0:0:
327,99,22438,2,0,P|321:57|310:11,1,85,2|0,0:0|0:0,0:0:0:0:
280,228,22741,2,0,P|319:213|360:202,1,85,2|0,0:0|0:0,0:0:0:0:
264,317,23044,6,0,P|187:234|226:162,1,170,2|2,0:0|0:0,0:0:0:0:
384,215,23499,1,0,0:0:0:0:
293,144,23650,1,2,0:0:0:0:
436,26,23802,2,0,P|451:55|465:117,1,85,8|2,0:0|0:0,0:0:0:0:
376,243,24105,1,8,0:0:0:0:
271,120,24256,6,0,B|215:113|215:113|160:138|160:138|104:132,1,170,4|2,0:0|0:0,0:0:0:0:
118,250,24711,1,0,0:0:0:0:
220,284,24862,2,0,P|225:232|234:194,1,85,2|0,0:0|0:0,0:0:0:0:
321,182,25166,1,2,0:0:0:0:
147,156,25317,1,0,0:0:0:0:
316,57,25469,6,0,P|324:98|328:140,1,85,2|0,0:0|0:0,0:0:0:0:
149,34,25772,2,0,P|140:75|136:117,1,85,2|0,0:0|0:0,0:0:0:0:
298,274,26075,2,0,P|340:264|395:257,1,85,2|0,0:0|0:0,0:0:0:0:
196,353,26378,2,0,P|154:343|99:336,1,85,8|0,0:0|0:0,0:0:0:0:
318,185,26681,6,0,P|242:193|210:280,1,170,2|2,0:0|0:0,0:0:0:0:
322,18,27135,1,0,0:0:0:0:
322,18,27287,2,0,P|308:58|288:110,1,85,2|0,0:0|0:0,0:0:0:0:
230,251,27590,2,0,P|245:292|256:331,1,85,2|0,0:0|0:0,0:0:0:0:
208,120,27893,5,2,0:0:0:0:
304,177,28044,1,0,0:0:0:0:
137,238,28196,2,0,L|52:228,1,85,2|0,0:0|0:0,0:0:0:0:
106,39,28499,2,0,P|108:81|116:133,1,85,2|0,0:0|0:0,0:0:0:0:
304,177,28802,2,0,P|302:219|294:271,1,85,8|0,0:0|0:0,0:0:0:0:
463,33,29105,6,0,B|406:32|368:74|368:74|333:48|275:53,1,170,2|2,0:0|0:0,0:0:0:0:
452,127,29559,1,0,0:0:0:0:
278,45,29711,2,0,P|256:88|245:132,1,85,2|0,0:0|0:0,0:0:0:0:
337,236,30014,1,2,0:0:0:0:
249,152,30166,1,0,0:0:0:0:
142,347,30317,5,2,0:0:0:0:
243,312,30469,1,0,0:0:0:0:
243,312,30620,2,0,P|285:315|327:322,1,85,2|0,0:0|0:0,0:0:0:0:
161,226,30923,2,0,P|119:228|61:241,1,85,2|0,0:0|0:0,0:0:0:0:
242,41,31226,2,0,L|227:142,1,85,8|0,0:0|0:0,0:0:0:0:
421,229,31529,6,0,B|363:223|315:189|315:189|317:228|308:251,1,170,2|2,0:0|0:0,0:0:0:0:
382,46,31984,1,0,0:0:0:0:
382,46,32135,2,0,L|385:153,1,85,2|0,0:0|0:0,0:0:0:0:
313,267,32438,1,2,0:0:0:0:
387,160,32590,1,0,0:0:0:0:
473,337,32741,6,0,P|428:331|383:322,1,85,2|0,0:0|0:0,0:0:0:0:
221,278,33044,2,0,P|176:283|131:292,1,85,8|8,0:0|0:0,0:0:0:0:
213,365,33272,1,8,0:0:0:0:
213,365,33347,2,0,P|247:364|314:354,1,85,2|4,0:0|0:3,0:0:0:0:
78,351,33650,1,8,0:3:0:0:
245,255,33802,1,8,0:3:0:0:
98,216,33953,6,0,B|85:171|85:171|106:125|98:68,1,127.5,4|0,0:0|0:0,0:0:0:0:
191,34,34256,2,0,P|186:59|176:105,1,42.5,8|0,0:0|0:0,0:0:0:0:
17,112,34408,2,0,P|11:70|8:27,1,85,0|2,0:0|0:0,0:0:0:0:
127,139,34711,1,2,0:0:0:0:
220,49,34863,1,8,0:0:0:0:
220,49,35014,6,0,B|284:34|284:34|336:59|336:59|416:46,1,170,4|2,0:0|0:0,0:0:0:0:
320,227,35469,2,0,P|316:153|206:156,1,170,8|2,0:0|0:0,0:0:0:0:
345,60,35923,1,2,0:0:0:0:
151,161,36075,2,0,P|99:154|30:154,1,85,8|0,0:0|0:0,0:0:0:0:
253,169,36378,6,0,B|292:141|292:141|354:152,1,85,2|0,0:0|0:0,0:0:0:0:
492,172,36681,2,0,P|440:183|372:189,1,85,8|0,0:0|0:0,0:0:0:0:
373,80,36984,1,2,0:0:0:0:
318,230,37135,1,2,0:0:0:0:
445,258,37287,1,8,0:0:0:0:
305,241,37438,6,0,B|226:205|179:196|179:196|193:234,1,170,4|2,0:0|0:0,0:0:0:0:
106,347,37893,2,0,P|147:335|189:328,1,85,8|0,0:0|0:0,0:0:0:0:
317,263,38196,1,2,0:0:0:0:
310,356,38347,1,2,0:0:0:0:
242,188,38499,2,0,L|253:84,1,85,8|0,0:0|0:0,0:0:0:0:
243,295,38802,6,0,B|189:289|153:247|153:247|123:273|80:281,1,170,4|8,0:0|0:0,0:0:0:0:
100,170,39256,1,0,0:0:0:0:
159,9,39408,2,0,P|167:57|171:105,1,85,2|2,0:0|0:0,0:0:0:0:
241,187,39711,2,0,P|258:148|278:111,2,85,8|0|0,0:0|0:0|0:0,0:0:0:0:
373,55,40166,5,2,0:0:0:0:
373,55,40317,2,0,P|417:46|471:37,1,85,8|0,0:0|0:0,0:0:0:0:
396,164,40620,1,2,0:0:0:0:
336,47,40772,1,2,0:0:0:0:
241,187,40923,2,0,L|123:166,1,85,8|0,0:0|0:0,0:0:0:0:
384,280,41226,6,0,B|330:266|314:229|314:229|278:278|226:272,1,170,4|8,0:0|0:0,0:0:0:0:
304,352,41681,1,0,0:0:0:0:
241,187,41832,2,0,P|236:145|234:103,1,85,2|2,0:0|0:0,0:0:0:0:
98,179,42135,1,8,0:0:0:0:
219,223,42287,1,2,0:0:0:0:
129,350,42438,6,0,P|174:337|223:326,1,85,0|2,0:0|0:0,0:0:0:0:
19,252,42741,2,0,P|65:260|114:271,1,85,8|0,0:0|0:0,0:0:0:0:
181,146,43044,1,2,0:0:0:0:
234,248,43196,1,2,0:0:0:0:
325,126,43347,2,0,P|330:165|333:229,1,85,8|0,0:0|0:0,0:0:0:0:
437,24,43650,6,0,B|420:117|420:117|462:170,1,127.5,4|0,0:0|0:0,0:0:0:0:
501,202,43953,1,8,0:0:0:0:
450,324,44105,1,0,0:0:0:0:
361,247,44256,1,2,0:0:0:0:
461,305,44408,1,2,0:0:0:0:
303,339,44559,2,0,P|245:326|194:319,1,85,8|0,0:0|0:0,0:0:0:0:
55,164,44862,5,2,0:0:0:0:
30,299,45014,2,0,P|71:291|113:282,1,85,0|8,0:0|0:0,0:0:0:0:
225,130,45317,1,0,0:0:0:0:
283,280,45469,1,2,0:0:0:0:
198,227,45620,1,2,0:0:0:0:
134,42,45772,2,0,L|128:131,1,85,8|0,0:0|0:0,0:0:0:0:
282,198,46075,6,0,B|334:192|374:171|374:171|373:224,1,127.5,4|0,0:0|0:0,0:0:0:0:
370,275,46378,1,0,0:0:0:0:
302,92,46529,1,8,0:0:0:0:
302,92,46605,1,8,0:0:0:0:
302,92,46681,1,8,0:0:0:0:
212,219,46832,1,8,0:0:0:0:
374,172,46984,1,8,0:0:0:0:
213,125,47135,1,8,0:0:0:0:
289,327,47287,5,12,0:0:0:0:
290,303,47590,5,8,0:0:0:0:
432,240,47741,1,8,0:0:0:0:
291,173,47893,5,8,0:0:0:0:
293,274,48044,1,8,0:0:0:0:
383,123,48196,5,8,0:0:0:0:
448,269,48347,1,8,0:0:0:0:
189,153,48499,6,0,B|135:154|79:124|79:124|102:166|104:204,1,170,4|8,0:0|0:0,0:0:0:0:
93,298,48953,1,0,0:0:0:0:
198,239,49105,2,0,P|207:280|210:322,1,85,2|2,0:0|0:0,0:0:0:0:
156,68,49408,1,8,0:0:0:0:
156,68,49559,2,0,P|238:68|267:173,1,170,2|2,0:0|0:0,0:0:0:0:
24,294,50014,6,0,P|65:283|107:274,1,85,8|2,0:0|0:0,0:0:0:0:
277,267,50317,2,0,P|242:242|205:220,1,85,2|0,0:0|0:0,0:0:0:0:
59,19,50620,2,0,P|67:60|78:101,1,85,8|0,0:0|0:0,0:0:0:0:
245,150,50923,6,0,P|161:145|119:215,1,170,2|8,0:0|0:0,0:0:0:0:
285,241,51378,1,0,0:0:0:0:
126,244,51529,2,0,L|35:219,1,85,2|2,0:0|0:0,0:0:0:0:
196,339,51832,1,8,0:0:0:0:
202,182,51984,6,0,B|212:129|212:129|194:60|194:60|206:1,1,170,2|2,0:0|0:0,0:0:0:0:
392,92,52438,2,0,L|289:60,1,85,8|0,0:0|0:0,0:0:0:0:
123,126,52741,1,2,0:0:0:0:
282,56,52893,1,2,0:0:0:0:
236,204,53044,2,0,L|254:300,1,85,8|0,0:0|0:0,0:0:0:0:
123,126,53347,6,0,B|169:102|213:93|213:93|209:141,1,127.5,2|0,0:0|0:0,0:0:0:0:
260,260,53650,2,0,L|252:219,1,42.5,8|0,0:0|0:0,0:0:0:0:
307,138,53802,2,0,L|399:127,1,85,0|2,0:0|0:0,0:0:0:0:
406,42,54105,1,2,0:0:0:0:
366,210,54256,1,8,0:0:0:0:
259,67,54408,6,0,B|205:74|154:54|154:54|188:78|197:106,1,170,2|2,0:0|0:0,0:0:0:0:
107,223,54862,2,0,P|113:181|123:138,1,85,8|0,0:0|0:0,0:0:0:0:
55,58,55166,1,2,0:0:0:0:
198,181,55317,1,2,0:0:0:0:
16,171,55469,2,0,P|57:162|101:156,1,85,8|0,0:0|0:0,0:0:0:0:
154,341,55772,6,0,B|31:331|31:331|29:296|74:275,1,170,4|8,0:0|0:0,0:0:0:0:
278,230,56226,1,0,1:0:0:0:
175,147,56378,1,2,0:0:0:0:
168,305,56529,1,2,0:0:0:0:
27,204,56681,2,0,P|68:211|110:222,1,85,8|0,0:0|0:0,0:0:0:0:
344,330,56984,6,0,P|302:337|261:347,1,85,2|2,0:0|0:0,0:0:0:0:
219,192,57287,2,0,B|198:150|246:121|210:45,1,127.5,8|0,0:0|0:0,0:0:0:0:
292,17,57590,2,0,P|304:67|304:116,1,85,4|8,0:0|0:0,0:0:0:0:
144,95,57817,1,8,0:0:0:0:
122,94,57893,2,0,P|86:89|52:80,1,42.5,8|8,0:0|0:0,0:0:0:0:
41,224,58044,2,0,P|73:214|96:210,1,42.5,8|8,0:0|0:0,0:0:0:0:
188,270,58196,6,0,B|239:277|279:252|279:252|313:283|369:295,1,170,4|12,0:0|0:0,0:0:0:0:
278,351,58650,1,0,0:0:0:0:
352,194,58802,2,0,L|337:110,1,85,6|2,0:0|0:0,0:0:0:0:
161,82,59105,1,8,0:0:0:0:
98,223,59256,2,0,P|138:206|189:197,1,85
368,220,59559,5,2,0:0:0:0:
253,17,59711,2,0,P|255:59|261:101,1,85,8|0,0:0|0:0,0:0:0:0:
391,301,60014,2,0,P|380:259|367:219,1,85,2|2,0:0|0:0,0:0:0:0:
98,223,60317,2,0,P|104:180|116:140,1,85,8|0,0:0|0:0,0:0:0:0:
473,115,60620,6,0,B|417:102|417:102|360:132|360:132|290:118,1,170,2|8,0:0|0:0,0:0:0:0:
428,190,61075,1,0,0:0:0:0:
328,34,61226,2,0,B|284:22|284:22|224:54,1,85,2|2,0:0|0:0,0:0:0:0:
366,130,61529,1,8,0:0:0:0:
180,136,61681,2,0,P|107:87|143:8,1,170,0|2,0:0|0:0,0:0:0:0:
275,111,62135,6,0,P|274:153|271:195,1,85,8|0,0:0|0:0,0:0:0:0:
82,315,62438,1,2,0:0:0:0:
192,256,62590,1,2,0:0:0:0:
76,116,62741,2,0,P|88:167|103:214,1,85,8|0,0:0|0:0,0:0:0:0:
288,209,63044,6,0,B|336:199|372:182|372:182|420:213,1,127.5,4|0,0:0|0:0,0:0:0:0:
491,193,63347,2,0,L|494:116,1,42.5,8|0,0:0|0:0,0:0:0:0:
404,203,63499,2,0,L|417:290,1,85,0|2,0:0|0:0,0:0:0:0:
388,106,63802,1,2,0:0:0:0:
435,370,63953,1,8,0:0:0:0:
262,231,64105,6,0,B|143:203|143:203|159:254,1,170,4|2,0:0|0:0,0:0:0:0:
399,220,64559,2,0,L|389:105,1,85,8|0,0:0|0:0,0:0:0:0:
312,47,64862,1,2,0:0:0:0:
234,135,65014,1,2,0:0:0:0:
81,59,65166,2,0,P|122:55|185:42,1,85,8|0,0:0|0:0,0:0:0:0:
279,138,65469,6,0,P|272:59|194:47,1,170,4|8,0:0|0:0,0:0:0:0:
145,121,65923,2,0,P|161:146|183:185,1,42.5,0|0,1:0|0:0,0:0:0:0:
147,254,66075,2,0,P|193:236|264:220,1,85,2|2,0:0|0:0,0:0:0:0:
464,333,66378,2,0,P|419:310|360:268,1,85,8|0,0:0|0:0,0:0:0:0:
296,289,66681,6,0,P|322:228|390:211,1,127.5,12|0,0:0|0:0,0:0:0:0:
454,233,66984,1,2,0:0:0:0:
343,103,67135,1,8,0:0:0:0:
290,316,67287,1,2,0:0:0:0:
443,66,67438,1,2,0:0:0:0:
365,203,67590,1,8,0:0:0:0:
264,28,67741,1,4,0:3:0:0:
46,187,67893,6,0,B|109:197|162:218|162:218|188:208|204:172,1,170,4|8,0:0|0:0,0:0:0:0:
330,119,68347,1,0,0:0:0:0:
154,93,68499,1,2,0:0:0:0:
289,208,68650,1,2,0:0:0:0:
254,27,68802,2,0,L|239:128,1,85,8|2,0:0|0:0,0:0:0:0:
371,208,69105,5,0,0:0:0:0:
236,147,69256,1,2,0:0:0:0:
230,331,69408,2,0,P|271:322|312:312,1,85,8|0,0:0|0:0,0:0:0:0:
227,247,69635,1,0,0:0:0:0:
203,235,69711,2,0,P|134:221|90:215,1,85,2|2,0:0|0:0,0:0:0:0:
335,121,70014,2,0,P|332:163|328:206,1,85,8|0,0:0|0:0,0:0:0:0:
129,299,70317,6,0,B|184:288|227:247|227:247|229:288|262:319,1,170,2|8,0:0|0:0,0:0:0:0:
375,342,70772,1,0,0:0:0:0:
481,302,70923,1,2,0:0:0:0:
315,242,71075,1,2,0:0:0:0:
225,332,71226,2,0,P|184:346|143:357,1,85,8|0,0:0|0:0,0:0:0:0:
146,137,71529,6,0,P|186:148|227:162,1,85,0|2,0:0|0:0,0:0:0:0:
169,232,71832,1,8,0:0:0:0:
222,69,71984,1,0,0:0:0:0:
332,158,72135,2,0,P|322:195|314:248,1,85,2|2,0:0|0:0,0:0:0:0:
446,58,72438,2,0,P|455:99|463:141,1,85,8|0,0:0|0:0,0:0:0:0:
474,338,72741,6,0,B|429:317|390:310|390:310|348:326|312:350,1,170,2|8,0:0|0:0,0:0:0:0:
334,209,73196,2,0,B|368:191|368:191|413:203,1,85,0|2,0:0|0:0,0:0:0:0:
161,271,73499,1,2,0:0:0:0:
224,106,73650,2,0,P|232:152|238:200,1,85,8|0,0:0|0:0,0:0:0:0:
226,341,73953,5,0,0:0:0:0:
237,219,74105,1,0,0:0:0:0:
361,307,74256,2,0,P|366:265|374:224,1,85,8|0,0:0|0:0,0:0:0:0:
393,88,74559,1,2,0:0:0:0:
285,281,74711,1,2,0:0:0:0:
154,188,74862,2,0,L|68:183,1,85,8|0,0:0|0:0,0:0:0:0:
143,79,75166,6,0,B|198:77|236:116|236:116|250:84|290:71,1,170,2|8,0:0|0:0,0:0:0:0:
427,170,75620,2,0,P|378:158|312:150,1,85,0|2,0:0|0:0,0:0:0:0:
357,28,75923,1,2,0:0:0:0:
314,163,76075,1,8,0:0:0:0:
452,92,76226,1,0,0:0:0:0:
372,253,76378,5,6,0:0:0:0:
466,181,76529,1,8,0:0:0:0:
296,84,76681,1,6,0:0:0:0:
388,157,76832,1,8,0:0:0:0:
388,157,76908,1,8,0:0:0:0:
388,157,76984,1,8,0:0:0:0:
197,216,77135,1,4,0:3:0:0:
219,56,77287,1,2,0:0:0:0:
301,299,77438,1,2,0:0:0:0:
96,118,77590,6,0,B|156:113|156:113|200:139|200:139|278:128,1,170,4|2,0:0|0:0,0:0:0:0:
363,94,78044,1,0,0:0:0:0:
363,94,78196,2,0,P|355:135|347:186,1,85,2|0,0:0|0:0,0:0:0:0:
337,273,78499,1,2,0:0:0:0:
412,346,78650,1,0,0:0:0:0:
267,356,78802,6,0,L|177:348,1,85
125,250,79105,2,0,B|68:262|9:255|9:255|24:269|37:308,2,170,2|0|8,0:0|0:0|0:0,0:0:0:0:
197,190,79862,1,0,0:0:0:0:
57,161,80014,6,0,P|49:130|40:77,1,85
296,17,80317,2,0,P|289:58|279:100,1,85,2|0,0:0|0:0,0:0:0:0:
123,68,80620,2,0,L|242:46,1,85
431,178,80923,2,0,L|322:149,1,85
216,209,81226,5,2,0:0:0:0:
314,168,81378,1,8,0:0:0:0:
216,306,81529,1,0,0:0:0:0:
348,291,81681,1,4,0:3:0:0:
348,291,81756,1,4,0:3:0:0:
348,291,81832,1,2,0:0:0:0:
301,145,81984,1,4,0:3:0:0:
223,265,82135,1,2,0:0:0:0:
153,154,82287,1,12,0:0:0:0:
34,257,82438,6,0,P|84:247|142:232,1,85
230,190,82741,1,2,0:0:0:0:
60,162,82893,1,0,0:0:0:0:
32,347,83044,2,0,B|97:341|154:315|154:315|147:357,1,170,2|0,0:0|0:0,0:0:0:0:
60,162,83499,1,0,0:0:0:0:
60,162,83650,6,0,P|53:120|48:77,1,85,2|0,0:0|0:0,0:0:0:0:
172,132,83953,1,2,0:0:0:0:
19,274,84105,1,0,0:0:0:0:
122,257,84256,2,0,L|206:241,1,85,2|0,0:0|0:0,0:0:0:0:
415,334,84559,2,0,L|326:319,1,85,8|0,0:0|0:0,0:0:0:0:
191,330,84862,5,0,0:0:0:0:
263,115,85014,2,0,P|272:164|278:217,1,85
168,187,85317,1,0,0:0:0:0:
84,122,85469,2,0,P|89:80|98:39,1,85
160,277,85772,1,0,0:0:0:0:
177,97,85923,1,0,0:0:0:0:
280,204,86075,6,0,L|376:194,1,85
330,337,86378,2,0,L|229:346,1,85,8|0,0:0|0:0,0:0:0:0:
205,129,86681,1,2,0:0:0:0:
140,276,86832,1,2,0:0:0:0:
63,135,86984,1,8,0:0:0:0:
150,249,87135,1,0,0:0:0:0:
51,48,87287,6,0,B|86:44|112:59|112:59|161:41|161:41|191:57|228:48,1,170,4|8,0:0|0:0,0:0:0:0:
409,114,87741,1,0,0:0:0:0:
322,45,87893,2,0,P|311:86|302:127,1,85,2|2,0:0|0:0,0:0:0:0:
422,23,88196,1,0,0:0:0:0:
475,200,88347,2,0,L|390:207,1,85,8|0,0:0|0:0,0:0:0:0:
229,111,88650,5,2,0:0:0:0:
232,119,88802,2,0,P|230:161|228:203,1,85,8|0,0:0|0:0,0:0:0:0:
125,347,89105,1,2,0:0:0:0:
304,271,89256,1,2,0:0:0:0:
132,236,89408,2,0,P|130:193|131:151,1,85,8|0,0:0|0:0,0:0:0:0:
317,101,89711,6,0,P|268:33|185:41,1,170,2|8,0:0|0:0,0:0:0:0:
227,238,90166,1,0,0:0:0:0:
316,188,90317,2,0,P|359:174|418:162,1,85,2|2,0:0|0:0,0:0:0:0:
235,115,90620,1,0,0:0:0:0:
416,297,90772,2,0,P|373:295|331:290,1,85,8|0,0:0|0:0,0:0:0:0:
176,176,91075,5,2,0:0:0:0:
160,347,91226,1,8,0:0:0:0:
65,177,91378,1,0,0:0:0:0:
27,285,91529,2,0,P|70:275|123:264,1,85,2|2,0:0|0:0,0:0:0:0:
175,83,91832,2,0,P|213:86|259:93,1,85,8|0,0:0|0:0,0:0:0:0:
417,210,92135,6,0,B|363:199|332:154|332:154|302:192|236:184,1,170,2|8,0:0|0:0,0:0:0:0:
335,294,92590,1,0,0:0:0:0:
414,125,92741,2,0,P|455:117|504:109,1,85,2|2,0:0|0:0,0:0:0:0:
325,255,93044,1,0,0:0:0:0:
271,100,93196,6,0,P|272:58|274:16,1,85,8|0,0:0|0:0,0:0:0:0:
164,219,93499,1,2,0:0:0:0:
261,138,93650,1,8,0:0:0:0:
170,53,93802,1,0,0:0:0:0:
142,251,93953,2,0,L|247:233,1,85,2|2,0:0|0:0,0:0:0:0:
410,324,94256,2,0,L|327:310,1,85,8|0,0:0|0:0,0:0:0:0:
309,60,94559,6,0,B|369:55|405:43|405:43|441:55|471:92,1,170,2|8,0:0|0:0,0:0:0:0:
338,256,95014,1,0,0:0:0:0:
158,147,95166,2,0,P|200:135|269:119,1,85,2|2,0:0|0:0,0:0:0:0:
320,233,95469,1,0,0:0:0:0:
391,127,95620,2,0,P|388:72|383:17,1,85,12|0,0:0|0:0,0:0:0:0:
100,134,95923,5,2,0:0:0:0:
219,212,96075,1,8,0:0:0:0:
273,32,96226,1,8,0:0:0:0:
273,32,96302,1,8,0:0:0:0:
273,32,96378,1,2,0:0:0:0:
218,127,96529,1,8,0:3:0:0:
219,237,96681,1,4,3:0:0:0:
229,345,96832,1,4,3:0:0:0:
30,316,96984,6,0,B|106:286|106:286|157:297,1,127.5,4|0,0:0|0:0,0:0:0:0:
364,260,97287,2,0,L|295:274,1,42.5,8|0,0:0|0:0,0:0:0:0:
229,345,97438,2,0,L|236:228,1,85,0|2,0:0|0:0,0:0:0:0:
208,32,97741,1,2,0:0:0:0:
134,182,97893,1,8,0:0:0:0:
275,85,98044,6,0,B|295:147|297:201|297:201|275:182|248:179,1,170,6|2,0:0|0:0,0:0:0:0:
69,110,98499,2,0,P|115:101|152:95,1,85,8|0,0:0|0:0,0:0:0:0:
409,109,98802,2,0,P|446:79|463:37,1,85,2|2,0:0|0:0,0:0:0:0:
468,183,99105,1,8,0:0:0:0:
318,88,99256,1,0,0:0:0:0:
310,255,99408,6,0,P|268:251|225:245,1,85,4|0,0:0|0:0,0:0:0:0:
62,194,99711,1,8,0:0:0:0:
200,268,99862,1,0,0:0:0:0:
172,35,100014,2,0,L|165:119,1,85,2|2,0:0|0:0,0:0:0:0:
107,346,100317,1,8,0:0:0:0:
107,346,100469,6,0,B|148:337|148:337|199:355|199:355|255:343,1,127.5,4|0,0:0|0:0,0:0:0:0:
309,330,100772,1,2,0:0:0:0:
186,223,100923,2,0,P|176:180|169:136,1,85,8|0,0:0|0:0,0:0:0:0:
155,51,101226,6,0,P|99:79|76:137,1,127.5,2|0,0:0|0:0,0:0:0:0:
257,144,101529,2,0,B|305:137|341:124|341:124|347:176,1,110.499994941712,8|0,0:0|0:0,0:0:0:0:
155,233,101832,6,0,P|87:227|-1:224,1,127.5,6|0,0:0|0:0,0:0:0:0:
28,320,102135,2,0,P|56:314|96:303,1,42.5,8|0,0:0|0:0,0:0:0:0:
89,129,102287,2,0,P|50:132|-22:147,1,85,0|2,0:0|0:0,0:0:0:0:
167,319,102590,1,2,0:0:0:0:
167,319,102741,1,8,0:0:0:0:
229,182,102893,6,0,B|286:180|340:153|340:153|333:198|323:215,1,170,4|2,0:0|0:0,0:0:0:0:
441,131,103347,2,0,P|393:64|312:62,1,170,8|2,0:0|0:0,0:0:0:0:
205,153,103802,1,2,0:0:0:0:
309,253,103953,2,0,P|359:246|412:244,1,85,8|0,0:0|0:0,0:0:0:0:
105,343,104256,6,0,B|155:337|199:351|199:351|231:316,1,127.5,4|0,0:0|0:0,0:0:0:0:
286,177,104559,2,0,L|275:135,2,42.5,8|0|0,0:0|0:0|0:0,0:0:0:0:
341,332,104862,1,2,0:0:0:0:
385,167,105014,1,2,0:0:0:0:
309,253,105166,1,8,0:0:0:0:
168,97,105317,6,0,P|213:85|268:73,1,85,4|0,0:0|0:0,0:0:0:0:
343,33,105620,1,2,0:0:0:0:
431,84,105772,2,0,P|471:71|500:40,1,85,8|0,0:0|0:0,0:0:0:0:
248,212,106075,2,0,P|240:256|236:319,1,85,2|2,0:0|0:0,0:0:0:0:
343,33,106378,2,0,P|352:76|359:124,1,85,8|0,0:0|0:0,0:0:0:0:
502,320,106681,6,0,P|470:262|382:260,1,127.5,4|0,0:0|0:0,0:0:0:0:
374,342,106984,2,0,P|397:336|451:321,1,42.5,8|0,0:0|0:0,0:0:0:0:
501,179,107135,2,0,P|458:156|390:168,1,85,0|2,0:0|0:0,0:0:0:0:
294,262,107438,1,2,0:0:0:0:
274,150,107590,1,8,0:0:0:0:
107,303,107741,6,0,B|167:291|213:300|213:300|204:270|207:236,1,170,4|2,0:0|0:0,0:0:0:0:
148,97,108196,2,0,P|151:45|185:5,1,85,8|0,0:0|0:0,0:0:0:0:
211,298,108499,1,2,0:0:0:0:
115,202,108650,1,2,0:0:0:0:
274,150,108802,2,0,P|321:142|363:139,1,85,8|0,0:0|0:0,0:0:0:0:
497,36,109105,6,0,B|547:91|542:154|542:154|514:137|492:113,1,170,4|8,0:0|0:0,0:0:0:0:
414,93,109559,1,0,0:0:0:0:
412,263,109711,2,0,P|454:251|513:239,1,85,2|2,0:0|0:0,0:0:0:0:
511,352,110014,1,8,0:0:0:0:
344,353,110166,6,4,B|278:347|227:361|227:361|243:340|253:296,1,170,4|2,2:0|2:0,2:0:0:0:
259,189,110620,1,8,0:0:0:0:
97,94,110772,1,0,0:0:0:0:
97,94,110923,2,0,P|144:104|193:119,1,85,2|0,0:0|0:0,0:0:0:0:
427,216,111226,2,0,P|381:234|339:256,1,85,8|0,0:0|0:0,0:0:0:0:
16,112,111529,6,0,P|38:34|117:15,1,170,4|8,0:0|0:0,0:0:0:0:
255,94,111984,1,0,0:0:0:0:
179,195,112135,2,0,P|181:246|180:300,1,85,2|2,0:0|0:0,0:0:0:0:
24,224,112438,2,0,P|20:181|19:139,1,85,8|0,0:0|0:0,0:0:0:0:
217,22,112741,6,0,B|258:8|258:8|334:38,1,85
335,142,113044,2,0,P|375:127|416:114,1,85,8|0,0:0|0:0,0:0:0:0:
309,261,113347,2,0,P|266:257|224:252,1,85,2|2,0:0|0:0,0:0:0:0:
255,347,113650,1,8,0:0:0:0:
223,168,113802,1,0,0:0:0:0:
57,236,113953,6,0,B|102:252|151:242|151:242|143:298|182:350,1,170,2|8,0:0|0:0,0:0:0:0:
243,253,114408,1,0,0:0:0:0:
107,157,114559,2,0,P|113:111|124:52,1,85,2|2,0:0|0:0,0:0:0:0:
400,159,114862,2,0,P|444:151|485:98,1,85,8|0,0:0|0:0,0:0:0:0:
298,166,115166,6,0,P|255:157|195:151,1,85
398,76,115469,1,8,0:0:0:0:
321,203,115620,1,0,0:0:0:0:
491,187,115772,1,0,0:0:0:0:
303,76,115923,1,0,0:0:0:0:
413,231,116075,2,0,L|407:325,1,85,8|0,0:0|0:0,0:0:0:0:
115,308,116378,6,0,P|162:298|230:292,1,85,4|0,0:0|0:0,0:0:0:0:
277,367,116681,1,8,0:0:0:0:
300,198,116832,2,0,P|263:176|225:157,1,85,4|2,0:0|0:0,0:0:0:0:
151,52,117135,1,2,0:0:0:0:
153,300,117287,2,0,L|251:281,1,85,8|0,0:0|0:0,0:0:0:0:
145,90,117590,5,2,0:0:0:0:
32,226,117741,2,0,L|145:205,1,85,0|8,0:0|0:0,0:0:0:0:
314,215,118044,1,0,0:0:0:0:
314,215,118196,2,0,P|304:252|291:313,1,85,2|2,0:0|0:0,0:0:0:0:
501,173,118499,2,0,P|461:170|400:159,1,85,8|0,0:0|0:0,0:0:0:0:
328,39,118802,6,0,P|261:44|228:118,1,127.5,4|0,0:0|0:0,0:0:0:0:
316,129,119105,1,8,0:0:0:0:
136,68,119256,1,2,0:0:0:0:
367,205,119408,1,8,0:0:0:0:
187,258,119559,1,2,0:0:0:0:
232,122,119711,1,4,3:0:0:0:
306,308,119862,1,0,0:0:0:0:
306,308,119938,1,2,0:0:0:0:
306,308,120014,1,8,0:0:0:0:
104,338,120317,5,8,0:0:0:0:
274,210,120469,1,8,0:0:0:0:
92,37,120620,5,8,0:0:0:0:
158,229,120772,1,8,0:0:0:0:
219,76,120923,5,8,0:0:0:0:
191,315,121075,1,8,0:0:0:0:
35,187,121226,6,0,B|98:175|135:155|135:155|181:172|171:221,1,170,4|8,0:0|0:0,0:0:0:0:
111,295,121681,1,0,0:0:0:0:
277,168,121832,2,0,P|318:157|359:149,1,85,2|2,0:0|0:0,0:0:0:0:
205,361,122135,1,8,0:0:0:0:
271,267,122287,2,0,B|323:258|383:241|383:241|377:271|363:312,1,170,2|2,0:0|0:0,0:0:0:0:
391,48,122741,6,0,P|403:90|416:151,1,85,8|0,0:0|0:0,0:0:0:0:
209,199,123044,2,0,P|200:242|184:303,1,85,2|2,0:0|0:0,0:0:0:0:
300,127,123347,2,0,P|265:102|229:79,1,85,8|0,0:0|0:0,0:0:0:0:
29,202,123650,6,0,P|57:132|169:146,1,170,0|8,0:0|0:0,0:0:0:0:
203,322,124105,1,0,0:0:0:0:
287,270,124256,2,0,P|336:253|408:237,1,85,2|2,0:0|0:0,0:0:0:0:
361,347,124559,1,8,0:0:0:0:
176,337,124711,2,0,P|134:325|94:311,1,85
174,117,125014,5,0,0:0:0:0:
165,221,125166,1,8,0:0:0:0:
60,125,125317,1,0,0:0:0:0:
0,256,125469,2,0,P|36:241|91:223,1,85,2|2,0:0|0:0,0:0:0:0:
178,23,125772,2,0,P|213:39|263:68,1,85,8|0,0:0|0:0,0:0:0:0:
319,225,126075,6,0,P|406:203|461:192,1,127.5
370,69,126378,2,0,P|360:97|351:148,1,42.5,8|0,0:0|0:0,0:0:0:0:
274,142,126529,2,0,P|218:139|178:103,1,85,0|2,0:0|0:0,0:0:0:0:
39,54,126832,1,2,0:0:0:0:
98,150,126984,1,8,0:0:0:0:
50,250,127135,6,0,B|64:302|48:363|48:363|83:331|120:320,1,170,0|2,0:0|0:0,0:0:0:0:
282,314,127590,2,0,P|317:320|364:333,1,85,8|0,0:0|0:0,0:0:0:0:
181,263,127893,2,0,P|176:227|175:178,1,85,2|2,0:0|0:0,0:0:0:0:
270,55,128196,1,8,0:0:0:0:
171,155,128347,1,0,0:0:0:0:
2,64,128499,6,0,B|67:56|109:30|109:30|172:57,1,170,4|8,0:0|0:0,0:0:0:0:
376,53,128953,1,0,0:0:0:0:
260,87,129105,2,0,P|246:133|233:197,1,85,2|2,0:0|0:0,0:0:0:0:
134,356,129408,1,8,0:0:0:0:
168,256,129559,2,0,B|92:229|37:250|37:250|76:283,1,170,0|2,0:0|0:0,0:0:0:0:
239,340,130014,6,0,P|288:333|333:329,1,85,8|0,0:0|0:0,0:0:0:0:
430,283,130317,1,2,0:0:0:0:
453,247,130393,1,8,0:0:0:0:
460,204,130469,1,8,0:0:0:0:
448,163,130544,1,8,0:0:0:0:
414,136,130620,2,0,P|392:133|371:133,1,42.5,8|8,0:0|0:0,0:0:0:0:
298,295,130772,2,0,P|319:294|340:292,1,42.5,8|8,0:0|0:0,0:0:0:0:
369,215,130923,6,0,P|326:208|284:203,1,85,6|0,0:0|0:0,0:0:0:0:
89,70,131226,2,0,P|131:63|173:58,1,85,12|0,0:0|0:0,0:0:0:0:
297,121,131529,1,2,0:0:0:0:
207,188,131681,1,2,0:0:0:0:
213,56,131832,1,8,0:0:0:0:
321,218,131984,2,0,B|307:282|307:282|319:344|319:344|304:403,1,170,0|2,0:0|0:0,0:0:0:0:
215,314,132438,6,0,L|129:277,1,85,8|0,0:0|0:0,0:0:0:0:
353,205,132741,2,0,L|444:184,1,85,2|2,0:0|0:0,0:0:0:0:
319,367,133044,2,0,L|309:282,1,85,8|0,0:0|0:0,0:0:0:0:
380,104,133347,6,0,B|446:90|501:69|501:69|481:116,1,170,2|8,0:0|0:0,0:0:0:0:
443,184,133802,1,0,0:0:0:0:
384,6,133953,2,0,P|344:20|305:39,1,85,2|2,0:0|0:0,0:0:0:0:
315,163,134256,1,8,0:0:0:0:
175,138,134408,2,0,P|185:67|298:45,1,170,0|2,0:0|0:0,0:0:0:0:
232,242,134863,5,8,0:0:0:0:
92,191,135014,1,0,0:0:0:0:
259,114,135166,2,0,P|301:104|352:98,1,85,2|2,0:0|0:0,0:0:0:0:
499,99,135469,2,0,P|502:56|482:10,1,85,8|0,0:0|0:0,0:0:0:0:
410,173,135772,6,0,B|378:231|378:231|414:286,1,127.5,2|0,0:0|0:0,0:0:0:0:
512,357,136075,2,0,L|441:331,1,42.5,8|0,0:0|0:0,0:0:0:0:
354,342,136226,2,0,L|253:367,1,85,0|2,0:0|0:0,0:0:0:0:
190,246,136529,1,2,0:0:0:0:
250,346,136681,1,8,0:0:0:0:
275,170,136832,6,0,B|274:111|255:59|255:59|290:67|327:55,1,170
462,151,137287,2,0,P|419:141|362:134,1,85,8|0,0:0|0:0,0:0:0:0:
117,236,137590,1,2,0:0:0:0:
256,257,137741,1,2,0:0:0:0:
145,110,137893,2,0,P|103:111|61:123,1,85,8|0,0:0|0:0,0:0:0:0:
264,49,138196,6,0,B|309:117|238:157|291:236,1,170,4|8,0:0|0:0,0:0:0:0:
200,99,138650,1,0,0:0:0:0:
387,174,138802,2,0,P|428:184|468:196,1,85,2|2,0:0|0:0,0:0:0:0:
293,62,139105,1,8,0:0:0:0:
357,167,139256,1,0,0:0:0:0:
200,99,139408,6,0,P|149:103|92:112,1,85,4|0,0:0|0:0,0:0:0:0:
123,205,139711,1,2,0:0:0:0:
265,180,139863,1,8,0:0:0:0:
195,65,140014,1,0,0:0:0:0:
222,298,140166,1,2,0:0:0:0:
192,28,140317,1,8,0:0:0:0:
305,88,140469,1,8,0:0:0:0:
305,88,140544,1,8,0:0:0:0:
305,88,140620,5,6,0:0:0:0:
129,240,140772,1,0,0:0:0:0:
346,314,140923,2,0,P|339:273|331:230,1,85,12|0,0:0|0:0,0:0:0:0:
143,24,141226,2,0,P|132:63|120:137,1,85,2|2,0:0|0:0,0:0:0:0:
188,180,141529,2,0,P|229:172|271:163,1,85,8|2,0:0|0:0,0:0:0:0:
418,199,141832,5,0,0:0:0:0:
319,73,141984,1,2,0:0:0:0:
475,26,142135,2,0,L|469:142,1,85,8|0,0:0|0:0,0:0:0:0:
363,292,142438,1,2,0:0:0:0:
484,270,142590,1,2,0:0:0:0:
325,189,142741,2,0,P|280:183|232:177,1,85,8|0,0:0|0:0,0:0:0:0:
314,65,143044,5,0,0:0:0:0:
212,180,143196,1,2,0:0:0:0:
144,36,143347,1,8,0:0:0:0:
216,148,143499,1,0,0:0:0:0:
437,61,143650,2,0,P|430:102|421:144,1,85,2|2,0:0|0:0,0:0:0:0:
290,250,143953,2,0,P|296:291|305:333,1,85,8|0,0:0|0:0,0:0:0:0:
181,144,144256,6,0,B|124:140|75:119|75:119|98:134|118:167,1,170,0|8,0:0|0:0,0:0:0:0:
201,232,144711,1,0,0:0:0:0:
48,282,144863,2,0,P|41:238|38:196,1,85,2|2,0:0|0:0,0:0:0:0:
211,263,145166,2,0,P|207:305|201:347,1,85,8|0,0:0|0:0,0:0:0:0:
133,185,145469,6,0,B|126:128|126:128|145:73|145:73|135:0,1,170,2|8,0:0|0:0,0:0:0:0:
48,60,145923,1,0,0:0:0:0:
226,144,146075,2,0,P|267:136|326:121,1,85,2|2,0:0|0:0,0:0:0:0:
241,43,146378,1,8,0:0:0:0:
375,205,146529,1,2,0:0:0:0:
447,38,146681,6,0,P|405:27|363:19,1,85,0|2,0:0|0:0,0:0:0:0:
360,224,146984,2,0,L|373:324,1,85,8|0,0:0|0:0,0:0:0:0:
247,248,147287,1,2,0:0:0:0:
247,248,147438,1,2,0:0:0:0:
377,345,147590,1,8,0:0:0:0:
346,135,147741,1,0,0:0:0:0:
142,239,147893,6,0,P|96:229|32:217,1,85,6|0,0:0|0:0,0:0:0:0:
33,227,148120,1,0,0:0:0:0:
33,227,148196,1,8,0:0:0:0:
87,343,148347,1,0,1:0:0:0:
126,138,148499,1,2,0:0:0:0:
220,286,148650,1,2,0:0:0:0:
288,182,148802,1,8,0:0:0:0:
111,114,148953,1,0,0:0:0:0:
316,183,149105,6,0,L|415:173,1,85,2|2,0:0|0:0,0:0:0:0:
98,196,149408,1,8,0:0:0:0:
281,85,149559,1,0,0:0:0:0:
204,264,149711,2,0,P|206:306|209:348,1,85,2|2,0:0|0:0,0:0:0:0:
304,313,150014,1,8,0:0:0:0:
116,306,150166,2,0,P|113:281|113:249,1,42.5,4|4,0:3|0:3,0:0:0:0:
134,101,150317,6,0,B|211:83|211:83|181:139,1,127.5,4|0,0:0|0:0,0:0:0:0:
123,187,150620,2,0,P|81:192|39:198,1,85,8|0,0:0|0:0,0:0:0:0:
200,246,150923,1,2,0:0:0:0:
211,83,151075,1,2,0:0:0:0:
339,192,151226,2,0,L|348:287,1,85,8|2,0:0|0:0,0:0:0:0:
396,94,151529,6,0,B|451:83|494:42|494:42|496:83|529:114,1,170,0|8,0:0|0:0,0:0:0:0:
486,163,151984,1,0,0:0:0:0:
386,7,152135,2,0,P|346:19|305:34,1,85,2|2,0:0|0:0,0:0:0:0:
138,135,152438,2,0,P|86:123|63:81,1,85,8|0,0:0|0:0,0:0:0:0:
217,23,152741,6,0,P|222:103|231:198,1,170,2|8,0:0|0:0,0:0:0:0:
320,319,153196,1,0,0:0:0:0:
238,222,153347,1,2,0:0:0:0:
184,348,153499,1,2,0:0:0:0:
55,199,153650,2,0,L|168:176,1,85,8|2,0:0|0:0,0:0:0:0:
179,99,153953,5,0,0:0:0:0:
117,283,154105,1,2,0:0:0:0:
12,112,154256,2,0,P|10:66|9:27,1,85,8|0,0:0|0:0,0:0:0:0:
104,192,154559,1,2,0:0:0:0:
104,192,154711,1,2,0:0:0:0:
179,99,154863,2,0,B|275:79|275:79|256:141,1,127.5,12|0,0:0|0:0,0:0:0:0:
279,179,155166,5,8,0:0:0:0:
265,1,155317,2,0,P|321:9|353:88,1,127.5,2|0,0:0|0:0,0:0:0:0:
305,174,155620,2,0,P|352:165|431:154,1,101.999996887207,4|0,0:0|0:0,0:0:0:0:
497,196,155923,1,2,0:0:0:0:
287,278,156075,5,8,0:0:0:0:
287,278,156226,2,0,P|228:265|152:252,1,127.5,2|0,0:0|0:0,0:0:0:0:
113,169,156529,2,0,P|169:160|223:154,1,101.999996887207,4|0,0:0|0:0,0:0:0:0:
150,350,156832,5,2,0:0:0:0:
51,276,156984,2,0,P|86:265|159:248,1,85,8|2,0:0|0:0,0:0:0:0:
299,208,157287,1,8,0:0:0:0:
245,327,157438,1,2,0:0:0:0:
175,184,157590,5,8,0:0:0:0:
175,184,157741,2,0,B|206:137|160:92|207:31,1,127.5,4|0,0:0|0:0,0:0:0:0:
268,0,158044,2,0,P|284:72|266:127,1,101.999996887207,4|0,0:0|0:0,0:0:0:0:
95,132,158347,1,2,0:0:0:0:
199,288,158499,5,8,0:0:0:0:
199,288,158650,2,0,B|253:281|291:291|291:291|340:241,1,127.5,4|0,0:0|0:0,0:0:0:0:
238,204,158953,2,0,B|194:205|163:198|163:198|137:219,1,101.999996887207,4|0,0:0|0:0,0:0:0:0:
378,301,159256,5,8,0:0:0:0:
271,165,159408,1,8,0:0:0:0:
194,257,159559,1,8,0:0:0:0:
294,330,159711,1,8,0:0:0:0:
261,129,159863,1,8,0:0:0:0:
190,288,160014,6,0,L|196:329,2,42.5,8|8|8,0:0|0:0|0:0,0:0:0:0:
106,224,160318,1,8,0:0:0:0:
124,186,160393,1,8,0:0:0:0:
129,143,160469,2,0,P|124:117|109:72,3,42.5,8|8|8|8,0:0|0:0|0:0|0:0,0:0:0:0:
245,214,160772,1,8,0:0:0:0:
245,214,160847,1,8,0:0:0:0:
245,214,160923,2,0,P|271:215|317:225,3,42.5,8|8|8|8,0:0|0:0|0:0|0:0,0:0:0:0:
316,349,161226,2,0,P|311:328|305:304,1,42.5,8|8,0:0|0:0,0:0:0:0:
380,244,161377,5,8,0:0:0:0:
396,224,161453,1,8,0:0:0:0:
404,199,161529,1,2,0:0:0:0:
408,174,161604,1,8,0:0:0:0:
404,148,161680,1,8,0:0:0:0:
398,123,161756,1,8,0:0:0:0:
383,102,161832,6,0,P|358:90|339:85,3,42.5
268,122,162135,2,0,P|246:96|230:69,1,42.5
157,68,162287,2,0,P|164:45|174:22,1,42.5
312,45,162438,5,12,0:0:0:0:
335,70,162514,1,8,0:0:0:0:
348,101,162590,1,8,0:0:0:0:
349,135,162666,1,8,0:0:0:0:
338,166,162741,1,8,0:0:0:0:
313,189,162817,1,8,0:0:0:0:
231,189,162893,5,12,0:0:0:0:
189,180,162969,1,8,0:0:0:0:
153,201,163044,1,8,0:0:0:0:
142,242,163120,1,8,0:0:0:0:
153,283,163196,1,8,0:0:0:0:
231,282,163272,5,12,0:0:0:0:
212,234,163347,1,8,0:0:0:0:
163,218,163423,1,8,0:0:0:0:
111,222,163499,1,8,0:0:0:0:
78,261,163575,1,8,0:0:0:0:
81,311,163650,1,12,0:0:0:0:
256,92,174559,5,6,0:0:0:0:
257,288,175014,1,2,0:0:0:0:
117,195,176681,5,8,0:0:0:0:
207,166,176832,1,0,0:0:0:0:
299,144,176984,1,2,0:0:0:0:
279,313,177438,1,2,0:0:0:0:
199,221,178953,5,2,0:0:0:0:
199,221,179105,1,8,0:0:0:0:
264,336,179256,1,0,0:0:0:0:
347,156,179408,1,2,0:0:0:0:
399,345,179863,1,2,0:0:0:0:
79,74,181378,6,0,L|77:147,1,42.5,2|0,0:0|0:0,0:0:0:0:
37,201,181529,2,0,B|83:218|83:218|144:185,1,85,8|0,0:0|0:0,0:0:0:0:
230,91,181832,5,2,0:0:0:0:
144,187,181984,1,0,0:0:0:0:
245,265,182135,1,0,0:0:0:0:
129,319,182287,2,0,P|80:318|36:321,1,85,8|0,0:0|0:0,0:0:0:0:
229,353,182590,1,2,0:0:0:0:
264,176,182741,1,8,0:0:0:0:
150,225,182893,1,0,0:0:0:0:
330,312,183044,6,0,P|377:304|431:292,1,85,2|0,0:0|0:0,0:0:0:0:
489,148,183347,2,0,P|447:140|406:132,1,85,8|2,0:0|0:0,0:0:0:0:
232,58,183650,1,8,0:0:0:0:
197,278,183802,1,2,0:0:0:0:
117,168,183953,2,0,P|161:163|221:155,1,85,8|0,0:0|0:0,0:0:0:0:
355,66,184256,6,0,P|347:117|335:226,1,127.5,12|0,0:0|0:0,0:0:0:0:
372,270,184559,1,2,0:0:0:0:
372,270,184711,1,0,1:0:0:0:
240,210,184863,1,0,1:0:0:0:
297,343,185014,1,0,1:0:0:0:
232,184,185166,1,0,1:0:0:0:
167,310,185317,1,0,1:0:0:0:
89,199,185469,5,8,0:0:0:0:
321,203,185620,1,8,0:0:0:0:
167,310,185772,1,8,0:0:0:0:
128,86,185923,1,8,0:0:0:0:
168,231,186075,1,8,0:0:0:0:
288,74,186226,1,8,0:0:0:0:
249,224,186378,1,8,0:0:0:0:
106,63,186529,1,8,0:0:0:0:
225,130,186681,5,8,0:0:0:0:
62,249,186832,1,8,0:0:0:0:
188,27,186984,1,8,0:0:0:0:
323,180,187135,1,8,0:0:0:0:
122,158,187287,1,8,0:0:0:0:
203,326,187438,1,8,0:0:0:0:
203,326,187590,2,0,L|201:226,1,85,8|0,0:0|0:0,0:0:0:0:
277,61,187893,6,0,L|358:56,1,63.7500024318696,8|4,0:0|3:0,0:0:0:0:
479,147,188120,1,4,3:0:0:0:
455,146,188196,2,0,L|369:140,1,63.7500024318696,0|4,3:0|3:0,0:0:0:0:
214,154,188499,1,0,3:0:0:0:
204,191,188575,1,0,3:0:0:0:
216,226,188650,1,0,3:0:0:0:
252,82,188802,6,0,P|173:81|132:149,1,148.75,4|0,0:0|0:0,0:0:0:0:
122,218,189408,6,0,P|73:233|21:249,1,85,4|0,0:0|0:0,0:0:0:0:
288,181,189711,2,0,P|329:187|371:195,1,85,4|0,0:0|0:0,0:0:0:0:
204,302,190014,1,8,0:0:0:0:
204,302,190166,6,0,B|217:243|217:243|196:189|196:189|216:104,1,170,4|2,0:0|0:0,0:0:0:0:
341,34,190620,2,0,P|344:71|348:132,1,85,8|0,0:0|0:0,0:0:0:0:
472,238,190923,2,0,P|462:274|449:333,1,85,2|2,0:0|0:0,0:0:0:0:
165,225,191226,2,0,P|207:230|250:236,1,85,8|0,0:0|0:0,0:0:0:0:
352,221,191529,6,0,B|350:281|303:319|303:319|369:314,1,170,2|8,0:0|0:0,0:0:0:0:
436,255,191984,1,0,0:0:0:0:
404,87,192135,2,0,P|416:46|429:6,1,85,2|2,0:0|0:0,0:0:0:0:
447,283,192438,1,8,0:0:0:0:
326,137,192590,6,0,B|252:114|200:142|200:142|251:182,1,170,2|2,0:0|0:0,0:0:0:0:
323,218,193044,1,8,0:0:0:0:
203,142,193196,1,0,0:0:0:0:
259,292,193347,1,2,0:0:0:0:
343,104,193499,1,2,0:0:0:0:
166,235,193650,2,0,L|75:230,1,85,8|0,0:0|0:0,0:0:0:0:
139,71,193953,6,0,B|204:99|204:99|290:54,1,127.5,2|0,0:0|0:0,0:0:0:0:
374,18,194256,2,0,L|298:26,1,42.5,8|0,0:0|0:0,0:0:0:0:
343,104,194408,2,0,L|426:89,1,85,0|2,0:0|0:0,0:0:0:0:
262,210,194711,1,2,0:0:0:0:
262,210,194863,1,8,0:0:0:0:
85,93,195014,6,0,B|142:92|180:134|180:134|215:108|273:113,1,170,2|2,0:0|0:0,0:0:0:0:
439,102,195469,2,0,P|487:127|505:159,1,85,8|0,0:0|0:0,0:0:0:0:
335,97,195772,2,0,P|335:60|338:12,1,85,2|2,0:0|0:0,0:0:0:0:
383,191,196075,2,0,P|342:204|301:215,1,85,8|0,0:0|0:0,0:0:0:0:
157,193,196378,6,0,P|80:218|74:298,1,170,6|8,0:0|0:0,0:0:0:0:
174,368,196832,1,0,1:0:0:0:
271,327,196984,2,0,P|312:316|354:309,1,85,2|2,0:0|0:0,0:0:0:0:
240,232,197287,1,8,0:0:0:0:
388,328,197438,1,0,0:0:0:0:
174,368,197590,6,0,P|132:357|90:350,1,85,0|2,0:0|0:0,0:0:0:0:
195,65,197893,2,0,P|200:117|208:168,1,85,8|0,0:0|0:0,0:0:0:0:
325,242,198196,1,8,0:0:0:0:
367,243,198272,1,8,0:0:0:0:
400,217,198347,1,8,0:0:0:0:
421,179,198423,1,8,0:0:0:0:
415,136,198499,2,0,P|412:103|415:72,1,42.5,8|8,0:0|0:0,0:0:0:0:
501,185,198650,2,0,P|495:205|487:225,1,42.5,8|8,0:0|0:0,0:0:0:0:
341,162,198802,6,0,L|256:150,1,85,4|0,0:0|0:0,0:0:0:0:
390,334,199105,2,0,L|495:318,1,85,12|0,0:0|0:0,0:0:0:0:
282,366,199408,1,2,0:0:0:0:
349,194,199559,1,2,0:0:0:0:
251,279,199711,1,8,0:0:0:0:
251,279,199863,2,0,B|196:284|133:276|133:276|167:314,1,170,2|2,0:0|0:0,0:0:0:0:
82,342,200317,6,0,P|41:330|-20:317,1,85,8|0,0:0|0:0,0:0:0:0:
108,192,200620,2,0,P|147:177|188:165,1,85,2|2,0:0|0:0,0:0:0:0:
12,43,200923,2,0,P|14:85|21:147,1,85,8|0,0:0|0:0,0:0:0:0:
83,265,201226,6,0,P|129:266|182:213,1,85,2|0,0:0|0:0,0:0:0:0:
282,106,201529,1,8,0:0:0:0:
169,83,201681,1,0,0:0:0:0:
283,216,201832,2,0,P|326:210|375:208,1,85,2|2,0:0|0:0,0:0:0:0:
491,132,202135,1,8,0:0:0:0:
491,132,202287,2,0,B|440:28|440:28|396:60,1,170,0|2,0:0|0:0,0:0:0:0:
249,104,202741,6,0,L|158:90,1,85,8|0,0:0|0:0,0:0:0:0:
345,144,203044,1,2,0:0:0:0:
396,60,203196,1,2,0:0:0:0:
252,189,203347,2,0,P|241:230|235:272,1,85,8|0,0:0|0:0,0:0:0:0:
116,276,203650,6,0,B|57:260|20:262|20:262|41:310,1,127.5,4|0,0:0|0:0,0:0:0:0:
89,366,203953,2,0,L|170:353,1,42.5,8|0,0:0|0:0,0:0:0:0:
142,188,204105,2,0,L|49:167,1,85,0|2,0:0|0:0,0:0:0:0:
196,278,204408,1,2,0:0:0:0:
196,278,204559,1,8,0:0:0:0:
351,198,204711,6,0,B|409:199|443:227|443:227|478:189|531:202,1,170,2|2,0:0|0:0,0:0:0:0:
288,134,205166,2,0,P|267:181|275:240,1,85,8|0,0:0|0:0,0:0:0:0:
406,122,205469,2,0,P|393:72|379:28,1,85,2|2,0:0|0:0,0:0:0:0:
375,287,205772,2,0,P|370:329|368:371,1,85,8|0,0:0|0:0,0:0:0:0:
258,116,206075,6,0,B|197:109|197:109|147:137|147:137|85:125,1,170,4|8,0:0|0:0,0:0:0:0:
222,201,206529,1,0,1:0:0:0:
230,33,206681,2,0,B|187:22|187:22|121:49,1,85,2|2,0:0|0:0,0:0:0:0:
410,182,206984,1,8,0:0:0:0:
319,194,207135,1,0,0:0:0:0:
329,77,207287,6,0,L|446:74,1,85,4|0,0:0|0:0,0:0:0:0:
383,272,207590,1,2,0:0:0:0:
437,86,207741,1,8,0:0:0:0:
319,194,207893,1,2,0:0:0:0:
333,41,208044,1,2,0:0:0:0:
479,209,208196,1,8,0:0:0:0:
230,181,208347,1,8,0:0:0:0:
230,181,208423,1,8,0:0:0:0:
230,181,208499,6,0,B|167:190|123:172|123:172|92:199|61:201,1,170,4|8,0:0|0:0,0:0:0:0:
59,114,208953,2,0,B|56:98|67:65|74:31,1,85,0|2,0:0|0:0,0:0:0:0:
244,264,209256,1,2,0:0:0:0:
244,264,209408,2,0,B|247:247|236:214|229:180,1,85,8|0,0:0|0:0,0:0:0:0:
177,93,209711,5,0,0:0:0:0:
331,212,209863,1,2,0:0:0:0:
426,80,210014,2,0,P|383:74|341:69,1,85,8|0,0:0|0:0,0:0:0:0:
100,206,210317,2,0,P|142:199|183:192,1,85,2|2,0:0|0:0,0:0:0:0:
305,83,210620,1,8,0:0:0:0:
219,192,210772,1,0,0:0:0:0:
120,103,210923,6,0,P|124:50|132:5,1,85,2|0,0:0|0:0,0:0:0:0:
130,315,211226,1,8,0:0:0:0:
24,235,211378,2,0,P|64:223|111:212,1,85,0|2,0:0|0:0,0:0:0:0:
306,191,211681,1,2,0:0:0:0:
306,191,211832,2,0,P|350:215|372:282,1,85,8|2,0:0|0:0,0:0:0:0:
225,275,212135,5,0,0:0:0:0:
199,134,212287,2,0,P|193:87|187:44,1,85,2|8,0:0|0:0,0:0:0:0:
69,107,212590,1,0,0:0:0:0:
31,251,212741,2,0,L|121:216,1,85,2|2,0:0|0:0,0:0:0:0:
306,191,213044,2,0,L|414:218,1,85,8|0,0:0|0:0,0:0:0:0:
203,171,213347,6,0,B|200:231|231:289|231:289|205:288|186:301,1,170,2|8,0:0|0:0,0:0:0:0:
119,214,213802,1,0,0:0:0:0:
268,98,213953,1,2,0:0:0:0:
138,32,214105,1,2,0:0:0:0:
138,32,214256,2,0,P|130:73|124:115,1,85,8|2,0:0|0:0,0:0:0:0:
136,231,214559,5,0,0:0:0:0:
247,122,214711,1,2,0:0:0:0:
284,300,214863,2,0,P|286:346|289:398,1,85,8|0,0:0|0:0,0:0:0:0:
218,213,215166,2,0,P|263:201|330:187,1,85,2|2,0:0|0:0,0:0:0:0:
464,262,215469,2,0,P|422:260|380:257,1,85,8|0,0:0|0:0,0:0:0:0:
397,157,215772,6,0,B|409:110|412:35|412:35|354:82,1,170,2|8,0:0|0:0,0:0:0:0:
204,79,216226,2,0,P|187:41|169:-7,1,85,0|2,0:0|0:0,0:0:0:0:
290,52,216529,1,2,0:0:0:0:
238,178,216681,1,8,0:0:0:0:
47,146,216832,2,0,P|88:136|145:123,1,85
344,147,217135,6,0,P|349:188|356:246,1,85,0|8,0:0|0:0,0:0:0:0:
225,210,217438,1,0,0:0:0:0:
360,257,217590,1,2,0:0:0:0:
278,84,217741,1,2,0:0:0:0:
278,84,217893,2,0,P|225:82|160:86,1,85,8|0,0:0|0:0,0:0:0:0:
168,90,218120,1,0,1:0:0:0:
168,90,218196,5,2,0:0:0:0:
181,265,218347,1,0,0:0:0:0:
36,179,218499,1,8,0:0:0:0:
0,301,218650,2,0,P|40:290|99:276,1,85,0|2,0:0|0:0,0:0:0:0:
161,174,218953,1,2,0:0:0:0:
161,174,219105,2,0,P|203:177|245:183,1,85,8|2,0:0|0:0,0:0:0:0:
196,296,219408,5,0,0:0:0:0:
35,178,219559,2,0,P|40:135|48:94,1,85,2|8,0:0|0:0,0:0:0:0:
183,22,219863,1,0,0:0:0:0:
183,22,220014,2,0,P|190:63|195:106,1,85,2|2,0:0|0:0,0:0:0:0:
329,171,220317,2,0,P|336:129|342:87,1,85,8|0,0:0|0:0,0:0:0:0:
357,263,220620,6,0,B|296:265|258:233|258:233|273:269|260:306,1,170,2|8,0:0|0:0,0:0:0:0:
162,365,221075,1,0,0:0:0:0:
262,322,221226,1,2,0:0:0:0:
359,372,221378,1,2,0:0:0:0:
164,278,221529,2,0,P|123:266|81:257,1,85,8|2,0:0|0:0,0:0:0:0:
259,355,221832,5,0,0:0:0:0:
433,297,221984,1,2,0:0:0:0:
254,141,222135,2,0,P|255:184|261:252,1,85,8|0,0:0|0:0,0:0:0:0:
409,39,222438,2,0,P|408:82|402:150,1,85,2|2,0:0|0:0,0:0:0:0:
342,243,222741,1,8,0:0:0:0:
453,193,222893,1,0,0:0:0:0:
295,60,223044,6,0,B|231:56|231:56|179:84|179:84|110:78,1,170,2|8,0:0|0:0,0:0:0:0:
258,142,223499,2,0,P|300:150|346:162,1,85,0|2,0:0|0:0,0:0:0:0:
160,3,223802,1,2,0:0:0:0:
189,207,223953,2,0,P|142:207|90:211,1,85,8|2,0:0|0:0,0:0:0:0:
326,220,224256,5,0,0:0:0:0:
242,110,224408,1,2,0:0:0:0:
203,291,224559,1,8,0:0:0:0:
244,142,224711,1,0,0:0:0:0:
318,311,224863,2,0,L|417:304,1,85,2|2,0:0|0:0,0:0:0:0:
386,119,225166,1,8,0:0:0:0:
469,212,225317,1,0,0:0:0:0:
316,236,225469,5,2,0:0:0:0:
469,212,225620,1,8,0:0:0:0:
300,143,225772,1,8,0:0:0:0:
365,337,225923,1,0,1:0:0:0:
365,337,225999,1,0,1:0:0:0:
365,337,226075,2,0,P|314:332|263:329,1,85,0|0,1:0|1:0,0:0:0:0:
255,336,226302,1,0,1:0:0:0:
255,336,226378,1,8,0:0:0:0:
152,204,226529,1,8,0:0:0:0:
246,242,226681,6,0,L|286:228,2,42.5,8|8|8,0:0|0:0|0:0,0:0:0:0:
69,253,226984,2,0,P|60:225|57:205,1,42.5,8|0,0:0|0:0,0:0:0:0:
77,120,227135,1,8,0:0:0:0:
109,92,227211,1,8,0:0:0:0:
151,85,227287,1,8,0:0:0:0:
193,91,227363,1,8,0:0:0:0:
227,115,227439,1,8,0:0:0:0:
254,146,227514,1,8,0:0:0:0:
296,151,227590,1,8,0:0:0:0:
337,141,227666,1,8,0:0:0:0:
373,118,227742,2,0,P|376:96|383:40,1,42.5,8|8,0:0|0:0,0:0:0:0:
156,176,227893,5,4,0:0:0:0:
256,192,227969,12,0,230242,0:0:0:0:
256,192,230318,12,0,232590,0:0:0:0:
