osu file format v14

[General]
AudioFilename: 02_Cosmos_no_you_ni.mp3
AudioLeadIn: 0
PreviewTime: 92239
Countdown: 0
SampleSet: Soft
StackLeniency: 0.7
Mode: 0
LetterboxInBreaks: 0
WidescreenStoryboard: 1

[Editor]
DistanceSpacing: 1.3
BeatDivisor: 4
GridSize: 8
TimelineZoom: 1

[Metadata]
Title:Cosmos no Youni
TitleUnicode:コスモスのように
Artist:fhana
ArtistUnicode:fhána
Creator:Sotarks
Version:Akitoshi's Normal
Source:コメット・ルシファー
Tags:Comet Lucifer ~The Seed and the Sower~ junichi sato yuxuki waga kevin mitsunaga towana akitoshi corinn
BeatmapID:1405587
BeatmapSetID:663693

[Difficulty]
HPDrainRate:4
CircleSize:3.5
OverallDifficulty:4
ApproachRate:4.5
SliderMultiplier:2
SliderTickRate:1

[Events]
//Background and Video events
0,0,"BG.jpg",0,0
//Break Periods
//Storyboard Layer 0 (Background)
//Storyboard Layer 1 (Fail)
//Storyboard Layer 2 (Pass)
//Storyboard Layer 3 (Foreground)
//Storyboard Sound Samples

[TimingPoints]
415,810.810810810811,4,2,1,22,1,0
5178,-100,4,2,1,5,0,0
5279,-100,4,2,1,22,0,0
6901,-100,4,2,1,22,0,0
11766,-100,4,2,1,22,0,0
17442,-100,4,2,1,5,0,0
18252,810.810810810811,4,2,2,32,1,0
20077,-100,4,2,2,5,0,0
20279,-100,4,2,2,32,0,0
24536,-100,4,2,2,5,0,0
24739,-100,4,2,2,32,0,0
26563,-100,4,2,2,5,0,0
26766,-100,4,2,2,32,0,0
30617,-100,4,2,2,5,0,0
30820,-100,4,2,2,32,0,0
31023,-100,4,2,2,5,0,0
31225,-100,4,2,2,32,0,0
33050,-100,4,2,2,5,0,0
33252,-100,4,2,2,32,0,0
34469,-100,4,2,2,32,0,0
34874,-100,4,2,2,32,0,0
35279,-100,4,2,2,32,0,0
37712,-100,4,2,2,32,0,0
39536,-100,4,2,2,5,0,0
39739,-100,4,2,2,32,0,0
49063,-100,4,2,2,32,0,0
52306,810.810810810811,4,3,22,42,1,0
54131,-100,4,3,22,5,0,0
54333,-100,4,3,22,42,0,0
60617,-100,4,3,22,5,0,0
60820,-100,4,3,22,42,0,0
63860,-100,4,3,22,5,0,0
64063,-100,4,3,22,42,0,0
64671,-100,4,3,22,5,0,0
64874,-100,4,3,22,42,0,0
67104,-100,4,3,22,5,0,0
67306,-100,4,3,22,42,0,0
73590,-100,4,3,22,5,0,0
73793,-100,4,3,22,42,0,0
76833,-100,4,3,22,5,0,0
77036,-100,4,3,22,42,0,0
77239,-100,4,3,22,5,0,0
77442,-100,4,3,22,42,0,0
83320,-100,4,3,22,5,0,0
83523,-100,4,3,22,42,0,0
83725,-100,4,3,22,5,0,0
83928,-100,4,3,22,42,0,0
84942,-100,4,3,22,5,0,0
85144,-100,4,3,22,42,0,0
85347,-100,4,3,22,5,0,0
85550,-100,4,3,22,42,0,0
91428,-100,4,3,22,5,0,0
91631,-100,4,3,22,42,0,0
92846,810.810810810811,4,2,22,62,1,1
92846,-90.9090909090909,4,2,22,62,0,1
156089,-100,4,2,22,52,0,0
156293,-100,4,2,22,22,0,0
160143,-100,4,2,22,12,0,0
163387,-100,4,2,22,5,0,0

[Colours]
Combo1 : 217,215,145
Combo2 : 84,90,148
Combo3 : 80,194,250
Combo4 : 36,187,157
SliderBorder : 245,255,220
SliderTrackOverride : 0,0,18

[HitObjects]
332,268,415,6,0,L|461:258,2,100,2|0|0,0:0|0:0|0:0,0:0:0:0:
240,360,1631,1,0,0:0:0:0:
115,324,2036,2,0,P|85:279|108:138,1,200,2|2,0:0|0:0,0:0:0:0:
357,78,3658,5,2,0:0:0:0:
357,78,5279,1,2,0:0:0:0:
357,78,6901,38,0,L|467:83,2,100,2|0|2,0:0|0:0|0:0,0:0:0:0:
241,17,8117,1,2,0:0:0:0:
160,119,8523,2,0,B|128:213|201:227|163:323,1,200,2|0,0:0|0:0,0:0:0:0:
42,354,9739,1,2,0:0:0:0:
68,226,10144,6,0,P|121:191|298:327,1,300,2|2,0:0|0:0,0:0:0:0:
416,350,11766,1,2,0:0:0:0:
256,192,11969,12,2,15009,0:0:0:0:
340,203,18252,38,0,P|284:184|215:192,1,100,2|0,1:0|0:0,0:0:0:0:
162,192,18860,1,0,1:0:0:0:
162,192,19063,2,0,L|153:92,1,100,10|0,0:0|1:0,0:0:0:0:
259,15,19874,1,2,1:0:0:0:
362,92,20279,2,0,L|340:320,1,200,8|0,1:2|1:0,0:0:0:0:
224,346,21496,6,0,P|165:352|109:335,1,100,2|2,0:0|0:0,0:0:0:0:
139,213,22306,2,0,P|198:207|254:224,1,100,2|0,0:0|0:0,0:0:0:0:
343,291,23117,2,0,L|501:301,2,150,2|0|10,1:2|0:0|0:0,0:0:0:0:
237,216,24739,38,0,L|229:95,1,100,2|8,1:0|0:0,0:0:0:0:
189,48,25347,1,0,1:0:0:0:
189,48,25550,2,0,P|133:39|67:60,1,100,10|0,0:0|3:0,0:0:0:0:
35,165,26360,1,2,1:0:0:0:
125,258,26766,2,0,B|188:250|188:250|249:273|249:273|330:264,1,200,8|0,1:2|1:0,0:0:0:0:
449,254,27982,5,2,1:0:0:0:
510,139,28387,1,10,0:0:0:0:
422,42,28793,2,0,P|314:23|212:74,1,200,10|0,0:0|1:0,0:0:0:0:
146,153,30009,2,0,L|82:149,1,50,2|0,1:0|1:0,0:0:0:0:
22,105,30415,2,0,P|9:152|35:212,1,100,2|10,0:0|0:0,0:0:0:0:
132,271,31225,38,0,L|236:265,1,100,2|8,1:0|0:0,0:0:0:0:
321,262,31833,1,0,1:0:0:0:
321,262,32036,2,0,P|329:206|304:145,1,100,10|0,0:0|0:0,0:0:0:0:
230,68,32847,1,2,1:0:0:0:
351,21,33252,2,0,P|416:21|500:125,1,200,8|2,1:2|1:0,0:0:0:0:
471,244,34469,5,2,1:0:0:0:
360,312,34874,1,10,0:0:0:0:
251,240,35279,2,0,B|152:207|152:207|59:227|59:227|28:181|23:121|50:61|137:49,1,400,10|0,0:0|0:0,0:0:0:0:
230,57,37306,1,2,0:0:0:0:
345,116,37712,38,0,L|353:248,1,100,2|8,1:0|0:0,0:0:0:0:
368,307,38320,1,0,1:0:0:0:
368,307,38523,2,0,P|316:331|252:324,1,100,8|2,0:0|3:2,0:0:0:0:
147,303,39333,1,2,1:0:0:0:
244,216,39739,2,0,B|275:177|275:177|257:16,1,200,8|2,1:2|1:0,0:0:0:0:
135,71,40955,6,0,L|21:60,1,100,2|8,1:0|0:0,0:0:0:0:
0,186,41766,2,0,L|114:197,1,100,10|0,0:0|3:0,0:0:0:0:
225,227,42577,2,0,P|271:243|342:240,1,100,0|2,1:0|3:0,0:0:0:0:
371,175,43185,2,0,P|417:191|488:188,1,100,0|0,1:0|0:0,0:0:0:0:
508,117,43793,1,10,0:0:0:0:
418,22,44198,38,0,L|305:27,1,100,0|8,1:0|0:0,0:0:0:0:
255,83,44806,1,0,1:0:0:0:
255,83,45009,2,0,L|142:78,1,100,10|0,0:0|0:0,0:0:0:0:
34,128,45820,1,2,1:0:0:0:
106,235,46225,2,0,L|95:352,2,100,8|2|0,1:2|0:0|1:0,0:0:0:0:
221,174,47442,6,0,P|262:163|344:176,1,100,2|8,1:0|0:0,0:0:0:0:
323,296,48252,2,0,P|282:307|200:294,1,100,10|0,0:0|3:0,0:0:0:0:
256,192,49063,12,0,51090,0:0:0:0:
351,219,52306,38,0,L|233:225,1,100,2|0,1:2|0:0,0:0:0:0:
193,286,52915,1,0,0:0:0:0:
193,286,53117,2,0,L|75:280,1,100,8|0,0:0|0:0,0:0:0:0:
5,184,53928,1,0,1:0:0:0:
58,65,54333,1,8,1:3:0:0:
184,34,54739,2,0,P|232:49|305:36,1,100,0|2,0:0|0:0,0:0:0:0:
409,26,55550,5,2,0:0:0:0:
498,119,55955,1,0,1:0:0:0:
456,242,56360,2,0,P|403:252|326:228,1,100,8|2,0:0|0:0,0:0:0:0:
243,183,57171,2,0,P|190:173|113:197,1,100,2|2,1:0|0:0,0:0:0:0:
82,238,57779,1,2,1:2:0:0:
82,238,57982,2,0,L|96:367,1,100,8|2,0:0|0:0,0:0:0:0:
222,345,58793,38,0,P|272:326|341:333,1,100,2|8,1:0|0:0,0:0:0:0:
406,347,59401,1,0,0:0:0:0:
406,347,59604,2,0,L|410:244,1,100,10|0,0:0|0:0,0:0:0:0:
420,117,60415,1,2,1:0:0:0:
328,25,60820,1,8,1:3:0:0:
203,63,61225,2,0,L|84:60,1,100,2|0,0:0|0:0,0:0:0:0:
18,159,62036,6,0,P|7:210|27:262,1,100,2|2,1:0|1:0,0:0:0:0:
90,313,62644,1,2,2:0:0:0:
90,313,62847,2,0,L|200:306,1,100,2|0,0:0|0:0,0:0:0:0:
298,235,63658,2,0,L|291:125,1,100,0|0,0:0|0:0,0:0:0:0:
284,55,64266,1,0,1:0:0:0:
284,55,64469,2,0,P|331:41|400:51,1,100,14|10,0:0|0:0,0:0:0:0:
480,128,65279,38,0,L|487:238,1,100
489,317,65887,1,0,1:0:0:0:
489,317,66090,2,0,P|442:331|373:321,1,100,10|2,0:0|0:0,0:0:0:0:
298,235,66901,1,10,0:0:0:0:
176,189,67306,1,8,1:3:0:0:
62,253,67712,2,0,L|71:368,1,100,2|2,2:0|0:0,0:0:0:0:
198,369,68523,6,0,P|247:359|294:302,1,100,2|0,1:0|1:0,0:0:0:0:
346,212,69333,1,8,0:0:0:0:
305,88,69739,1,2,0:0:0:0:
185,35,70144,2,0,L|73:39,1,100,2|2,1:0|0:0,0:0:0:0:
26,100,70752,1,0,1:0:0:0:
26,100,70955,2,0,P|12:151|28:216,1,100,10|2,0:0|0:0,0:0:0:0:
90,305,71766,38,0,L|202:309,1,100,2|0,1:0|0:0,0:0:0:0:
271,349,72374,1,0,0:0:0:0:
271,349,72577,2,0,P|333:348|374:329,1,100,8|2,0:0|0:0,0:0:0:0:
416,213,73387,2,0,L|405:96,1,100,2|10,1:0|0:0,0:0:0:0:
355,51,73996,1,2,2:0:0:0:
355,51,74198,2,0,P|292:44|241:65,1,100,8|2,0:0|1:0,0:0:0:0:
214,177,75009,6,0,L|204:303,1,100,2|0,1:0|0:0,0:0:0:0:
175,358,75617,1,0,1:0:0:0:
175,358,75820,2,0,P|122:368|68:350,1,100,8|0,0:0|0:0,0:0:0:0:
7,246,76631,1,2,1:0:0:0:
7,116,77036,1,8,1:3:0:0:
109,36,77442,2,0,P|163:27|235:43,1,100,8|0,0:0|0:0,0:0:0:0:
326,84,78251,37,0,1:0:0:0:
382,201,78658,1,0,1:0:0:0:
332,321,79063,2,0,L|210:311,1,100,8|0,0:0|0:0,0:0:0:0:
143,217,79874,2,0,L|265:207,1,100,2|2,1:0|0:0,0:0:0:0:
307,153,80482,1,0,1:0:0:0:
307,153,80685,2,0,P|316:103|299:52,1,100,8|0,0:0|0:0,0:0:0:0:
177,20,81496,5,2,1:0:0:0:
50,50,81901,1,10,0:0:0:0:
9,173,82306,1,10,0:0:0:0:
94,270,82712,1,2,0:0:0:0:
220,238,83117,2,0,P|292:240|334:260,1,100,2|8,1:0|0:3,0:0:0:0:
438,297,83928,2,0,L|447:190,1,100,8|2,0:0|0:0,0:0:0:0:
459,67,84739,37,2,1:0:0:0:
341,12,85144,1,0,1:0:0:0:
214,42,85550,1,8,0:0:0:0:
159,159,85955,2,0,L|166:230,1,50,2|2,0:0|0:0,0:0:0:0:
170,293,86360,2,0,P|95:310|46:295,1,100,10|8,0:0|0:0,0:0:0:0:
1,197,87171,1,8,0:0:0:0:
40,72,87577,1,0,0:0:0:0:
160,24,87982,6,0,L|273:31,1,100,2|0,0:0|0:0,0:0:0:0:
327,91,88590,1,0,1:0:0:0:
327,91,88793,2,0,L|440:84,1,100,10|0,0:0|0:0,0:0:0:0:
493,196,89604,2,0,P|500:257|485:299,1,100,2|0,1:0|0:0,0:0:0:0:
375,357,90415,1,8,0:0:0:0:
246,336,90820,1,0,0:0:0:0:
181,223,91224,38,0,L|74:233,1,100,2|8,1:0|1:3,0:0:0:0:
23,178,91833,1,0,0:0:0:0:
23,178,92036,2,0,P|14:123|32:72,1,100,8|2,0:0|0:0,0:0:0:0:
162,37,92846,38,0,L|292:41,1,110.000003356934,6|0,1:0|3:0,0:0:0:0:
414,50,93656,1,10,0:0:0:0:
490,170,94062,2,0,P|495:206|491:231,1,55.0000016784668,0|0,3:0|1:0,0:0:0:0:
411,271,94468,2,0,L|273:254,1,110.000003356934,2|0,1:0|3:0,0:0:0:0:
240,195,95076,1,0,0:0:0:0:
240,195,95278,2,0,L|102:212,1,110.000003356934,8|10,0:0|3:0,0:0:0:0:
58,331,96089,38,0,P|112:351|180:339,1,110.000003356934,2|10,1:0|0:0,0:0:0:0:
295,292,96900,1,10,1:2:0:0:
374,173,97305,2,0,L|366:98,1,55.0000016784668,0|0,3:0|1:0,0:0:0:0:
323,35,97711,2,0,P|262:27|203:47,1,110.000003356934,0|0,1:0|3:0,0:0:0:0:
135,86,98319,1,0,0:0:0:0:
135,86,98522,2,0,P|74:78|15:98,1,110.000003356934,8|0,0:0|3:0,0:0:0:0:
5,231,99332,6,0,L|14:350,1,110.000003356934,2|0,1:0|1:0,0:0:0:0:
153,368,100143,1,10,0:0:0:0:
280,303,100549,2,0,L|356:310,1,55.0000016784668,0|0,3:0|1:0,0:0:0:0:
428,313,100954,2,0,P|447:261|431:196,1,110.000003356934,2|0,1:0|3:0,0:0:0:0:
368,155,101562,1,0,0:0:0:0:
368,155,101765,2,0,L|378:24,1,110.000003356934,8|2,0:0|3:0,0:0:0:0:
236,15,102576,37,2,1:0:0:0:
102,65,102981,1,2,1:0:0:0:
68,203,103386,1,10,0:0:0:0:
157,314,103792,2,0,L|231:311,1,55.0000016784668,0|0,3:0|1:0,0:0:0:0:
284,252,104197,2,0,L|415:256,1,110.000003356934,0|0,1:0|3:0,0:0:0:0:
492,260,104805,1,0,1:0:0:0:
492,260,105008,2,0,P|502:207|482:144,1,110.000003356934,8|8,0:0|0:0,0:0:0:0:
403,37,105819,5,2,1:0:0:0:
280,110,106224,1,0,3:0:0:0:
284,252,106630,2,0,P|222:270|143:257,1,110.000003356934,10|0,0:0|3:0,0:0:0:0:
103,219,107238,1,0,1:0:0:0:
103,219,107441,2,0,L|116:94,1,110.000003356934,2|0,1:0|1:0,0:0:0:0:
235,33,108251,2,0,P|299:26|374:52,1,110.000003356934,10|0,0:0|3:0,0:0:0:0:
417,101,108859,1,0,1:0:0:0:
417,101,109062,38,0,L|424:234,1,110.000003356934,2|2,1:0|1:0,0:0:0:0:
349,334,109873,1,10,0:0:0:0:
212,292,110278,2,0,L|124:299,1,55.0000016784668,0|0,3:0|1:0,0:0:0:0:
63,303,110684,2,0,P|48:245|62:188,1,110.000003356934,2|0,1:0|3:0,0:0:0:0:
143,82,111495,2,0,L|231:89,1,55.0000016784668,10|2,0:0|0:0,0:0:0:0:
263,152,111900,2,0,L|351:145,1,55.0000016784668,2|2,3:0|1:0,0:0:0:0:
411,143,112305,6,0,P|433:195|419:264,1,110.000003356934,2|0,1:0|1:0,0:0:0:0:
308,326,113116,2,0,L|165:314,1,110.000003356934,10|0,0:0|3:0,0:0:0:0:
105,305,113724,1,0,1:0:0:0:
105,305,113927,2,0,P|83:253|97:184,1,110.000003356934,2|0,1:0|3:0,0:0:0:0:
155,74,114738,1,8,0:0:0:0:
296,51,115143,2,0,L|303:130,1,55.0000016784668,2|0,3:0|1:0,0:0:0:0:
313,199,115549,38,0,P|376:204|445:181,1,110.000003356934,2|0,1:0|1:0,0:0:0:0:
403,51,116359,2,0,P|340:42|270:62,1,110.000003356934,8|0,0:0|3:0,0:0:0:0:
215,98,116968,1,0,1:0:0:0:
215,98,117170,2,0,L|78:89,1,110.000003356934,2|2,0:0|3:0,0:0:0:0:
21,206,117981,2,0,P|9:263|30:327,1,110.000003356934,10|2,0:0|0:0,0:0:0:0:
105,365,118589,1,2,1:0:0:0:
105,365,118792,6,0,L|255:353,1,110.000003356934,2|8,1:0|0:0,0:0:0:0:
330,272,119603,1,10,0:0:0:0:
290,134,120008,2,0,P|252:130|218:138,1,55.0000016784668,0|0,3:0|1:0,0:0:0:0:
144,155,120414,2,0,P|127:110|138:26,1,110.000003356934,2|0,1:0|3:0,0:0:0:0:
270,28,121224,2,0,P|289:72|282:156,1,110.000003356934,10|0,0:0|3:0,0:0:0:0:
263,226,121832,1,2,1:0:0:0:
263,226,122034,38,0,L|418:235,1,110.000003356934,2|0,1:0|1:0,0:0:0:0:
498,163,122846,1,8,0:0:0:0:
432,36,123251,2,0,P|400:27|363:26,1,55.0000016784668,2|0,0:0|0:0,0:0:0:0:
299,76,123657,2,0,L|157:67,1,110.000003356934,2|0,1:0|3:0,0:0:0:0:
100,63,124265,1,0,1:0:0:0:
100,63,124468,2,0,P|81:119|93:181,1,110.000003356934,10|0,0:0|3:0,0:0:0:0:
140,252,125076,1,0,1:0:0:0:
140,252,125278,6,0,L|282:243,1,110.000003356934,2|0,1:0|1:0,0:0:0:0:
366,162,126089,1,8,0:0:0:0:
484,242,126495,2,0,L|478:321,1,55.0000016784668,2|2,3:0|1:0,0:0:0:0:
395,336,126900,2,0,P|345:341|282:322,1,110.000003356934,2|0,1:0|3:0,0:0:0:0:
250,245,127508,1,0,1:0:0:0:
250,245,127711,2,0,P|200:250|137:231,1,110.000003356934,10|0,0:0|3:0,0:0:0:0:
25,152,128522,37,2,1:0:0:0:
95,27,128927,1,0,1:0:0:0:
237,19,129332,1,8,0:0:0:0:
355,99,129738,2,0,L|440:92,1,55.0000016784668,0|0,3:0|1:0,0:0:0:0:
503,96,130143,2,0,L|496:228,1,110.000003356934,2|0,1:0|3:0,0:0:0:0:
435,276,130751,1,0,1:0:0:0:
435,276,130954,2,0,P|372:283|323:264,1,110.000003356934,10|2,0:0|3:0,0:0:0:0:
257,216,131562,1,2,1:0:0:0:
257,216,131765,6,0,L|251:106,1,110.000003356934,2|8,1:0|0:0,0:0:0:0:
120,48,132576,2,0,L|114:158,1,110.000003356934,8|0,0:0|3:0,0:0:0:0:
45,221,133184,1,0,1:0:0:0:
45,221,133386,2,0,P|31:277|49:334,1,110.000003356934,0|0,1:0|3:0,0:0:0:0:
133,370,133995,1,0,0:0:0:0:
133,370,134197,2,0,P|188:354|228:310,1,110.000003356934,8|0,0:0|3:0,0:0:0:0:
268,181,135008,37,2,1:0:0:0:
395,116,135414,1,0,1:0:0:0:
510,200,135819,1,10,0:0:0:0:
466,335,136224,2,0,L|403:332,1,55.0000016784668,0|0,3:0|1:0,0:0:0:0:
328,286,136630,2,0,P|264:276|205:297,1,110.000003356934,2|0,1:0|1:0,0:0:0:0:
136,319,137238,1,0,1:0:0:0:
136,319,137441,2,0,L|127:201,1,110.000003356934,10|0,0:0|3:0,0:0:0:0:
55,158,138049,1,0,1:0:0:0:
55,158,138250,6,0,L|64:40,1,110.000003356934,2|8,1:0|0:0,0:0:0:0:
202,16,139062,1,8,0:0:0:0:
324,89,139468,2,0,L|398:82,1,55.0000016784668,0|0,3:0|1:0,0:0:0:0:
462,125,139873,2,0,P|473:177|462:239,1,110.000003356934,2|0,1:0|3:0,0:0:0:0:
391,290,140481,1,2,1:0:0:0:
391,290,140684,2,0,P|339:279|277:290,1,110.000003356934,8|2,0:0|3:0,0:0:0:0:
199,323,141292,1,0,1:0:0:0:
199,323,141495,38,0,L|188:207,1,110.000003356934,2|0,1:0|1:0,0:0:0:0:
146,76,142305,2,0,P|87:73|24:101,1,110.000003356934,8|0,0:0|3:0,0:0:0:0:
4,180,142914,1,0,1:0:0:0:
4,180,143116,2,0,L|15:296,1,110.000003356934,2|0,1:0|3:0,0:0:0:0:
129,374,143927,1,10,0:0:0:0:
259,316,144332,2,0,L|340:319,1,55.0000016784668,0|0,3:0|1:0,0:0:0:0:
407,322,144738,6,0,P|417:268|405:210,1,110.000003356934,2|0,1:0|1:0,0:0:0:0:
310,108,145549,2,0,P|256:118|198:106,1,110.000003356934,8|0,0:0|3:0,0:0:0:0:
118,80,146157,1,0,1:0:0:0:
118,80,146359,2,0,L|108:196,1,110.000003356934,2|8,1:0|0:0,0:0:0:0:
99,286,146968,1,0,1:0:0:0:
99,286,147170,2,0,P|149:309|222:302,1,110.000003356934,8|0,0:0|3:0,0:0:0:0:
345,290,147980,37,2,1:0:0:0:
445,188,148386,1,2,1:0:0:0:
393,54,148792,1,10,0:0:0:0:
253,22,149197,2,0,L|183:27,1,55.0000016784668,2|0,3:0|1:0,0:0:0:0:
111,61,149603,2,0,P|97:128|112:179,1,110.000003356934,2|0,1:0|3:0,0:0:0:0:
182,232,150211,1,0,1:0:0:0:
182,232,150414,2,0,P|196:299|181:350,1,110.000003356934,8|2,0:0|3:0,0:0:0:0:
45,358,151224,6,0,L|29:227,1,110.000003356934,2|0,1:0|1:0,0:0:0:0:
8,107,152035,1,8,0:0:0:0:
134,39,152441,2,0,L|201:43,1,55.0000016784668,2|2,3:0|1:0,0:0:0:0:
255,107,152846,2,0,P|315:118|380:90,1,110.000003356934,2|0,1:0|3:0,0:0:0:0:
446,61,153454,1,0,1:0:0:0:
446,61,153657,2,0,L|458:192,1,110.000003356934,8|0,0:0|3:0,0:0:0:0:
407,251,154265,1,0,1:0:0:0:
407,251,154468,38,0,P|347:240|282:268,1,110.000003356934,0|0,1:0|3:0,0:0:0:0:
186,339,155278,1,8,0:0:0:0:
65,261,155684,2,0,L|57:198,1,55.0000016784668,2|0,3:0|1:0,0:0:0:0:
43,122,156089,37,6,1:0:0:0:
256,192,156291,12,0,163385,0:0:0:0:
