osu file format v14

[General]
AudioFilename: audio.mp3
AudioLeadIn: 0
PreviewTime: 128877
Countdown: 0
SampleSet: Soft
StackLeniency: 0.4
Mode: 0
LetterboxInBreaks: 0
WidescreenStoryboard: 1

[Editor]
Bookmarks: 5330,13139,21892,30659,38330,49289,68719,86822,121617,137781,172713
DistanceSpacing: 0.7
BeatDivisor: 4
GridSize: 4
TimelineZoom: 2.3

[Metadata]
Title:Comet Lucifer ~The Seed and the Sower~
TitleUnicode:コメットルシファー ~The Seed and the Sower~
Artist:fhana
ArtistUnicode:fhána
Creator:Sotarks
Version:toybot's Insane
Source:コメット・ルシファー
Tags:opening op junichi sato yuxuki waga kevin mitsunaga towana toybot garden akitoshi corinn
BeatmapID:1406945
BeatmapSetID:651869

[Difficulty]
HPDrainRate:5.5
CircleSize:4
OverallDifficulty:8
ApproachRate:9
SliderMultiplier:1.6
SliderTickRate:1

[Events]
//Background and Video events
0,0,"bg.jpg",0,0
//Break Periods
2,108192,116359
//Storyboard Layer 0 (Background)
//Storyboard Layer 1 (Fail)
//Storyboard Layer 2 (Pass)
//Storyboard Layer 3 (Foreground)
//Storyboard Sound Samples

[TimingPoints]
1084,273.972602739726,4,2,22,42,1,0
1084,-200,4,2,22,42,0,0
5467,-133.333333333333,4,2,22,42,0,0
11905,-133.333333333333,4,2,22,52,0,0
12458,-133.333333333333,4,2,22,42,0,0
12727,-111.111111111111,4,2,22,42,0,0
13070,-111.111111111111,4,2,22,5,0,0
13139,272.66530334015,4,2,22,72,1,0
17501,274.473924977127,4,2,22,72,1,0
19696,-90.9090909090909,4,2,22,82,0,0
19902,-90.9090909090909,4,2,22,5,0,0
19971,-90.9090909090909,4,2,22,82,0,0
20314,-90.9090909090909,4,2,22,5,0,0
20382,-90.9090909090909,4,2,22,82,0,0
20588,-90.9090909090909,4,2,22,5,0,0
20657,-90.9090909090909,4,2,22,52,0,0
20863,-90.9090909090909,4,2,22,5,0,0
20931,-90.9090909090909,4,2,22,82,0,0
21892,273.972602739726,4,2,22,52,1,0
21892,-133.333333333333,4,2,22,52,0,0
30659,-111.111111111111,4,2,22,62,0,0
34974,-111.111111111111,4,2,22,5,0,0
35042,-111.111111111111,4,2,22,62,0,0
38330,-111.111111111111,4,2,22,52,0,0
38535,-111.111111111111,4,2,22,5,0,0
38604,-111.111111111111,4,2,22,52,0,0
38809,-111.111111111111,4,2,22,5,0,0
38878,-111.111111111111,4,2,22,52,0,0
39083,-111.111111111111,4,2,22,5,0,0
39152,-111.111111111111,4,2,22,52,0,0
39357,-111.111111111111,4,2,22,5,0,0
39426,-111.111111111111,4,2,22,52,0,0
40453,-111.111111111111,4,2,22,5,0,0
40522,-111.111111111111,4,2,22,52,0,0
40727,-111.111111111111,4,2,22,5,0,0
40796,-111.111111111111,4,2,22,52,0,0
41001,-111.111111111111,4,2,22,5,0,0
41070,-111.111111111111,4,2,22,52,0,0
41275,-111.111111111111,4,2,22,5,0,0
41344,-111.111111111111,4,2,22,52,0,0
44837,-111.111111111111,4,2,22,5,0,0
44905,-100,4,2,22,62,0,0
46001,-100,4,2,22,72,0,0
47097,-100,4,2,22,82,0,0
47302,-100,4,2,22,5,0,0
47371,-100,4,2,22,82,0,0
47508,-100,4,2,22,72,0,0
47713,-100,4,2,22,5,0,0
47782,-100,4,2,22,72,0,0
47919,-100,4,2,22,62,0,0
48124,-100,4,2,22,5,0,0
48193,-100,4,2,22,62,0,0
48330,-100,4,2,22,82,0,0
48672,-100,4,2,22,5,0,0
48741,-100,4,2,22,82,0,0
48946,-100,4,2,22,5,0,0
49015,-100,4,2,22,82,0,0
49220,-100,4,2,22,5,0,0
49289,-100,4,2,22,82,0,1
49494,-100,4,2,22,5,0,1
49563,-100,4,2,22,82,0,1
49768,-100,4,2,22,5,0,1
49837,-100,4,2,22,82,0,1
50316,-100,4,2,22,5,0,1
50385,-100,4,2,22,82,0,1
50590,-100,4,2,22,5,0,1
50659,-100,4,2,22,82,0,1
51686,-100,4,2,22,5,0,1
51755,-100,4,2,22,82,0,1
52782,-100,4,2,22,5,0,1
52850,-100,4,2,22,82,0,1
53193,-100,4,2,22,5,0,1
53261,-100,4,2,22,82,0,1
53604,-100,4,2,22,5,0,1
53672,-100,4,2,22,82,0,1
53878,-100,4,2,22,5,0,1
53946,-100,4,2,22,82,0,1
54152,-100,4,2,22,5,0,1
54220,-100,4,2,22,82,0,1
54700,-100,4,2,22,5,0,1
54768,-100,4,2,22,82,0,1
54974,-100,4,2,22,5,0,1
55042,-100,4,2,22,82,0,1
55796,-100,4,2,22,5,0,1
55864,-100,4,2,22,82,0,1
56070,-100,4,2,22,5,0,1
56138,-100,4,2,22,82,0,1
57165,-100,4,2,22,5,0,1
57234,-100,4,2,22,82,0,1
57782,-100,4,2,22,82,0,0
58056,-100,4,2,22,82,0,1
58261,-100,4,2,22,5,0,1
58330,-100,4,2,22,82,0,1
59357,-100,4,2,22,5,0,1
59426,-100,4,2,22,82,0,1
59768,-100,4,2,22,5,0,1
59837,-100,4,2,22,82,0,1
60453,-100,4,2,22,5,0,1
60522,-100,4,2,22,82,0,1
61275,-100,4,2,22,5,0,1
61344,-100,4,2,22,82,0,1
61549,-100,4,2,22,5,0,1
61618,-100,4,2,22,82,0,1
61960,-100,4,2,22,5,0,1
62028,-100,4,2,22,82,0,1
62371,-100,4,2,22,5,0,1
62439,-100,4,2,22,82,0,1
62645,-100,4,2,22,5,0,1
62713,-100,4,2,22,82,0,1
62919,-100,4,2,22,5,0,1
62987,-100,4,2,22,82,0,1
63467,-100,4,2,22,5,0,1
63535,-100,4,2,22,82,0,1
63741,-100,4,2,22,5,0,1
63809,-100,4,2,22,82,0,1
64152,-100,4,2,22,5,0,1
64220,-100,4,2,22,82,0,1
64837,-100,4,2,22,5,0,1
64905,-100,4,2,22,82,0,1
65111,-100,4,2,22,5,0,1
65179,-100,4,2,22,82,0,1
65385,-100,4,2,22,5,0,1
65453,-100,4,2,22,82,0,1
66344,-100,4,2,22,5,0,1
66412,-100,4,2,22,82,0,1
67919,266.666666666667,4,2,22,82,1,0
67919,-133.333333333333,4,2,22,82,0,0
68719,277.777777777778,4,2,22,82,1,0
69830,283.018867924528,4,2,22,82,1,0
70396,270.27027027027,4,2,22,82,1,0
71477,274.599542334096,4,2,22,82,1,0
73124,273.972602739726,4,2,22,82,1,0
75178,-125,4,2,22,82,0,0
75521,-125,4,2,22,5,0,0
75589,-125,4,2,22,82,0,0
75795,-125,4,2,22,5,0,0
75863,-125,4,2,22,82,0,0
76069,-125,4,2,22,5,0,0
76137,-125,4,2,22,82,0,0
76480,-125,4,2,22,5,0,0
76548,-125,4,2,22,82,0,0
80178,-125,4,2,22,5,0,0
80247,-125,4,2,22,82,0,0
81343,-111.111111111111,4,2,22,82,0,0
81891,-111.111111111111,4,2,22,52,0,0
82165,-111.111111111111,4,2,22,62,0,0
82713,-111.111111111111,4,2,22,72,0,0
83534,-111.111111111111,4,2,22,82,0,0
84082,-100,4,2,22,92,0,0
85041,-100,4,2,22,82,0,0
85247,-100,4,2,22,5,0,0
85315,-100,4,2,22,82,0,0
86137,-100,4,2,22,72,0,0
116959,-133.333333333333,4,2,22,42,0,0
123397,-133.333333333333,4,2,22,62,0,0
123534,-100,4,2,22,62,0,0
124630,-100,4,2,22,72,0,0
126206,-100,4,2,22,5,0,0
126274,-100,4,2,22,72,0,0
126480,-100,4,2,22,5,0,0
126548,-100,4,2,22,72,0,0
128260,-100,4,2,22,5,0,0
128329,-100,4,2,22,72,0,0
129014,-200,4,2,22,42,0,0
130041,-200,4,2,22,5,0,0
130110,-200,4,2,22,42,0,0
131137,-200,4,2,22,5,0,0
131206,-200,4,2,22,42,0,0
132233,-200,4,2,22,5,0,0
132302,-111.111111111111,4,2,22,52,0,0
132644,-111.111111111111,4,2,22,5,0,0
132713,-111.111111111111,4,2,22,62,0,0
133055,-111.111111111111,4,2,22,5,0,0
133124,-111.111111111111,4,2,22,72,0,0
133329,-111.111111111111,4,2,22,5,0,0
133397,-100,4,2,22,82,0,1
133603,-100,4,2,22,5,0,1
133671,-100,4,2,22,82,0,1
133877,-100,4,2,22,5,0,1
133945,-100,4,2,22,82,0,1
134425,-100,4,2,22,5,0,1
134493,-100,4,2,22,82,0,1
134699,-100,4,2,22,5,0,1
134767,-100,4,2,22,82,0,1
135521,-100,4,2,22,5,0,1
135589,-100,4,2,22,82,0,1
135795,-100,4,2,22,5,0,1
135863,-100,4,2,22,82,0,1
136890,-100,4,2,22,5,0,1
136959,-100,4,2,22,82,0,1
137507,-100,4,2,22,82,0,0
137781,-100,4,2,22,82,0,1
137986,-100,4,2,22,5,0,1
138055,-100,4,2,22,82,0,1
139082,-100,4,2,22,5,0,1
139151,-100,4,2,22,82,0,1
139493,-100,4,2,22,5,0,1
139562,-100,4,2,22,82,0,1
140178,-100,4,2,22,5,0,1
140247,-100,4,2,22,82,0,1
141000,-100,4,2,22,5,0,1
141069,-100,4,2,22,82,0,1
141274,-100,4,2,22,5,0,1
141343,-100,4,2,22,82,0,1
141685,-100,4,2,22,5,0,1
141753,-100,4,2,22,82,0,1
142096,-100,4,2,22,5,0,1
142164,-100,4,2,22,82,0,1
142370,-100,4,2,22,5,0,1
142438,-100,4,2,22,82,0,1
142644,-100,4,2,22,5,0,1
142712,-100,4,2,22,82,0,1
143192,-100,4,2,22,5,0,1
143260,-100,4,2,22,82,0,1
143466,-100,4,2,22,5,0,1
143534,-100,4,2,22,82,0,1
143877,-100,4,2,22,5,0,1
143945,-100,4,2,22,82,0,1
144562,-100,4,2,22,5,0,1
144630,-100,4,2,22,82,0,1
144836,-100,4,2,22,5,0,1
144904,-100,4,2,22,82,0,1
146069,-100,4,2,22,5,0,1
146137,-100,4,2,22,82,0,0
146548,-100,4,2,22,82,0,1
146754,-100,4,2,22,5,0,1
146822,-100,4,2,22,82,0,1
149904,-100,4,2,22,5,0,1
149973,-100,4,2,22,82,0,1
151137,-100,4,2,22,5,0,1
151206,-100,4,2,22,82,0,1
152096,-100,4,2,22,5,0,1
152165,-100,4,2,22,82,0,1
153329,-100,4,2,22,5,0,1
153397,-100,4,2,22,82,0,1
153740,-100,4,2,22,5,0,1
153808,-100,4,2,22,82,0,1
154014,-100,4,2,22,5,0,1
154082,-100,4,2,22,82,0,1
154904,-100,4,2,22,72,0,1
155041,-100,4,2,22,62,0,1
155178,-100,4,2,22,52,0,1
155315,-111.111111111111,4,2,22,82,0,0
159699,-100,4,2,22,82,0,1
160863,-100,4,2,22,5,0,1
160932,-100,4,2,22,82,0,1
162507,-100,4,2,22,5,0,1
162576,-100,4,2,22,82,0,1
163055,-100,4,2,22,5,0,1
163124,-100,4,2,22,82,0,1
163534,-100,4,2,22,72,0,1
163808,-100,4,2,22,62,0,1
164082,-100,4,2,22,82,0,1
164288,-100,4,2,22,5,0,1
164356,-100,4,2,22,82,0,1
164699,-100,4,2,22,5,0,1
164767,-100,4,2,22,82,0,1
165110,-100,4,2,22,5,0,1
165178,-100,4,2,22,82,0,1
165521,-100,4,2,22,5,0,1
165589,-100,4,2,22,82,0,1
168055,-100,4,2,22,72,0,1
168192,-100,4,2,22,62,0,1
168329,-100,4,2,22,52,0,1
168466,-100,4,2,22,82,0,1
168534,-100,4,2,22,62,0,1
168740,-100,4,2,22,72,0,1
168808,-100,4,2,22,62,0,1
168877,-100,4,2,22,82,0,1
168945,-100,4,2,22,62,0,1
169151,-100,4,2,22,72,0,1
169219,-100,4,2,22,62,0,1
169288,-100,4,2,22,82,0,1
169356,-100,4,2,22,62,0,1
169562,-100,4,2,22,72,0,1
169630,-100,4,2,22,62,0,1
169699,-100,4,2,22,82,0,1
169767,-100,4,2,22,62,0,1
169973,-100,4,2,22,72,0,1
170041,-100,4,2,22,62,0,1
170110,-100,4,2,22,82,0,1
170521,-100,4,2,22,82,0,0
170589,-100,4,2,22,62,0,0
172302,-100,4,2,22,5,0,0
172507,-100,4,2,22,5,0,0
172576,-100,4,2,22,82,0,0
172713,-200,4,2,22,82,0,0
172987,-200,4,2,22,5,0,0

[Colours]
Combo1 : 159,167,174
Combo2 : 38,63,121
Combo3 : 215,101,9
Combo4 : 50,243,88
SliderBorder : 255,255,255
SliderTrackOverride : 0,0,0

[HitObjects]
35,112,1084,6,0,P|55:160|55:200,1,80,0|0,1:0|0:0,0:0:0:0:
123,232,1494,2,0,P|103:280|103:320,1,80,2|0,3:0|0:0,0:0:0:0:
79,384,1905,1,0,1:0:0:0:
131,152,2316,1,2,3:0:0:0:
189,333,2727,2,0,P|184:307|173:277,1,40,2|0,1:0|0:0,0:0:0:0:
235,235,3001,2,0,P|240:209|251:179,1,40,2|0,3:0|0:0,0:0:0:0:
193,102,3275,6,0,P|230:114|270:115,1,80,0|0,1:0|0:0,0:0:0:0:
336,161,3686,2,0,P|373:148|413:147,1,80,2|0,3:0|0:0,0:0:0:0:
477,101,4097,1,0,1:0:0:0:
319,240,4508,1,2,3:0:0:0:
317,51,4782,1,0,0:0:0:0:
317,51,4919,2,0,P|336:56|354:63,1,40,2|0,1:0|0:0,0:0:0:0:
429,29,5193,2,0,P|448:23|466:16,1,40,2|2,3:0|1:0,0:0:0:0:
477,101,5467,6,0,L|463:229,1,120.000004577637,0|2,0:0|0:0,0:0:0:0:
512,295,5878,2,0,P|449:262|361:331,1,180.000006866455,0|2,3:0|0:0,0:0:0:0:
148,289,6563,2,0,P|185:297|260:247,1,120.000004577637,0|2,0:0|0:0,0:0:0:0:
169,94,6974,2,0,L|182:213,1,120.000004577637,2|0,3:0|0:0,0:0:0:0:
148,289,7385,1,2,0:0:0:0:
1,186,7659,6,0,P|46:178|111:243,1,120.000004577637,0|0,0:0|1:0,0:0:0:0:
33,256,8070,1,0,3:0:0:0:
169,94,8344,2,0,B|234:86|218:122|292:110,1,120.000004577637,2|0,3:0|0:0,0:0:0:0:
184,173,8755,6,0,P|189:203|190:232,1,60.0000022888184,2|0,1:0|3:0,0:0:0:0:
88,110,9029,2,0,P|89:80|94:50,1,60.0000022888184,0|0,0:0|0:0,0:0:0:0:
169,94,9303,1,0,3:0:0:0:
134,291,9577,2,0,L|70:302,1,60.0000022888184,2|0,3:0|0:0,0:0:0:0:
21,238,9851,5,2,1:0:0:0:
91,190,9988,1,2,0:0:0:0:
174,183,10125,1,2,0:0:0:0:
250,219,10262,1,2,3:0:0:0:
298,288,10399,2,0,L|310:143,1,120.000004577637,2|0,0:0|0:0,0:0:0:0:
253,48,10810,6,0,P|245:78|252:123,1,60.0000022888184,2|0,3:0|0:0,0:0:0:0:
381,121,11084,2,0,P|389:91|382:46,1,60.0000022888184,2|0,1:0|0:0,0:0:0:0:
226,187,11357,1,2,3:0:0:0:
226,187,11494,2,0,B|163:181|175:222|101:214,1,120.000004577637,0|0,0:0|1:0,0:0:0:0:
121,133,11905,1,8,0:0:0:0:
277,254,12042,6,0,L|422:238,1,120.000004577637,8|6,0:0|3:0,0:0:0:0:
436,168,12453,1,6,3:0:0:0:
328,326,12727,2,0,P|259:340|203:299,1,143.999995605469,6|0,2:0|0:0,0:0:0:0:
277,254,13139,6,0,B|315:191|273:132|273:132|269:168,1,160,6|8,1:0|0:0,0:0:0:0:
198,214,13547,2,0,B|162:149|90:156|90:156|119:177,1,160,6|8,3:0|0:0,0:0:0:0:
204,300,13956,1,8,0:0:0:0:
123,262,14093,2,0,B|49:260|19:326|19:326|52:311,1,160,6|8,1:0|0:0,0:0:0:0:
45,313,14502,1,4,3:0:0:0:
198,214,14638,1,4,3:0:0:0:
43,125,14774,6,0,P|28:162|31:201,1,80,10|0,0:0|0:0,0:0:0:0:
192,376,15047,2,0,P|206:338|203:299,1,80,10|0,0:0|0:0,0:0:0:0:
114,174,15320,6,0,P|170:182|249:87,1,160,6|8,1:0|0:0,0:0:0:0:
162,107,15729,2,0,P|183:159|304:180,1,160,6|10,1:0|0:0,0:0:0:0:
325,129,16138,1,8,0:0:0:0:
244,118,16274,2,0,P|209:162|251:278,1,160,6|8,1:0|0:0,0:0:0:0:
306,293,16683,2,0,L|411:277,1,80,6|4,3:0|3:0,0:0:0:0:
455,133,16956,5,10,0:0:0:0:
319,165,17092,1,2,1:0:0:0:
457,171,17228,5,10,0:0:0:0:
325,129,17365,1,2,1:0:0:0:
458,276,17501,6,0,B|377:253|394:321|302:292,1,160,6|8,1:0|0:0,0:0:0:0:
403,75,17912,2,0,B|342:133|409:152|338:218,1,160,6|10,3:0|0:0,0:0:0:0:
208,156,18324,1,8,0:0:0:0:
201,22,18461,2,0,B|221:103|271:54|292:149,1,160,6|8,1:0|0:0,0:0:0:0:
285,8,18873,5,10,0:0:0:0:
146,95,19010,1,8,0:0:0:0:
292,145,19147,2,0,L|382:133,1,80,4|0,3:0|0:0,0:0:0:0:
127,91,19422,2,0,L|37:103,1,80,4|0,3:0|0:0,0:0:0:0:
284,233,19696,6,0,B|418:213|418:213|415:235|377:233,1,176.000005371094,14|4,0:0|3:0,0:0:0:0:
213,286,20108,2,0,P|194:246|197:203,1,88.000002685547,14|0,0:0|0:0,0:0:0:0:
355,51,20382,2,0,P|373:90|370:133,1,88.000002685547,6|0,3:0|0:0,0:0:0:0:
169,45,20657,5,14,0:0:0:0:
169,45,20931,1,8,3:0:0:0:
83,37,21069,1,0,1:0:0:0:
183,127,21206,1,0,1:0:0:0:
244,5,21343,5,14,0:0:0:0:
244,5,21480,1,10,0:0:0:0:
98,120,21892,6,0,L|85:253,1,120.000004577637,2|2,1:0|1:0,0:0:0:0:
132,306,22302,1,2,0:0:0:0:
202,265,22439,2,0,L|192:194,1,60.0000022888184,0|0,1:0|0:0,0:0:0:0:
255,149,22713,2,0,L|265:78,1,60.0000022888184,2|2,1:0|3:0,0:0:0:0:
361,47,22987,6,0,L|378:169,1,120.000004577637,0|2,1:0|1:0,0:0:0:0:
421,234,23398,1,2,0:0:0:0:
498,260,23535,2,0,L|505:175,1,60.0000022888184,0|0,1:0|0:0,0:0:0:0:
362,291,23809,2,0,L|366:350,1,60.0000022888184,2|2,1:0|3:0,0:0:0:0:
377,165,24083,6,0,P|311:157|249:142,1,120.000004577637,0|2,1:0|1:0,0:0:0:0:
188,188,24494,2,0,P|154:194|119:204,1,60.0000022888184,2|0,0:0|1:0,0:0:0:0:
59,160,24768,2,0,P|29:152|0:147,1,60.0000022888184,2|0,0:0|1:0,0:0:0:0:
120,101,25042,1,0,3:0:0:0:
14,231,25179,6,0,P|19:264|23:299,2,60.0000022888184,2|0|0,1:0|0:0|1:0,0:0:0:0:
116,235,25590,1,0,0:0:0:0:
116,235,25727,2,0,P|110:264|102:293,1,60.0000022888184,4|4,3:0|3:0,0:0:0:0:
62,363,26001,1,10,0:0:0:0:
59,160,26138,1,8,0:0:0:0:
199,273,26275,6,0,P|235:282|325:238,1,120.000004577637,2|2,1:0|1:0,0:0:0:0:
389,285,26686,2,0,P|410:252|416:212,1,60.0000022888184,2|0,0:0|1:0,0:0:0:0:
491,202,26960,2,0,P|494:172|486:143,1,60.0000022888184,2|0,0:0|1:0,0:0:0:0:
400,15,27234,1,2,3:0:0:0:
508,65,27371,6,0,L|431:75,1,60.0000022888184,0|0,1:0|0:0,0:0:0:0:
284,99,27645,2,0,P|271:72|267:42,1,60.0000022888184,2|0,1:0|0:0,0:0:0:0:
343,162,27919,2,0,P|360:134|370:92,1,60.0000022888184,2|0,1:0|0:0,0:0:0:0:
271,205,28193,2,0,P|286:232|296:260,1,60.0000022888184,2|0,1:0|3:0,0:0:0:0:
214,265,28467,6,0,P|173:250|85:247,1,120.000004577637,2|2,1:0|1:0,0:0:0:0:
83,328,28878,2,0,P|113:323|143:324,1,60.0000022888184,2|0,3:0|1:0,0:0:0:0:
156,168,29152,2,0,P|126:164|97:156,2,60.0000022888184,2|0|0,3:0|1:0|3:0,0:0:0:0:
317,142,29563,5,6,3:0:0:0:
317,142,29700,1,0,0:0:0:0:
246,242,29837,1,8,0:0:0:0:
221,60,29973,1,8,0:0:0:0:
221,60,30042,1,8,0:0:0:0:
221,60,30111,6,0,L|285:73,1,60.0000022888184,8|0,0:0|1:0,0:0:0:0:
457,141,30385,2,0,L|393:154,1,60.0000022888184,6|10,3:0|0:0,0:0:0:0:
246,242,30659,6,0,B|320:230|304:274|388:263,1,143.999995605469,6|10,3:0|0:0,0:0:0:0:
269,323,31070,2,0,P|218:323|133:360,1,143.999995605469,2|0,1:0|0:0,0:0:0:0:
63,209,31481,1,2,0:0:0:0:
12,291,31618,6,0,P|63:291|148:254,1,143.999995605469,10|0,0:0|1:0,0:0:0:0:
234,115,32028,1,10,0:0:0:0:
213,197,32165,2,0,P|179:177|151:136,1,71.9999978027344,2|0,0:0|0:0,0:0:0:0:
204,38,32439,1,0,1:0:0:0:
301,160,32576,2,0,P|313:126|314:91,1,71.9999978027344,10|0,0:0|3:0,0:0:0:0:
90,109,32850,6,0,L|234:115,1,143.999995605469,6|10,3:0|0:0,0:0:0:0:
113,190,33261,2,0,P|74:186|31:186,1,71.9999978027344,2|0,1:0|0:0,0:0:0:0:
51,23,33535,2,0,P|86:26|122:27,1,71.9999978027344,2|0,0:0|0:0,0:0:0:0:
195,191,33809,1,8,0:0:0:0:
195,191,33946,6,0,L|203:262,1,71.9999978027344,6|0,3:0|0:0,0:0:0:0:
127,346,34220,2,0,L|118:274,1,71.9999978027344,8|0,0:0|0:0,0:0:0:0:
287,215,34494,1,4,3:0:0:0:
210,348,34631,1,4,3:0:0:0:
123,185,34768,2,0,L|194:190,1,71.9999978027344,10|0,0:0|0:0,0:0:0:0:
296,305,35042,5,6,3:0:0:0:
296,305,35179,1,2,0:0:0:0:
210,348,35316,1,10,0:0:0:0:
287,215,35453,1,2,1:0:0:0:
383,335,35590,2,0,P|424:347|496:281,1,143.999995605469,2|10,1:0|0:0,0:0:0:0:
360,61,36001,6,0,P|332:108|333:148,1,71.9999978027344,2|4,0:0|3:0,0:0:0:0:
412,123,36275,2,0,P|425:176|454:203,1,71.9999978027344,2|8,0:0|0:0,0:0:0:0:
492,133,36549,1,2,1:0:0:0:
373,240,36686,2,0,P|340:252|304:250,1,71.9999978027344,0|0,0:0|1:0,0:0:0:0:
275,60,36960,2,0,P|308:47|344:49,1,71.9999978027344,10|0,0:0|0:0,0:0:0:0:
389,141,37234,6,0,L|302:155,1,71.9999978027344,10|8,0:0|0:0,0:0:0:0:
212,115,37508,1,6,3:0:0:0:
231,215,37645,2,0,P|174:212|116:153,1,143.999995605469,2|10,1:0|0:0,0:0:0:0:
219,45,38056,2,0,P|221:81|212:116,1,71.9999978027344,4|0,3:0|1:0,0:0:0:0:
65,251,38330,5,6,3:0:0:0:
138,73,38604,1,6,3:0:0:0:
95,244,38878,5,2,1:0:0:0:
212,116,39152,1,2,1:0:0:0:
126,244,39426,5,10,3:0:0:0:
268,179,39700,1,0,0:0:0:0:
246,258,39837,2,0,P|196:208|198:138,1,143.999995605469,6|0,3:0|0:0,0:0:0:0:
256,82,40248,2,0,L|350:95,1,71.9999978027344,10|0,3:0|0:0,0:0:0:0:
448,39,40522,5,2,1:0:0:0:
491,224,40796,1,2,1:0:0:0:
435,73,41070,5,0,1:0:0:0:
408,253,41344,1,4,3:0:0:0:
412,96,41618,5,0,1:0:0:0:
357,167,41755,2,0,P|324:189|268:196,1,71.9999978027344,8|0,0:0|1:0,0:0:0:0:
232,69,42028,2,0,P|267:86|301:131,1,71.9999978027344,8|4,0:0|3:0,0:0:0:0:
210,227,42302,1,4,3:0:0:0:
210,227,42439,2,0,P|207:187|229:135,1,71.9999978027344,2|0,1:0|1:0,0:0:0:0:
350,46,42713,6,0,P|383:50|444:55,1,71.9999978027344,6|2,1:0|0:0,0:0:0:0:
404,215,42987,2,0,P|370:210|310:206,1,71.9999978027344,8|2,0:0|0:0,0:0:0:0:
358,128,43261,2,0,L|514:146,1,143.999995605469,2|2,1:0|0:0,0:0:0:0:
361,289,43672,6,0,L|205:307,1,143.999995605469,10|0,0:0|0:0,0:0:0:0:
144,345,44083,1,10,0:0:0:0:
48,176,44357,2,0,L|126:165,1,71.9999978027344
144,345,44631,2,0,L|66:356,1,71.9999978027344,10|0,0:0|1:0,0:0:0:0:
210,226,44905,6,0,B|125:223|149:275|36:272,1,160,6|8,1:0|0:0,0:0:0:0:
266,299,45316,2,0,P|292:264|260:147,1,160,0|0,1:0|1:0,0:0:0:0:
210,226,45727,1,2,0:0:0:0:
210,226,45864,1,8,0:0:0:0:
365,154,46001,6,0,P|366:113|356:37,1,80,2|0,1:0|1:0,0:0:0:0:
340,240,46275,1,8,0:0:0:0:
442,205,46412,2,0,P|449:177|459:122,1,80,2|8,1:0|0:0,0:0:0:0:
485,286,46686,2,0,P|515:247|533:213,2,80,2|4|4,1:0|3:0|3:0,0:0:0:0:
399,284,47097,6,0,B|341:271|341:271|218:293,1,160,6|8,1:0|0:0,0:0:0:0:
135,126,47508,2,0,B|193:139|193:139|316:117,1,160,4|8,1:0|0:0,0:0:0:0:
318,197,47919,2,0,L|209:216,1,80,4|0,1:0|0:0,0:0:0:0:
216,93,48193,1,8,0:0:0:0:
400,188,48330,5,6,0:0:0:0:
400,188,48741,2,0,P|431:231|420:315,1,120,12|4,0:0|0:0,0:0:0:0:
365,114,49015,2,0,P|424:114|471:149,1,120,12|0,0:0|0:0,0:0:0:0:
361,258,49289,6,0,B|284:242|289:304|191:279,1,160,4|10,3:0|0:0,0:0:0:0:
74,142,49837,1,2,1:2:0:0:
219,164,49974,1,0,1:0:0:0:
148,22,50111,2,0,P|142:61|153:100,1,80,10|0,0:2|0:0,0:0:0:0:
299,199,50385,6,0,P|304:159|294:121,2,80,6|0|8,3:0|0:0|0:0,0:0:0:0:
398,314,50796,2,0,P|353:295|253:352,1,160,2|0,1:0|1:0,0:0:0:0:
338,375,51207,1,10,0:0:0:0:
338,375,51344,1,2,3:0:0:0:
226,254,51481,6,0,L|146:261,1,80,6|0,3:0|0:0,0:0:0:0:
253,170,51755,2,0,L|173:177,1,80,10|0,0:0|1:0,0:0:0:0:
372,291,52028,2,0,L|292:298,1,80,2|0,0:0|1:0,0:0:0:0:
399,207,52302,2,0,L|319:214,1,80,10|0,0:0|0:0,0:0:0:0:
246,79,52576,6,0,P|300:92|401:21,1,160,6|8,3:0|0:0,0:0:0:0:
253,170,52987,2,0,P|199:183|98:112,1,160,6|0,3:0|1:0,0:0:0:0:
164,68,53398,1,8,0:0:0:0:
262,259,53672,5,4,3:0:0:0:
262,259,53946,2,0,P|228:280|168:288,1,80,10|0,0:0|0:0,0:0:0:0:
344,268,54220,2,0,P|342:228|365:172,1,80,2|0,1:0|1:0,0:0:0:0:
295,334,54494,2,0,P|330:352|367:400,1,80,10|0,0:0|0:0,0:0:0:0:
197,203,54768,6,0,P|193:142|253:55,1,160,6|10,3:0|0:0,0:0:0:0:
356,142,55179,2,0,L|276:153,1,80,6|0,3:0|0:0,0:0:0:0:
277,269,55453,1,0,1:0:0:0:
277,269,55590,2,0,L|356:280,1,80,10|0,0:0|0:0,0:0:0:0:
407,212,55864,5,6,3:0:0:0:
197,290,56138,1,10,0:0:0:0:
197,290,56275,1,0,1:0:0:0:
284,190,56412,2,0,P|286:230|277:269,1,80,2|0,0:0|1:0,0:0:0:0:
138,176,56686,2,0,P|136:136|145:97,1,80,10|0,0:0|3:0,0:0:0:0:
250,46,56960,6,0,B|333:31|322:93|429:66,1,160,6|8,3:0|0:0,0:0:0:0:
469,237,57371,1,2,1:0:0:0:
495,151,57508,2,0,B|412:136|423:198|316:171,1,160,6|8,3:0|0:0,0:0:0:0:
187,136,57919,1,8,0:0:0:0:
259,224,58056,6,0,L|270:121,1,80,4|0,3:0|0:0,0:0:0:0:
183,303,58330,2,0,L|172:200,1,80,10|0,0:0|0:0,0:0:0:0:
102,135,58604,2,0,L|91:238,1,80,2|0,1:0|1:0,0:0:0:0:
178,56,58878,2,0,L|189:159,1,80,10|0,0:0|0:0,0:0:0:0:
301,238,59152,6,0,B|256:187|269:122|269:122|293:156,1,160,6|10,3:0|0:0,0:0:0:0:
385,267,59563,2,0,B|363:331|300:352|300:352|317:314,1,160,6|0,3:0|1:0,0:0:0:0:
372,179,59974,2,0,L|480:173,1,80,10|0,0:0|0:0,0:0:0:0:
235,294,60248,6,0,B|170:297|170:297|143:287|143:287|68:289,1,160,6|10,3:0|0:0,0:0:0:0:
112,104,60659,1,0,0:0:0:0:
197,135,60796,2,0,L|190:214,1,80,2|0,1:0|1:0,0:0:0:0:
76,288,61070,2,0,L|69:209,1,80,10|0,0:0|0:0,0:0:0:0:
272,194,61344,6,0,B|354:184|335:239|443:225,1,160,6|8,3:0|0:0,0:0:0:0:
500,59,61755,2,0,P|424:70|395:141,1,160,6|0,3:0|1:0,0:0:0:0:
487,285,62165,2,0,P|503:244|498:185,1,80,8|0,0:0|0:0,0:0:0:0:
341,44,62439,5,4,3:0:0:0:
341,44,62713,2,0,L|256:57,1,80,10|0,0:0|0:0,0:0:0:0:
179,21,62987,1,2,1:0:0:0:
224,169,63124,1,0,1:0:0:0:
64,140,63261,2,0,L|143:127,1,80,10|0,0:0|0:0,0:0:0:0:
290,229,63535,6,0,P|242:256|139:202,1,160,6|8,3:0|0:0,0:0:0:0:
302,52,63946,2,0,P|301:107|203:169,1,160,6|0,3:0|1:0,0:0:0:0:
0,138,64357,6,0,B|124:159|102:60|225:80,1,240,14|0,0:0|0:0,0:0:0:0:
370,155,64905,2,0,P|388:212|388:256,1,80,8|0,0:0|0:0,0:0:0:0:
244,280,65179,2,0,P|223:246|216:208,1,80,8|0,0:0|0:0,0:0:0:0:
305,218,65453,1,2,1:0:0:0:
200,104,65590,1,2,1:0:0:0:
360,69,65727,6,0,L|453:54,1,80,14|8,0:0|3:0,0:0:0:0:
268,43,66001,1,6,3:0:0:0:
415,139,66138,2,0,P|430:179|433:223,1,80,2|0,3:0|0:0,0:0:0:0:
249,119,66412,2,0,P|253:79|267:42,1,80,10|4,0:0|3:0,0:0:0:0:
350,204,66686,5,2,1:0:0:0:
169,88,66823,2,0,L|178:168,1,80,14|8,0:0|0:0,0:0:0:0:
344,80,67097,1,8,0:0:0:0:
251,4,67234,6,0,L|269:162,1,160,6|0,3:0|0:0,0:0:0:0:
290,301,67645,1,4,3:0:0:0:
375,253,67782,1,8,0:0:0:0:
375,253,67850,1,8,0:0:0:0:
375,253,67919,6,0,P|369:221|364:184,1,60.0000022888184,8|8,0:0|0:0,0:0:0:0:
193,226,68185,2,0,P|198:257|203:294,1,60.0000022888184,8|8,0:0|0:0,0:0:0:0:
299,140,68452,2,0,P|267:145|230:150,1,60.0000022888184,8|8,0:0|0:0,0:0:0:0:
89,111,68719,5,6,1:0:0:0:
202,285,68996,1,0,0:0:0:0:
284,234,69135,1,6,1:0:0:0:
76,207,69413,1,0,0:0:0:0:
89,111,69552,1,6,1:0:0:0:
115,284,69830,5,0,0:0:0:0:
159,212,69971,2,0,P|202:201|285:287,1,160,6|12,1:0|3:0,0:0:0:0:
194,364,70396,2,0,L|201:284,1,80,8|8,0:0|0:0,0:0:0:0:
346,204,70666,1,10,0:0:0:0:
283,269,70801,6,0,P|240:280|157:194,1,160,6|0,1:0|0:0,0:0:0:0:
234,113,71206,2,0,P|240:153|241:193,1,80,8|0,0:0|0:0,0:0:0:0:
362,312,71477,2,0,P|362:272|368:231,1,80,8|0,0:0|0:0,0:0:0:0:
322,155,71751,1,6,3:0:0:0:
203,279,71888,6,0,L|288:268,1,80,6|0,1:0|0:0,0:0:0:0:
406,155,72163,1,8,0:0:0:0:
311,75,72300,2,0,P|317:114|321:154,1,80,10|6,0:0|3:0,0:0:0:0:
496,264,72575,1,8,3:0:0:0:
485,184,72712,1,2,3:0:0:0:
474,104,72849,2,0,P|468:68|463:24,1,80,0|0,3:0|3:0,0:0:0:0:
406,155,73124,6,0,B|325:138|331:199|237:179,1,160,6|0,1:0|0:0,0:0:0:0:
125,241,73534,2,0,B|206:224|200:285|294:265,1,160,6|0,1:0|0:0,0:0:0:0:
279,99,73945,1,6,1:0:0:0:
411,210,74219,5,0,0:0:0:0:
460,129,74356,2,0,P|410:122|318:195,1,160,6|6,1:0|3:0,0:0:0:0:
293,283,74767,1,8,0:0:0:0:
318,364,74904,1,10,0:0:0:0:
376,302,75041,1,8,0:0:0:0:
235,345,75178,6,0,L|91:330,1,128,4|0,1:0|0:0,0:0:0:0:
28,348,75589,2,0,P|24:308|10:267,1,64,8|0,0:0|0:0,0:0:0:0:
80,227,75863,2,0,P|84:187|98:146,1,64,8|0,0:0|0:0,0:0:0:0:
31,106,76137,1,4,3:0:0:0:
165,202,76274,6,0,L|323:187,1,128,4|8,1:0|0:0,0:0:0:0:
402,102,76685,1,8,0:0:0:0:
423,240,76822,1,8,0:0:0:0:
371,177,76959,2,0,L|362:91,1,64,4|4,3:0|3:0,0:0:0:0:
474,24,77233,2,0,L|480:87,1,64,0|0,1:0|1:0,0:0:0:0:
285,159,77507,5,4,3:0:0:0:
285,159,77644,2,0,P|249:109|159:108,1,128,8|0,0:0|1:0,0:0:0:0:
104,240,78055,2,0,P|140:190|230:189,1,128,8|0,0:0|1:0,0:0:0:0:
189,321,78466,2,0,P|183:290|184:258,1,64,8|8,0:0|0:0,0:0:0:0:
271,299,78740,2,0,P|272:330|265:362,1,64,0|0,1:0|0:0,0:0:0:0:
202,178,79014,1,8,0:0:0:0:
338,206,79151,2,0,L|275:217,1,64,8|0,0:0|3:0,0:0:0:0:
134,85,79425,2,0,L|196:96,1,64,4|0,3:0|1:0,0:0:0:0:
398,111,79699,6,0,L|258:137,1,128,4|0,1:0|0:0,0:0:0:0:
428,32,80110,1,0,0:0:0:0:
428,32,80247,2,0,P|471:68|473:154,1,128,8|0,0:0|1:0,0:0:0:0:
382,261,80658,1,8,0:0:0:0:
382,261,80795,6,0,L|387:181,1,64,8|8,0:0|0:0,0:0:0:0:
462,315,81069,2,0,L|467:235,1,64,4|4,3:0|3:0,0:0:0:0:
295,274,81343,1,0,1:0:0:0:
391,366,81480,2,0,B|346:343|346:343|244:366,1,143.999995605469,0|8,3:0|0:0,0:0:0:0:
102,330,81891,5,4,3:0:0:0:
102,330,82028,1,8,0:0:0:0:
191,237,82165,2,0,P|192:277|187:309,1,71.9999978027344,8|8,0:0|0:0,0:0:0:0:
237,132,82439,2,0,P|255:167|263:198,1,71.9999978027344,8|8,0:0|0:0,0:0:0:0:
234,17,82713,6,0,P|265:41|286:66,1,71.9999978027344,8|8,0:0|0:0,0:0:0:0:
107,115,82987,2,0,P|112:75|123:44,1,71.9999978027344,8|8,0:0|0:0,0:0:0:0:
256,176,83260,2,0,P|218:190|187:196,1,71.9999978027344,8|8,0:0|0:0,0:0:0:0:
200,100,83534,6,0,B|308:124|280:24|404:56,1,215.999993408203,8|8,0:0|0:0,0:0:0:0:
481,206,84082,6,0,P|403:199|360:136,1,160,4|8,1:0|0:0,0:0:0:0:
448,128,84493,1,8,0:0:0:0:
333,251,84630,2,0,P|275:264|232:248,1,80,8|8,0:0|0:0,0:0:0:0:
284,187,84904,1,8,0:0:0:0:
404,292,85041,2,0,P|365:323|316:328,1,80,4|0,1:0|0:0,0:0:0:0:
284,187,85315,5,8,0:0:0:0:
485,257,85452,1,8,0:0:0:0:
492,237,85726,5,8,0:0:0:0:
292,334,85863,1,8,0:0:0:0:
280,316,86137,6,0,L|450:343,1,160,6|0,3:0|0:0,0:0:0:0:
493,174,86548,2,0,P|425:179|369:261,1,160,10|2,0:0|1:0,0:0:0:0:
458,257,86959,1,0,0:0:0:0:
394,102,87096,2,0,P|384:63|382:13,1,80,10|6,0:0|3:0,0:0:0:0:
473,7,87370,6,0,P|482:45|485:96,1,80,0|0,0:0|0:0,0:0:0:0:
302,57,87644,2,0,L|201:49,1,80,10|0,0:0|0:0,0:0:0:0:
364,184,87918,2,0,L|465:176,1,80,2|0,1:0|0:0,0:0:0:0:
394,102,88192,1,10,0:0:0:0:
500,256,88329,6,0,B|420:240|436:315|333:288,1,160,6|0,3:0|0:0,0:0:0:0:
284,235,88740,2,0,L|273:132,1,80,10|0,0:0|0:0,0:0:0:0:
118,245,89014,2,0,L|129:348,1,80,2|0,1:0|1:0,0:0:0:0:
197,209,89288,1,10,0:0:0:0:
41,291,89425,6,0,P|19:242|70:140,1,160,2|0,0:0|0:0,0:0:0:0:
284,235,89836,2,0,P|306:284|255:386,1,160,10|6,0:0|3:0,0:0:0:0:
118,245,90247,2,0,P|128:203|167:164,1,80,6|10,3:0|0:0,0:0:0:0:
200,276,90521,6,0,B|117:261|132:334|30:311,1,160,6|0,3:0|1:0,0:0:0:0:
233,192,90932,2,0,P|269:219|259:343,2,160,8|0|10,0:0|1:0|0:0,0:0:0:0:
200,276,91617,1,0,0:0:0:0:
359,335,91754,6,0,L|446:327,1,80,6|0,3:0|0:0,0:0:0:0:
442,166,92028,2,0,L|362:158,1,80,10|2,0:0|0:0,0:0:0:0:
402,246,92302,1,8,3:0:0:0:
507,100,92439,2,0,L|425:76,1,80,2|8,0:0|0:0,0:0:0:0:
289,167,92713,6,0,B|346:143|346:143|460:170,1,160,6|0,3:0|1:0,0:0:0:0:
283,80,93124,2,0,P|277:41|275:-10,1,80,10|0,0:0|0:0,0:0:0:0:
205,177,93397,1,2,1:0:0:0:
205,177,93534,2,0,P|199:215|197:267,1,80,2|10,1:0|0:0,0:0:0:0:
199,88,93808,1,0,0:0:0:0:
367,208,93945,6,0,L|287:214,1,80,2|2,1:0|1:0,0:0:0:0:
165,340,94219,2,0,L|244:333,1,80,10|0,0:0|0:0,0:0:0:0:
205,177,94493,2,0,L|125:183,1,80,10|0,0:0|0:0,0:0:0:0:
71,250,94767,1,10,0:0:0:0:
199,88,94904,6,0,B|281:73|265:130|371:110,1,160,6|0,3:0|0:0,0:0:0:0:
439,108,95315,2,0,P|428:70|404:39,1,80,10|0,0:0|0:0,0:0:0:0:
486,228,95589,2,0,P|504:192|509:153,1,80,2|0,1:0|0:0,0:0:0:0:
434,345,95863,6,0,P|472:333|503:309,1,80,10|0,0:0|1:0,0:0:0:0:
342,205,96137,2,0,P|333:243|338:283,1,80,2|0,1:0|0:0,0:0:0:0:
430,250,96411,1,10,0:0:0:0:
454,68,96548,2,0,P|408:75|373:98,1,80,2|4,0:0|3:0,0:0:0:0:
509,195,96822,2,0,P|479:167|443:152,1,80,6|8,3:0|0:0,0:0:0:0:
232,196,97096,6,0,P|272:195|337:292,1,160,6|0,3:0|1:0,0:0:0:0:
254,277,97507,1,8,0:0:0:0:
331,131,97644,2,0,L|315:45,2,80,0|0|0,0:0|1:0|1:0,0:0:0:0:
398,186,98055,1,8,0:0:0:0:
398,186,98329,6,0,B|418:142|418:142|396:20,1,160,6|10,3:0|0:0,0:0:0:0:
235,94,98740,1,0,0:0:0:0:
235,94,98877,2,0,L|249:172,1,80,10|10,0:0|0:0,0:0:0:0:
240,336,99151,1,10,0:0:0:0:
373,222,99288,6,0,B|294:208|305:267|209:251,1,160,6|0,3:0|1:0,0:0:0:0:
70,183,99699,2,0,P|121:202|154:234,1,80,10|0,0:0|0:0,0:0:0:0:
74,349,99973,1,2,1:0:0:0:
74,349,100110,2,0,P|23:330|-10:298,1,80,2|10,1:0|0:0,0:0:0:0:
191,139,100384,6,0,P|219:186|190:298,1,160,6|0,3:0|0:0,0:0:0:0:
70,183,100795,2,0,L|80:71,1,80,10|0,0:0|0:0,0:0:0:0:
121,252,101069,1,6,3:0:0:0:
121,252,101206,2,0,P|83:267|30:265,1,80,6|10,3:0|0:0,0:0:0:0:
191,139,101480,6,0,B|272:124|252:196|360:170,1,160,6|0,3:0|1:0,0:0:0:0:
206,302,101891,2,0,L|210:200,1,80,10|0,0:0|0:0,0:0:0:0:
121,188,102165,1,10,0:0:0:0:
63,320,102302,2,0,L|41:220,1,80,0|2,0:0|0:0,0:0:0:0:
275,344,102576,6,0,P|214:384|134:344,1,160,6|8,3:0|0:0,0:0:0:0:
89,285,102987,1,10,0:0:0:0:
94,204,103124,1,8,3:0:0:0:
99,123,103260,5,10,3:0:0:0:
16,240,103397,1,8,3:0:0:0:
162,250,103534,2,0,P|205:248|240:237,1,80,2|2,1:0|1:0,0:0:0:0:
252,60,103808,6,0,B|184:90|193:166|193:166|221:123,1,160,6|8,1:0|0:0,0:0:0:0:
398,108,104219,2,0,B|328:81|281:141|281:141|331:131,1,160,6|8,1:0|0:0,0:0:0:0:
467,245,104630,2,0,B|436:177|360:186|360:186|403:214,1,160,6|8,1:0|0:0,0:0:0:0:
481,136,105041,6,0,L|484:50,1,80,6|0,1:0|0:0,0:0:0:0:
326,262,105315,1,8,0:0:0:0:
326,262,105452,2,0,L|328:341,1,80,10|8,0:0|0:0,0:0:0:0:
398,108,105726,2,0,P|352:103|314:98,1,80,10|8,0:0|0:0,0:0:0:0:
210,336,106000,6,0,P|285:328|325:262,1,160,10|0,0:0|1:0,0:0:0:0:
141,167,106411,2,0,P|168:238|242:258,1,160,10|0,0:0|1:0,0:0:0:0:
287,55,106822,2,0,P|224:99|224:177,1,160,10|0,0:0|1:0,0:0:0:0:
338,133,107233,2,0,L|298:136,2,40,10|8|10,0:0|0:0|0:0,0:0:0:0:
473,120,107507,1,10,0:0:0:0:
399,49,107644,5,10,0:0:0:0:
413,216,107781,1,10,0:0:0:0:
105,15,116959,5,2,1:0:0:0:
133,95,117507,1,0,3:0:0:0:
131,178,118055,1,0,0:0:0:0:
131,178,118192,1,0,1:0:0:0:
100,255,118603,1,0,3:0:0:0:
44,316,119151,5,2,1:0:0:0:
131,269,119699,1,0,3:0:0:0:
228,262,120247,1,2,0:0:0:0:
228,262,120384,1,0,1:0:0:0:
319,298,120795,1,10,0:0:0:0:
387,368,121343,5,2,1:0:0:0:
228,262,121891,1,2,3:0:0:0:
399,177,122439,1,0,0:0:0:0:
399,177,122576,1,2,1:0:0:0:
336,268,122850,1,2,0:0:0:0:
228,262,123124,1,0,0:0:0:0:
228,262,123260,2,0,L|152:256,1,60.0000022888184,2|10,0:0|0:0,0:0:0:0:
0,176,123534,5,8,0:0:0:0:
96,344,123671,1,8,0:0:0:0:
140,164,123808,1,0,1:0:0:0:
0,256,123945,2,0,L|79:262,1,80,4|0,3:0|0:0,0:0:0:0:
224,120,124219,2,0,L|60:108,1,160,8|0,3:0|0:0,0:0:0:0:
284,53,124630,6,0,P|312:93|312:137,1,80,12|0,0:0|0:0,0:0:0:0:
310,281,124904,1,0,1:0:0:0:
403,142,125041,6,0,P|382:186|344:208,1,80,12|0,0:0|0:0,0:0:0:0:
219,279,125315,1,0,1:0:0:0:
386,290,125452,6,0,P|337:294|299:272,1,80,12|0,0:0|0:0,0:0:0:0:
175,200,125726,1,0,1:0:0:0:
250,350,125863,6,0,P|222:310|222:266,1,80,12|0,0:0|0:0,0:0:0:0:
224,120,126137,1,0,0:0:0:0:
331,191,126274,6,0,B|239:164|265:224|147:192,1,160,8|8,0:0|0:0,0:0:0:0:
256,40,126685,1,4,1:0:0:0:
256,192,126822,12,0,128329,1:0:0:0:
260,100,128466,5,8,0:0:0:0:
344,204,128603,2,0,P|392:188|384:64,1,160,8|0,0:0|0:0,0:0:0:0:
346,128,128945,1,0,0:0:0:0:
346,128,129014,6,0,B|225:107|246:211|112:181,1,240.000009155274,4|0,1:0|0:0,0:0:0:0:
116,6,130110,2,0,P|158:45|155:112,2,120,4|0|0,1:0|0:0|0:0,0:0:0:0:
81,82,131206,5,4,1:0:0:0:
244,40,131480,1,0,0:0:0:0:
184,212,131754,1,0,0:0:0:0:
347,170,132028,1,0,0:0:0:0:
252,128,132302,6,0,L|276:220,1,71.9999978027344,8|0,0:0|0:0,0:0:0:0:
245,312,132576,1,0,0:0:0:0:
452,264,132713,2,0,B|404:244|404:244|292:272,1,143.999995605469,8|0,0:0|0:0,0:0:0:0:
347,170,133124,2,0,L|420:154,1,71.9999978027344,8|0,0:0|0:0,0:0:0:0:
398,332,133397,6,0,L|317:352,1,80,4|0,3:0|0:0,0:0:0:0:
253,119,133671,2,0,L|269:197,1,80,10|0,0:0|0:0,0:0:0:0:
134,253,133945,2,0,B|224:232|202:298|293:279,1,160,2|10,1:0|0:0,0:0:0:0:
344,98,134356,1,0,0:0:0:0:
262,33,134493,6,0,P|222:38|189:59,1,80,6|0,3:0|0:0,0:0:0:0:
299,214,134767,1,10,0:0:0:0:
386,181,134904,2,0,P|330:125|252:118,1,160,6|0,3:0|1:0,0:0:0:0:
333,285,135315,2,0,P|323:247|300:215,1,80,10|0,0:0|0:0,0:0:0:0:
85,273,135589,6,0,L|245:285,1,160,6|10,3:0|0:0,0:0:0:0:
98,115,136000,1,0,1:0:0:0:
51,192,136137,2,0,L|130:196,1,80,2|0,0:0|1:0,0:0:0:0:
254,32,136411,2,0,L|174:36,1,80,10|0,0:0|3:0,0:0:0:0:
43,77,136685,6,0,B|122:62|107:134|202:116,1,160,6|8,3:0|0:0,0:0:0:0:
353,69,137096,1,2,1:0:0:0:
287,125,137233,2,0,P|270:73|287:16,1,80,6|0,3:0|1:0,0:0:0:0:
419,15,137507,2,0,P|436:67|419:124,1,80,8|8,0:0|0:0,0:0:0:0:
387,225,137781,5,4,3:0:0:0:
387,225,138055,2,0,L|353:69,1,160,10|2,0:0|1:0,0:0:0:0:
301,206,138466,1,0,1:0:0:0:
446,117,138603,2,0,P|448:80|457:31,1,80,10|0,0:0|0:0,0:0:0:0:
264,16,138877,6,0,P|261:52|253:102,1,80,6|0,3:0|0:0,0:0:0:0:
337,111,139151,1,10,0:0:0:0:
180,47,139288,2,0,P|124:45|68:131,1,160,6|0,3:0|1:0,0:0:0:0:
158,203,139699,2,0,P|155:166|147:117,1,80,10|0,0:0|0:0,0:0:0:0:
79,278,139973,6,0,L|173:290,1,80,6|0,3:0|0:0,0:0:0:0:
212,349,140247,2,0,L|292:339,1,80,10|0,0:0|0:0,0:0:0:0:
151,185,140521,2,0,L|231:196,1,80,2|0,1:0|1:0,0:0:0:0:
286,255,140795,2,0,L|365:244,1,80,10|0,0:0|0:0,0:0:0:0:
279,108,141069,6,0,L|110:89,1,160,6|8,3:0|0:0,0:0:0:0:
357,57,141480,1,6,3:0:0:0:
357,57,141754,1,0,1:0:0:0:
273,195,141891,2,0,P|269:219|301:287,1,80,8|0,0:0|0:0,0:0:0:0:
446,179,142165,6,0,P|450:155|418:87,1,80,4|0,3:0|0:0,0:0:0:0:
277,64,142439,2,0,L|357:57,1,80,10|0,0:0|0:0,0:0:0:0:
264,236,142713,2,0,L|341:253,1,80,2|0,1:0|1:0,0:0:0:0:
214,141,142987,1,10,0:0:0:0:
214,141,143124,1,0,0:0:0:0:
317,156,143260,6,0,L|401:167,1,80,6|0,3:0|0:0,0:0:0:0:
458,321,143534,1,8,0:0:0:0:
511,243,143671,2,0,P|446:236|365:298,1,160,6|0,3:0|1:0,0:0:0:0:
169,356,144082,6,0,B|222:371|284:334|302:274|293:237|293:237|287:269|268:287,1,240,14|0,0:0|0:0,0:0:0:0:
123,255,144630,2,0,P|159:272|199:275,1,80,8|0,0:0|0:0,0:0:0:0:
144,128,144904,2,0,P|157:165|183:195,1,80,4|8,3:0|0:0,0:0:0:0:
360,167,145178,5,8,0:0:0:0:
229,125,145315,1,8,0:0:0:0:
360,167,145452,2,0,L|384:80,1,80,4|0,3:0|0:0,0:0:0:0:
276,213,145726,5,0,1:0:0:0:
276,213,145863,2,0,L|253:295,1,80,4|0,3:0|0:0,0:0:0:0:
445,376,146137,2,0,P|420:303|347:278,1,160,4|4,3:0|3:0,0:0:0:0:
185,222,146548,6,0,P|210:148|283:123,1,160,4|10,1:0|0:0,0:0:0:0:
351,188,146959,2,0,P|315:205|276:212,1,80,2|8,0:0|0:0,0:0:0:0:
311,31,147233,2,0,P|343:54|369:84,1,80,2|0,0:0|1:0,0:0:0:0:
283,123,147507,5,6,3:0:0:0:
283,123,147781,2,0,B|202:110|214:169|106:143,1,160,10|2,0:0|1:0,0:0:0:0:
160,64,148192,1,8,0:0:0:0:
256,207,148329,2,0,P|245:272|155:305,1,160,2|0,0:0|0:0,0:0:0:0:
178,227,148740,5,6,1:0:0:0:
294,339,148877,2,0,P|334:351|386:341,1,80,8|2,0:0|1:0,0:0:0:0:
339,267,149151,1,6,3:0:0:0:
84,309,149425,1,6,3:0:0:0:
175,67,149699,6,0,B|205:88|205:88|234:153|200:216,1,160,6|10,1:0|0:0,0:0:0:0:
59,129,150110,2,0,P|99:131|136:147,1,80,0|0,0:0|1:0,0:0:0:0:
3,230,150384,2,0,P|40:214|80:213,1,80,10|0,0:0|3:0,0:0:0:0:
57,296,150658,1,6,3:0:0:0:
97,46,150932,5,4,1:0:0:0:
243,261,151206,1,10,0:0:0:0:
171,309,151343,2,0,P|159:274|166:219,1,80,2|8,0:0|0:0,0:0:0:0:
304,130,151617,2,0,P|316:165|309:220,1,80,2|0,0:0|1:0,0:0:0:0:
182,143,151891,6,0,P|115:96|30:109,1,160,10|8,0:0|0:0,0:0:0:0:
92,175,152302,1,2,1:0:0:0:
209,52,152439,2,0,L|321:41,1,80,0|8,1:0|0:0,0:0:0:0:
350,200,152713,1,2,0:0:0:0:
400,126,152850,2,0,L|288:115,1,80,4|0,3:0|0:0,0:0:0:0:
198,264,153124,5,6,1:0:0:0:
284,247,153260,1,0,0:0:0:0:
370,230,153397,1,10,0:0:0:0:
198,264,153534,6,0,P|200:221|230:172,1,80,6|0,3:0|0:0,0:0:0:0:
370,230,153808,2,0,P|368:273|338:322,1,80,6|0,3:0|0:0,0:0:0:0:
284,247,154082,6,0,L|298:75,1,160,14|8,0:0|0:0,0:0:0:0:
341,1,154493,2,0,P|306:55|211:61,1,160,10|6,0:0|3:0,0:0:0:0:
66,27,154904,1,2,1:0:0:0:
147,12,155041,2,0,L|131:110,1,80,0|0,1:0|1:0,0:0:0:0:
49,223,155315,5,2,1:0:0:0:
21,147,155452,2,0,B|101:129|81:183|165:165,1,143.999995605469,8|0,0:0|1:0,0:0:0:0:
238,131,155863,1,8,0:0:0:0:
196,326,156137,1,0,1:0:0:0:
186,246,156274,1,0,1:0:0:0:
306,81,156548,1,10,0:0:0:0:
316,161,156685,6,0,P|319:204|326:244,1,71.9999978027344,0|0,0:0|1:0,0:0:0:0:
483,180,156959,2,0,P|477:108|462:38,1,143.999995605469,10|10,0:0|0:0,0:0:0:0:
397,131,157370,1,0,0:0:0:0:
426,254,157507,6,0,L|513:274,2,71.9999978027344,2|8|2,1:0|0:0|0:0,0:0:0:0:
268,212,157918,1,2,1:0:0:0:
432,169,158055,2,0,P|374:195|343:298,1,143.999995605469,8|0,0:0|1:0,0:0:0:0:
426,254,158466,1,8,0:0:0:0:
313,142,158603,6,0,L|286:56,1,71.9999978027344,8|4,0:0|3:0,0:0:0:0:
273,296,158877,2,0,L|212:361,1,71.9999978027344,4|4,3:0|3:0,0:0:0:0:
426,254,159151,2,0,L|513:273,1,71.9999978027344,8|0,0:0|0:0,0:0:0:0:
338,232,159425,1,10,0:0:0:0:
338,232,159562,1,2,0:0:0:0:
424,348,159699,6,0,B|374:328|374:328|242:360,1,160,10|2,0:0|1:0,0:0:0:0:
187,149,160110,2,0,P|198:189|199:246,1,80,10|0,0:0|1:0,0:0:0:0:
178,336,160384,1,2,1:0:0:0:
118,204,160521,1,8,0:0:0:0:
269,273,160658,6,0,P|298:220|278:111,1,160,6|8,1:0|0:0,0:0:0:0:
154,68,161069,2,0,L|233:57,1,80,8|8,0:0|0:0,0:0:0:0:
118,204,161343,2,0,L|38:193,1,80,12|4,3:0|3:0,0:0:0:0:
187,149,161617,1,2,1:0:0:0:
187,149,161754,1,2,1:0:0:0:
281,244,161891,6,0,P|223:237|154:308,1,160,10|2,0:0|1:0,0:0:0:0:
345,185,162302,2,0,P|361:220|364:260,1,80,14|0,0:0|0:0,0:0:0:0:
186,148,162576,2,0,P|188:108|206:73,1,80,10|8,0:0|0:0,0:0:0:0:
371,49,162850,6,0,L|274:59,1,80,6|0,1:0|0:0,0:0:0:0:
244,228,163124,1,8,0:0:0:0:
347,135,163260,2,0,L|250:145,1,80,10|0,0:0|1:0,0:0:0:0:
392,292,163534,2,0,P|387:252|384:212,1,80,14|8,3:0|3:0,3:0:0:0:
244,228,163808,2,0,P|249:268|252:324,1,80,6|0,3:0|1:0,0:0:0:0:
153,309,164082,6,0,L|137:138,1,160,6|8,1:0|0:0,0:0:0:0:
359,75,164493,2,0,L|375:246,1,160,6|8,1:0|0:0,0:0:0:0:
190,75,164904,6,0,P|229:83|268:87,1,80,6|0,1:0|0:0,0:0:0:0:
322,309,165178,1,8,0:0:0:0:
322,309,165315,2,0,P|282:300|243:296,1,80,2|0,1:0|0:0,0:0:0:0:
268,167,165589,1,8,0:0:0:0:
340,228,165726,5,8,0:0:0:0:
188,187,165863,1,8,0:0:0:0:
344,194,166000,5,8,0:0:0:0:
193,222,166137,1,8,0:0:0:0:
322,309,166274,6,0,P|355:311|414:318,2,80,10|10|8,0:0|0:0|0:0,0:0:0:0:
139,126,166685,2,0,P|136:92|130:34,2,80,6|8|8,1:0|0:0|0:0,0:0:0:0:
373,126,167096,2,0,P|375:92|382:34,2,80,6|8|8,1:0|0:0|0:0,0:0:0:0:
190,309,167507,2,0,P|156:311|98:318,1,80,6|0,1:0|0:0,0:0:0:0:
256,360,167781,1,8,0:0:0:0:
160,224,167918,6,0,L|148:116,1,80,2|4,1:0|3:0,0:0:0:0:
360,144,168192,2,0,L|352:224,1,80,2|0,1:0|1:0,0:0:0:0:
106,72,168466,6,0,P|162:60|238:140,1,160,14|4,0:0|1:0,0:0:0:0:
395,153,168877,2,0,P|338:145|269:232,1,160,14|4,0:0|3:0,0:0:0:0:
103,229,169288,2,0,P|160:226|221:318,1,160,14|4,0:0|3:0,0:0:0:0:
395,287,169699,2,0,P|337:289|285:386,1,160,14|4,0:0|3:0,0:0:0:0:
368,370,170110,1,10,0:0:0:0:
368,370,170384,5,10,0:0:0:0:
144,370,170521,1,6,1:0:0:0:
256,192,170589,12,0,172302,0:0:0:0:
256,275,172576,5,10,0:0:0:0:
256,83,172713,2,0,B|256:131|256:131|252:135|252:135|260:135|260:135|256:139|256:139|256:203,1,120,10|0,0:0|0:0,0:0:0:0:
