osu file format v14

[General]
AudioFilename: audio.mp3
AudioLeadIn: 0
PreviewTime: 128877
Countdown: 0
SampleSet: Soft
StackLeniency: 0.2
Mode: 0
LetterboxInBreaks: 0
WidescreenStoryboard: 1

[Editor]
Bookmarks: 5330,13139,21892,30659,38330,49289,68719,86822,121617,137781,172713
DistanceSpacing: 0.7
BeatDivisor: 4
GridSize: 8
TimelineZoom: 2.3

[Metadata]
Title:Comet Lucifer ~The Seed and the Sower~
TitleUnicode:コメットルシファー ~The Seed and the Sower~
Artist:fhana
ArtistUnicode:fhána
Creator:Sotarks
Version:Extra
Source:コメット・ルシファー
Tags:opening op junichi sato yuxuki waga kevin mitsunaga towana toybot garden akitoshi corinn
BeatmapID:1385926
BeatmapSetID:651869

[Difficulty]
HPDrainRate:6.2
CircleSize:4.2
OverallDifficulty:8.2
ApproachRate:9.2
SliderMultiplier:1.82
SliderTickRate:1

[Events]
//Background and Video events
0,0,"bg.jpg",0,0
//Break Periods
2,108192,116389
//Storyboard Layer 0 (Background)
//Storyboard Layer 1 (Fail)
//Storyboard Layer 2 (Pass)
//Storyboard Layer 3 (Foreground)
//Storyboard Sound Samples

[TimingPoints]
1084,273.972602739726,4,2,22,42,1,0
1084,-192.307692307692,4,2,22,42,0,0
1494,-121.951219512195,4,2,22,42,0,0
1905,-192.307692307692,4,2,22,42,0,0
2316,-121.951219512195,4,2,22,42,0,0
2727,-192.307692307692,4,2,22,42,0,0
3001,-121.951219512195,4,2,22,42,0,0
3275,-192.307692307692,4,2,22,42,0,0
3686,-121.951219512195,4,2,22,42,0,0
4097,-192.307692307692,4,2,22,42,0,0
4508,-121.951219512195,4,2,22,42,0,0
5330,-161.290322580645,4,2,22,42,0,0
10399,-121.951219512195,4,2,22,42,0,0
10810,-138.888888888889,4,2,22,42,0,0
11084,-161.290322580645,4,2,22,42,0,0
11905,-121.951219512195,4,2,22,52,0,0
12453,-138.888888888889,4,2,22,42,0,0
12727,-161.290322580645,4,2,22,42,0,0
13139,272.66530334015,4,2,22,72,1,0
13139,-89.2857142857143,4,2,22,72,0,0
15524,-89.2857142857143,4,2,22,5,0,0
15592,-89.2857142857143,4,2,22,72,0,0
15933,-89.2857142857143,4,2,22,5,0,0
16001,-89.2857142857143,4,2,22,72,0,0
17501,274.473924977127,4,2,22,72,1,0
17501,-89.2857142857143,4,2,22,72,0,0
19696,-89.2857142857143,4,2,22,82,0,0
19902,-89.2857142857143,4,2,22,5,0,0
19971,-89.2857142857143,4,2,22,82,0,0
20314,-89.2857142857143,4,2,22,5,0,0
20382,-81.9672131147541,4,2,22,82,0,0
20588,-81.9672131147541,4,2,22,5,0,0
20657,-70.4225352112676,4,2,22,52,0,0
20863,-70.4225352112676,4,2,22,5,0,0
20931,-70.4225352112676,4,2,22,82,0,0
21069,-89.2857142857143,4,2,22,82,0,0
21892,273.972602739726,4,2,22,52,1,0
21892,-108.695652173913,4,2,22,52,0,0
30659,-98.0392156862745,4,2,22,62,0,0
34974,-98.0392156862745,4,2,22,5,0,0
35042,-98.0392156862745,4,2,22,62,0,0
38330,-108.695652173913,4,2,22,52,0,0
38535,-108.695652173913,4,2,22,5,0,0
38604,-108.695652173913,4,2,22,52,0,0
38809,-108.695652173913,4,2,22,5,0,0
38878,-108.695652173913,4,2,22,52,0,0
39083,-108.695652173913,4,2,22,5,0,0
39152,-108.695652173913,4,2,22,52,0,0
39357,-108.695652173913,4,2,22,5,0,0
39426,-108.695652173913,4,2,22,52,0,0
39837,-89.2857142857143,4,2,22,52,0,0
40248,-121.951219512195,4,2,22,52,0,0
40453,-121.951219512195,4,2,22,5,0,0
40522,-108.695652173913,4,2,22,52,0,0
40727,-108.695652173913,4,2,22,5,0,0
40796,-108.695652173913,4,2,22,52,0,0
41001,-108.695652173913,4,2,22,5,0,0
41070,-108.695652173913,4,2,22,52,0,0
41275,-108.695652173913,4,2,22,5,0,0
41344,-108.695652173913,4,2,22,52,0,0
43672,-98.0392156862745,4,2,22,52,0,0
44083,-89.2857142857143,4,2,22,52,0,0
44631,-161.290322580645,4,2,22,52,0,0
44837,-161.290322580645,4,2,22,5,0,0
44905,-89.2857142857143,4,2,22,62,0,0
46001,-89.2857142857143,4,2,22,72,0,0
47097,-75.7575757575758,4,2,22,82,0,0
47302,-75.7575757575758,4,2,22,5,0,0
47371,-75.7575757575758,4,2,22,82,0,0
47508,-81.9672131147541,4,2,22,72,0,0
47713,-81.9672131147541,4,2,22,5,0,0
47782,-81.9672131147541,4,2,22,72,0,0
47919,-89.2857142857143,4,2,22,62,0,0
48124,-89.2857142857143,4,2,22,5,0,0
48193,-89.2857142857143,4,2,22,62,0,0
48330,-75.7575757575758,4,2,22,82,0,0
48672,-75.7575757575758,4,2,22,5,0,0
48741,-75.7575757575758,4,2,22,82,0,0
48946,-75.7575757575758,4,2,22,5,0,0
49015,-75.7575757575758,4,2,22,82,0,0
49220,-75.7575757575758,4,2,22,5,0,0
49289,-81.9672131147541,4,2,22,82,0,1
49494,-81.9672131147541,4,2,22,5,0,1
49563,-81.9672131147541,4,2,22,82,0,1
49768,-81.9672131147541,4,2,22,5,0,1
49837,-81.9672131147541,4,2,22,82,0,1
50316,-81.9672131147541,4,2,22,5,0,1
50385,-81.9672131147541,4,2,22,82,0,1
50590,-81.9672131147541,4,2,22,5,0,1
50659,-81.9672131147541,4,2,22,82,0,1
51686,-81.9672131147541,4,2,22,5,0,1
51755,-81.9672131147541,4,2,22,82,0,1
52782,-81.9672131147541,4,2,22,5,0,1
52850,-81.9672131147541,4,2,22,82,0,1
52987,-75.7575757575758,4,2,22,82,0,1
53193,-75.7575757575758,4,2,22,5,0,1
53261,-75.7575757575758,4,2,22,82,0,1
53604,-75.7575757575758,4,2,22,5,0,1
53672,-81.9672131147541,4,2,22,82,0,1
53878,-81.9672131147541,4,2,22,5,0,1
53946,-81.9672131147541,4,2,22,82,0,1
54152,-81.9672131147541,4,2,22,5,0,1
54220,-81.9672131147541,4,2,22,82,0,1
54700,-81.9672131147541,4,2,22,5,0,1
54768,-81.9672131147541,4,2,22,82,0,1
54974,-81.9672131147541,4,2,22,5,0,1
55042,-81.9672131147541,4,2,22,82,0,1
55796,-81.9672131147541,4,2,22,5,0,1
55864,-81.9672131147541,4,2,22,82,0,1
56070,-81.9672131147541,4,2,22,5,0,1
56138,-81.9672131147541,4,2,22,82,0,1
57165,-81.9672131147541,4,2,22,5,0,1
57234,-81.9672131147541,4,2,22,82,0,1
58261,-81.9672131147541,4,2,22,5,0,1
58330,-81.9672131147541,4,2,22,82,0,1
59357,-81.9672131147541,4,2,22,5,0,1
59426,-81.9672131147541,4,2,22,82,0,1
59768,-81.9672131147541,4,2,22,5,0,1
59837,-81.9672131147541,4,2,22,82,0,1
60453,-81.9672131147541,4,2,22,5,0,1
60522,-81.9672131147541,4,2,22,82,0,1
61275,-81.9672131147541,4,2,22,5,0,1
61344,-81.9672131147541,4,2,22,82,0,1
61549,-81.9672131147541,4,2,22,5,0,1
61618,-81.9672131147541,4,2,22,82,0,1
61960,-81.9672131147541,4,2,22,5,0,1
62028,-81.9672131147541,4,2,22,82,0,1
62371,-81.9672131147541,4,2,22,5,0,1
62439,-81.9672131147541,4,2,22,82,0,1
62645,-81.9672131147541,4,2,22,5,0,1
62713,-81.9672131147541,4,2,22,82,0,1
62919,-81.9672131147541,4,2,22,5,0,1
62987,-81.9672131147541,4,2,22,82,0,1
63467,-81.9672131147541,4,2,22,5,0,1
63535,-75.7575757575758,4,2,22,82,0,1
63741,-75.7575757575758,4,2,22,5,0,1
63809,-75.7575757575758,4,2,22,82,0,1
64152,-75.7575757575758,4,2,22,5,0,1
64220,-75.7575757575758,4,2,22,82,0,1
64357,-161.290322580645,4,2,22,82,0,1
64837,-161.290322580645,4,2,22,5,0,1
64905,-75.7575757575758,4,2,22,82,0,1
65111,-75.7575757575758,4,2,22,5,0,1
65179,-75.7575757575758,4,2,22,82,0,1
65385,-75.7575757575758,4,2,22,5,0,1
65453,-75.7575757575758,4,2,22,82,0,1
66344,-75.7575757575758,4,2,22,5,0,1
66412,-75.7575757575758,4,2,22,82,0,1
67234,-70.4225352112676,4,2,22,82,0,1
67919,266.666666666667,4,2,22,82,1,0
68719,277.777777777778,4,2,22,82,1,0
68719,-65.7894736842105,4,2,22,82,0,0
69066,-65.7894736842105,4,2,22,5,0,0
69135,-65.7894736842105,4,2,22,82,0,0
69482,-65.7894736842105,4,2,22,5,0,0
69552,-65.7894736842105,4,2,22,82,0,0
69830,283.018867924528,4,2,22,82,1,0
69830,-65.7894736842105,4,2,22,82,0,0
69900,-65.7894736842105,4,2,22,5,0,0
69971,-65.7894736842105,4,2,22,82,0,0
70183,-65.7894736842105,4,2,22,5,0,0
70254,-65.7894736842105,4,2,22,82,0,0
70396,270.27027027027,4,2,22,82,1,0
70396,-65.7894736842105,4,2,22,82,0,0
71139,-65.7894736842105,4,2,22,5,0,0
71206,-65.7894736842105,4,2,22,82,0,0
71477,274.599542334096,4,2,22,82,1,0
71477,-70.4225352112676,4,2,22,82,0,0
72094,-70.4225352112676,4,2,22,5,0,0
72163,-70.4225352112676,4,2,22,82,0,0
73124,273.972602739726,4,2,22,82,1,0
73124,-65.7894736842105,4,2,22,82,0,0
73466,-65.7894736842105,4,2,22,5,0,0
73534,-65.7894736842105,4,2,22,82,0,0
73877,-65.7894736842105,4,2,22,5,0,0
73945,-65.7894736842105,4,2,22,82,0,0
74288,-65.7894736842105,4,2,22,5,0,0
74356,-65.7894736842105,4,2,22,82,0,0
74562,-65.7894736842105,4,2,22,5,0,0
74630,-65.7894736842105,4,2,22,82,0,0
75521,-65.7894736842105,4,2,22,5,0,0
75589,-65.7894736842105,4,2,22,82,0,0
75795,-65.7894736842105,4,2,22,5,0,0
75863,-65.7894736842105,4,2,22,82,0,0
76069,-65.7894736842105,4,2,22,5,0,0
76137,-65.7894736842105,4,2,22,82,0,0
76480,-65.7894736842105,4,2,22,5,0,0
76548,-65.7894736842105,4,2,22,82,0,0
76959,-75.7575757575758,4,2,22,82,0,0
77233,-89.2857142857143,4,2,22,82,0,0
77507,-65.7894736842105,4,2,22,82,0,0
80178,-65.7894736842105,4,2,22,5,0,0
80247,-65.7894736842105,4,2,22,82,0,0
80795,-70.4225352112676,4,2,22,82,0,0
81069,-75.7575757575758,4,2,22,82,0,0
81891,-75.7575757575758,4,2,22,52,0,1
82165,-75.7575757575758,4,2,22,62,0,1
82713,-75.7575757575758,4,2,22,72,0,1
83534,-75.7575757575758,4,2,22,82,0,1
84082,-75.7575757575758,4,2,22,92,0,1
85041,-65.7894736842105,4,2,22,82,0,1
85247,-65.7894736842105,4,2,22,5,0,1
85315,-65.7894736842105,4,2,22,82,0,1
85521,-65.7894736842105,4,2,22,82,0,0
85726,-65.7894736842105,4,2,22,82,0,1
85932,-65.7894736842105,4,2,22,82,0,0
86137,-81.9672131147541,4,2,22,72,0,0
100384,-89.2857142857143,4,2,22,72,0,0
101480,-98.0392156862745,4,2,22,72,0,0
102576,-108.695652173913,4,2,22,72,0,0
103808,-81.9672131147541,4,2,22,72,0,0
116959,-161.290322580645,4,2,22,42,0,0
123397,-98.0392156862745,4,2,22,62,0,0
124630,-81.9672131147541,4,2,22,72,0,0
126206,-81.9672131147541,4,2,22,5,0,0
126274,-81.9672131147541,4,2,22,72,0,0
126480,-81.9672131147541,4,2,22,5,0,0
126548,-81.9672131147541,4,2,22,72,0,0
126685,-400.307692307692,4,2,22,72,0,0
128260,-400.307692307692,4,2,22,5,0,0
128329,-400.307692307692,4,2,22,72,0,0
129014,-285.871237090749,4,2,22,42,0,0
130041,-285.871237090749,4,2,22,5,0,0
130110,-222.317156527682,4,2,22,42,0,0
131137,-222.317156527682,4,2,22,5,0,0
131206,-192.307692307692,4,2,22,42,0,0
132233,-192.307692307692,4,2,22,5,0,0
132302,-161.290322580645,4,2,22,52,0,0
132644,-161.290322580645,4,2,22,5,0,0
132713,-138.888888888889,4,2,22,62,0,0
133055,-138.888888888889,4,2,22,5,0,0
133124,-138.888888888889,4,2,22,72,0,0
133329,-138.888888888889,4,2,22,5,0,0
133397,-75.7575757575758,4,2,22,82,0,1
133603,-81.9672131147541,4,2,22,5,0,1
133671,-81.9672131147541,4,2,22,82,0,1
133877,-81.9672131147541,4,2,22,5,0,1
133945,-81.9672131147541,4,2,22,82,0,1
134425,-81.9672131147541,4,2,22,5,0,1
134493,-81.9672131147541,4,2,22,82,0,1
134699,-81.9672131147541,4,2,22,5,0,1
134767,-81.9672131147541,4,2,22,82,0,1
135521,-81.9672131147541,4,2,22,5,0,1
135589,-81.9672131147541,4,2,22,82,0,1
135795,-81.9672131147541,4,2,22,5,0,1
135863,-81.9672131147541,4,2,22,82,0,1
136890,-81.9672131147541,4,2,22,5,0,1
136959,-81.9672131147541,4,2,22,82,0,1
137986,-81.9672131147541,4,2,22,5,0,1
138055,-81.9672131147541,4,2,22,82,0,1
139082,-81.9672131147541,4,2,22,5,0,1
139151,-81.9672131147541,4,2,22,82,0,1
139493,-81.9672131147541,4,2,22,5,0,1
139562,-81.9672131147541,4,2,22,82,0,1
140178,-81.9672131147541,4,2,22,5,0,1
140247,-81.9672131147541,4,2,22,82,0,1
141000,-81.9672131147541,4,2,22,5,0,1
141069,-81.9672131147541,4,2,22,82,0,1
141274,-81.9672131147541,4,2,22,5,0,1
141343,-81.9672131147541,4,2,22,82,0,1
141685,-81.9672131147541,4,2,22,5,0,1
141753,-81.9672131147541,4,2,22,82,0,1
142096,-81.9672131147541,4,2,22,5,0,1
142164,-81.9672131147541,4,2,22,82,0,1
142370,-81.9672131147541,4,2,22,5,0,1
142438,-81.9672131147541,4,2,22,82,0,1
142644,-81.9672131147541,4,2,22,5,0,1
142712,-81.9672131147541,4,2,22,82,0,1
143192,-81.9672131147541,4,2,22,5,0,1
143260,-75.7575757575758,4,2,22,82,0,1
143466,-75.7575757575758,4,2,22,5,0,1
143534,-75.7575757575758,4,2,22,82,0,1
143877,-75.7575757575758,4,2,22,5,0,1
143945,-75.7575757575758,4,2,22,82,0,1
144082,-161.290322580645,4,2,22,82,0,1
144562,-161.290322580645,4,2,22,5,0,1
144630,-75.7575757575758,4,2,22,82,0,1
144836,-75.7575757575758,4,2,22,5,0,1
144904,-75.7575757575758,4,2,22,82,0,1
146069,-75.7575757575758,4,2,22,5,0,1
146137,-75.7575757575758,4,2,22,82,0,1
146754,-75.7575757575758,4,2,22,5,0,1
146822,-75.7575757575758,4,2,22,82,0,1
147781,-81.9672131147541,4,2,22,82,0,1
147918,-75.7575757575758,4,2,22,82,0,1
149151,-81.9672131147541,4,2,22,82,0,1
149904,-81.9672131147541,4,2,22,5,0,1
149973,-89.2857142857143,4,2,22,82,0,1
150521,-98.0392156862745,4,2,22,82,0,1
150932,-81.9672131147541,4,2,22,82,0,1
151137,-81.9672131147541,4,2,22,5,0,1
151206,-81.9672131147541,4,2,22,82,0,1
151891,-75.7575757575758,4,2,22,82,0,1
152096,-75.7575757575758,4,2,22,5,0,1
152165,-75.7575757575758,4,2,22,82,0,1
152576,-81.9672131147541,4,2,22,82,0,1
152850,-89.2857142857143,4,2,22,82,0,1
153124,-81.9672131147541,4,2,22,82,0,1
153329,-81.9672131147541,4,2,22,5,0,1
153397,-81.9672131147541,4,2,22,82,0,1
153740,-81.9672131147541,4,2,22,5,0,1
153808,-81.9672131147541,4,2,22,82,0,1
154014,-81.9672131147541,4,2,22,5,0,1
154082,-75.7575757575758,4,2,22,82,0,1
154904,-75.7575757575758,4,2,22,72,0,1
155041,-75.7575757575758,4,2,22,62,0,1
155178,-75.7575757575758,4,2,22,52,0,1
155315,-75.7575757575758,4,2,22,82,0,1
155452,-89.2857142857143,4,2,22,82,0,1
159151,-75.7575757575758,4,2,22,82,0,1
160863,-75.7575757575758,4,2,22,5,0,1
160932,-75.7575757575758,4,2,22,82,0,1
161343,-89.2857142857143,4,2,22,82,0,1
161891,-70.4225352112676,4,2,22,82,0,1
162507,-70.4225352112676,4,2,22,5,0,1
162576,-70.4225352112676,4,2,22,82,0,1
163055,-70.4225352112676,4,2,22,5,0,1
163124,-70.4225352112676,4,2,22,82,0,1
163534,-75.7575757575758,4,2,22,72,0,1
163808,-81.9672131147541,4,2,22,62,0,1
164082,-70.4225352112676,4,2,22,82,0,1
164288,-70.4225352112676,4,2,22,5,0,1
164356,-70.4225352112676,4,2,22,82,0,1
164493,-75.7575757575758,4,2,22,82,0,1
164699,-75.7575757575758,4,2,22,5,0,1
164767,-75.7575757575758,4,2,22,82,0,1
164904,-81.9672131147541,4,2,22,82,0,1
165110,-81.9672131147541,4,2,22,5,0,1
165178,-81.9672131147541,4,2,22,82,0,1
165315,-65.7894736842105,4,2,22,82,0,1
165521,-65.7894736842105,4,2,22,5,0,1
165589,-65.7894736842105,4,2,22,82,0,1
168055,-65.7894736842105,4,2,22,72,0,1
168192,-65.7894736842105,4,2,22,62,0,1
168329,-65.7894736842105,4,2,22,52,0,1
168466,-65.7894736842105,4,2,22,82,0,1
168534,-65.7894736842105,4,2,22,62,0,1
168740,-65.7894736842105,4,2,22,72,0,1
168808,-65.7894736842105,4,2,22,62,0,1
168877,-75.7575757575758,4,2,22,82,0,1
168945,-75.7575757575758,4,2,22,62,0,1
169151,-75.7575757575758,4,2,22,72,0,1
169219,-75.7575757575758,4,2,22,62,0,1
169288,-89.2857142857143,4,2,22,82,0,1
169356,-89.2857142857143,4,2,22,62,0,1
169562,-89.2857142857143,4,2,22,72,0,1
169630,-89.2857142857143,4,2,22,62,0,1
169699,-70.4225352112676,4,2,22,82,0,1
169767,-70.4225352112676,4,2,22,62,0,1
169973,-70.4225352112676,4,2,22,72,0,1
170041,-70.4225352112676,4,2,22,62,0,1
170110,-70.4225352112676,4,2,22,82,0,1
170521,-192.307692307692,4,2,22,82,0,0
170589,-192.307692307692,4,2,22,62,0,0
172507,-192.307692307692,4,2,22,5,0,0
172576,-75.7575757575758,4,2,22,82,0,1
172713,-75.7575757575758,4,2,22,82,0,0

[Colours]
Combo1 : 159,167,174
Combo2 : 38,63,121
Combo3 : 215,101,9
Combo4 : 50,243,88
SliderBorder : 255,255,255
SliderTrackOverride : 0,0,0

[HitObjects]
80,88,1084,6,0,L|192:80,1,94.6399994223633,0|0,1:0|0:0,0:0:0:0:
288,176,1494,2,0,L|112:160,1,149.240002277222,2|0,3:0|0:0,0:0:0:0:
368,104,1905,2,0,L|376:216,1,94.6399994223633,0|0,1:0|0:0,0:0:0:0:
273,324,2316,2,0,L|289:156,1,149.240002277222,2|0,3:0|0:0,0:0:0:0:
400,288,2727,2,0,L|336:280,1,47.3199997111816,2|0,1:0|0:0,0:0:0:0:
213,183,3001,2,0,L|309:172,1,74.6200011386109,2|0,3:0|0:0,0:0:0:0:
136,264,3275,6,0,L|120:160,1,94.6399994223633,0|0,1:0|0:0,0:0:0:0:
32,64,3686,2,0,L|32:232,1,149.240002277222,2|0,3:0|0:0,0:0:0:0:
120,88,4097,2,0,L|224:80,1,94.6399994223633,0|0,1:0|0:0,0:0:0:0:
352,184,4508,2,0,L|200:160,1,149.240002277222,2|0,3:0|0:0,0:0:0:0:
432,120,4919,2,0,L|440:208,1,74.6200011386109,2|0,1:0|0:0,0:0:0:0:
384,264,5193,1,2,3:0:0:0:
336,64,5330,6,0,P|296:56|200:64,1,112.839995523316,2|0,1:0|0:0,0:0:0:0:
112,136,5741,1,2,0:0:0:0:
112,136,5878,2,0,P|136:192|144:256,1,112.839995523316,0|0,3:0|0:0,0:0:0:0:
104,320,6289,1,2,0:0:0:0:
224,200,6426,2,0,P|280:192|352:200,1,112.839995523316,2|0,1:0|0:0,0:0:0:0:
445,283,6837,1,2,0:0:0:0:
445,283,6974,2,0,P|421:227|429:155,1,112.839995523316,2|0,3:0|0:0,0:0:0:0:
469,90,7385,1,2,0:0:0:0:
309,119,7522,6,0,P|260:113|190:79,1,112.839995523316,2|0,1:0|0:0,0:0:0:0:
87,32,7933,1,0,1:0:0:0:
87,32,8070,2,0,P|105:86|108:95,1,56.4199977616578,0|0,3:0|0:0,0:0:0:0:
58,167,8344,2,0,P|50:206|47:286,1,112.839995523316,2|0,3:0|0:0,0:0:0:0:
135,215,8755,1,2,1:0:0:0:
135,215,8892,2,0,P|200:205|264:210,1,112.839995523316,0|0,3:0|0:0,0:0:0:0:
319,272,9303,2,0,P|354:284|385:287,1,56.4199977616578,0|0,3:0|0:0,0:0:0:0:
434,209,9577,2,0,P|461:204|488:194,1,56.4199977616578,2|0,3:0|0:0,0:0:0:0:
473,92,9851,5,2,1:0:0:0:
432,83,9988,1,2,0:0:0:0:
354,69,10125,1,2,0:0:0:0:
262,95,10262,1,2,3:0:0:0:
179,30,10399,2,0,P|152:91|177:168,1,149.240002277222,2|0,0:0|0:0,0:0:0:0:
252,244,10810,2,0,P|263:290|257:319,1,65.5200015996094,2|0,3:0|0:0,0:0:0:0:
134,294,11084,2,0,P|132:261|137:237,1,56.4199977616578,2|0,1:0|0:0,0:0:0:0:
276,172,11357,2,0,P|229:191|164:148,1,112.839995523316,2|0,3:0|0:0,0:0:0:0:
358,113,11768,2,0,P|375:158|377:183,1,56.4199977616578,0|8,1:0|0:0,0:0:0:0:
230,107,12042,6,0,P|239:59|253:31,1,74.6200011386109,8|8,0:0|3:0,0:0:0:0:
313,247,12316,1,6,3:0:0:0:
313,247,12453,2,0,P|250:250|224:240,1,65.5200015996094,6|0,3:0|0:0,0:0:0:0:
369,72,12727,2,0,P|396:158|401:201,1,112.839995523316,6|0,2:0|0:0,0:0:0:0:
169,339,13139,6,0,L|147:118,1,203.840002488281,6|8,1:0|0:0,0:0:0:0:
51,317,13547,2,0,L|61:183,1,101.920001244141,6|0,3:0|0:0,0:0:0:0:
141,56,13820,1,8,0:0:0:0:
52,134,13956,1,8,0:0:0:0:
306,161,14093,2,0,P|225:202|146:123,1,203.840002488281,6|8,1:0|0:0,0:0:0:0:
384,102,14502,2,0,P|406:169|383:215,1,101.920001244141,4|4,3:0|3:0,0:0:0:0:
268,39,14774,1,10,0:0:0:0:
180,344,15047,1,10,0:0:0:0:
50,109,15320,6,0,B|208:83|208:83|231:121,1,203.840002488281,6|8,1:0|0:0,0:0:0:0:
287,319,15729,2,0,B|179:345|179:345|122:292,1,152.880001866211,6|0,1:0|0:0,0:0:0:0:
120,287,16001,1,10,0:0:0:0:
183,187,16138,1,8,0:0:0:0:
370,286,16274,2,0,P|420:271|403:122,1,203.840002488281,6|8,1:0|0:0,0:0:0:0:
299,56,16683,2,0,P|239:94|231:144,1,101.920001244141,6|4,3:0|3:0,0:0:0:0:
373,203,16956,1,10,0:0:0:0:
313,138,17092,1,2,1:0:0:0:
280,262,17228,2,0,L|168:246,1,101.920001244141,10|2,0:0|1:0,0:0:0:0:
37,49,17501,6,0,P|94:136|93:251,1,203.840002488281,6|8,1:0|0:0,0:0:0:0:
178,55,17912,2,0,B|286:19|273:97|414:49,1,203.840002488281,6|10,3:0|0:0,0:0:0:0:
229,128,18324,1,8,0:0:0:0:
457,28,18461,2,0,L|448:249,1,203.840002488281,6|8,1:0|0:0,0:0:0:0:
377,59,18873,1,10,0:0:0:0:
360,223,19010,1,8,0:0:0:0:
304,97,19147,2,0,P|291:41|295:27,3,50.9600006220703,4|0|0|0,3:0|0:0|0:0|0:0,0:0:0:0:
292,177,19422,2,0,P|289:202|278:224,3,50.9600006220703,4|0|0|0,3:0|0:0|0:0|0:0,0:0:0:0:
229,128,19696,6,0,L|60:118,1,152.880001866211,14|0,0:0|0:0,0:0:0:0:
37,141,19971,1,4,3:0:0:0:
158,211,20108,2,0,P|194:255|184:358,1,152.880001866211,14|0,0:0|0:0,0:0:0:0:
119,294,20382,2,0,L|317:272,1,166.529993139176,6|0,3:0|0:0,0:0:0:0:
356,322,20657,2,0,B|397:235|302:231|355:121,1,193.829990239884,14|0,0:0|0:0,0:0:0:0:
387,64,20931,1,8,3:0:0:0:
424,184,21069,1,0,1:0:0:0:
426,191,21206,1,0,1:0:0:0:
279,92,21343,5,14,0:0:0:0:
502,231,21480,1,10,0:0:0:0:
502,231,21892,6,0,L|319:213,1,167.439994379151,2|2,1:0|1:0,0:0:0:0:
228,283,22302,1,2,0:0:0:0:
228,283,22439,2,0,L|118:284,1,83.7199971895753,0|0,1:0|0:0,0:0:0:0:
188,198,22713,1,2,1:0:0:0:
269,355,22850,1,2,3:0:0:0:
266,172,22987,2,0,P|229:126|120:148,1,167.439994379151,0|2,1:0|1:0,0:0:0:0:
92,215,23398,1,2,0:0:0:0:
56,87,23535,2,0,P|101:52|143:52,1,83.7199971895753,0|0,1:0|0:0,0:0:0:0:
188,198,23809,1,2,1:0:0:0:
306,40,23946,6,0,B|449:32|449:32|440:86,1,167.439994379151,2|0,3:0|0:0,0:0:0:0:
390,178,24357,1,2,1:0:0:0:
390,178,24494,2,0,L|404:274,1,83.7199971895753,2|0,0:0|1:0,0:0:0:0:
293,122,24768,2,0,L|305:39,1,83.7199971895753,2|0,0:0|1:0,0:0:0:0:
379,92,25042,1,0,3:0:0:0:
308,206,25179,2,0,P|259:197|199:179,1,83.7199971895753,2|0,1:0|0:0,0:0:0:0:
187,58,25453,2,0,P|146:68|105:75,1,83.7199971895753,0|0,1:0|0:0,0:0:0:0:
47,195,25727,1,4,3:0:0:0:
44,204,25864,1,4,3:0:0:0:
86,46,26001,1,10,0:0:0:0:
117,249,26138,1,8,0:0:0:0:
263,103,26275,6,0,L|437:88,1,167.439994379151,2|2,1:0|1:0,0:0:0:0:
295,187,26686,2,0,L|268:300,1,83.7199971895753,2|0,0:0|1:0,0:0:0:0:
416,277,26960,2,0,L|443:390,1,83.7199971895753,2|0,0:0|1:0,0:0:0:0:
209,339,27234,2,0,L|187:240,1,83.7199971895753,2|0,3:0|1:0,0:0:0:0:
237,102,27508,1,0,0:0:0:0:
295,187,27645,2,0,L|95:165,2,167.439994379151,2|2|2,1:0|1:0|1:0,0:0:0:0:
359,115,28330,1,0,3:0:0:0:
439,252,28467,2,0,B|405:175|477:176|432:54,1,167.439994379151,2|2,1:0|1:0,0:0:0:0:
354,244,28878,2,0,P|337:295|329:337,1,83.7199971895753,2|0,3:0|1:0,0:0:0:0:
271,107,29152,2,0,P|288:158|296:200,1,83.7199971895753,2|0,3:0|1:0,0:0:0:0:
328,41,29426,1,0,3:0:0:0:
197,178,29563,6,0,L|94:167,1,83.7199971895753,6|0,3:0|0:0,0:0:0:0:
168,314,29837,2,0,L|271:303,1,83.7199971895753,8|8,0:0|0:0,0:0:0:0:
293,188,30111,1,8,0:0:0:0:
334,306,30248,1,0,1:0:0:0:
384,198,30385,1,6,3:0:0:0:
414,305,30522,1,10,0:0:0:0:
473,168,30659,6,0,L|285:143,1,185.640001133057,6|10,3:0|0:0,0:0:0:0:
93,264,31070,2,0,P|172:274|218:163,1,185.640001133057,2|0,1:0|0:0,0:0:0:0:
137,190,31481,1,2,0:0:0:0:
241,334,31618,2,0,L|351:315,1,92.8200005665283,10|0,0:0|0:0,0:0:0:0:
383,244,31892,1,0,1:0:0:0:
300,56,32028,2,0,L|292:246,1,185.640001133057,10|0,0:0|0:0,0:0:0:0:
332,318,32439,1,0,1:0:0:0:
449,196,32576,2,0,P|405:161|350:168,1,92.8200005665283,10|0,0:0|3:0,0:0:0:0:
204,324,32850,6,0,P|150:312|120:261,1,92.8200005665283,6|0,3:0|0:0,0:0:0:0:
219,95,33124,1,10,0:0:0:0:
292,241,33261,2,0,L|191:243,1,92.8200005665283,2|0,1:0|0:0,0:0:0:0:
126,93,33535,2,0,L|227:95,1,92.8200005665283,2|0,0:0|0:0,0:0:0:0:
371,223,33809,5,8,0:0:0:0:
317,157,33946,2,0,P|379:137|416:158,1,92.8200005665283,6|0,3:0|0:0,0:0:0:0:
448,337,34220,2,0,L|267:279,1,185.640001133057,8|4,0:0|3:0,0:0:0:0:
317,157,34631,1,4,3:0:0:0:
371,338,34768,2,0,L|207:288,1,139.230000849792,10|0,0:0|0:0,0:0:0:0:
155,358,35042,6,0,L|143:263,1,92.8200005665283,6|2,3:0|0:0,0:0:0:0:
219,130,35316,2,0,L|231:35,1,92.8200005665283,10|2,0:0|1:0,0:0:0:0:
93,194,35590,2,0,B|157:186|157:186|212:208|212:208|309:195,1,185.640001133057,2|10,1:0|0:0,0:0:0:0:
440,256,36001,2,0,L|323:236,1,92.8200005665283,2|4,0:0|3:0,0:0:0:0:
491,157,36275,2,0,L|399:172,1,92.8200005665283,2|8,0:0|0:0,0:0:0:0:
500,52,36549,2,0,L|305:109,1,185.640001133057,2|0,1:0|1:0,0:0:0:0:
145,58,36960,1,10,0:0:0:0:
145,58,37234,5,10,0:0:0:0:
209,175,37371,1,8,0:0:0:0:
174,276,37508,1,6,3:0:0:0:
176,285,37645,1,2,1:0:0:0:
176,285,37919,5,10,0:0:0:0:
265,314,38056,1,4,3:0:0:0:
271,321,38193,1,0,1:0:0:0:
408,259,38330,6,0,P|341:262|289:206,1,125.579995784363,6|0,3:0|0:0,0:0:0:0:
293,183,38604,2,0,P|244:145|183:150,1,125.579995784363,6|0,3:0|0:0,0:0:0:0:
142,188,38878,2,0,L|123:53,1,125.579995784363,2|0,1:0|0:0,0:0:0:0:
87,46,39152,2,0,L|240:56,1,125.579995784363,2|0,1:0|0:0,0:0:0:0:
239,36,39426,2,0,P|289:29|368:136,1,167.439994379151,10|0,3:0|0:0,0:0:0:0:
413,24,39837,2,0,P|447:60|395:194,1,203.840002488281,6|0,3:0|0:0,0:0:0:0:
316,182,40248,2,0,P|269:193|268:262,1,111.930001707916,10|0,3:0|0:0,0:0:0:0:
315,305,40522,6,0,L|180:297,1,125.579995784363,2|0,1:0|0:0,0:0:0:0:
133,256,40796,2,0,L|268:248,1,125.579995784363,2|0,1:0|0:0,0:0:0:0:
313,202,41070,2,0,L|178:194,1,125.579995784363,0|0,1:0|0:0,0:0:0:0:
129,149,41344,1,4,3:0:0:0:
376,128,41481,2,0,P|399:218|399:236,1,83.7199971895753,8|0,0:0|1:0,0:0:0:0:
165,274,41755,2,0,P|172:232|187:193,1,83.7199971895753,8|0,0:0|1:0,0:0:0:0:
382,112,42028,2,0,P|405:202|405:220,1,83.7199971895753,8|4,0:0|3:0,0:0:0:0:
270,283,42302,1,4,3:0:0:0:
266,240,42439,1,2,1:0:0:0:
263,214,42576,1,0,1:0:0:0:
294,39,42713,6,0,L|288:141,1,83.7199971895753,6|2,1:0|0:0,0:0:0:0:
192,277,42987,2,0,L|187:193,1,83.7199971895753,8|2,0:0|0:0,0:0:0:0:
60,49,43261,2,0,L|91:234,1,167.439994379151,2|2,1:0|0:0,0:0:0:0:
161,63,43672,2,0,B|295:39|295:39|362:54,1,185.640001133057,10|0,0:0|0:0,0:0:0:0:
409,237,44083,2,0,P|346:225|428:169,1,203.840002488281,10|0,0:0|0:0,0:0:0:0:
487,186,44494,1,0,1:0:0:0:
308,320,44631,2,0,L|207:303,1,84.6299966424867,10|0,0:0|0:0,0:0:0:0:
176,359,44905,6,0,P|198:304|122:163,1,203.840002488281,6|8,1:0|0:0,0:0:0:0:
0,89,45316,2,0,B|104:115|80:24|219:57,1,203.840002488281,0|0,1:0|1:0,0:0:0:0:
226,212,45727,2,0,P|156:198|144:162,1,101.920001244141,2|8,0:0|0:0,0:0:0:0:
261,7,46001,2,0,P|277:57|254:110,1,101.920001244141,2|0,1:0|1:0,0:0:0:0:
77,224,46275,2,0,P|61:176|77:129,1,101.920001244141,8|2,0:0|1:0,0:0:0:0:
305,167,46549,1,8,0:0:0:0:
173,97,46686,1,2,1:0:0:0:
331,67,46823,1,4,3:0:0:0:
341,65,46960,1,4,3:0:0:0:
332,248,47097,6,0,P|232:223|229:135,1,180.179999450134,6|0,1:0|0:0,0:0:0:0:
219,158,47371,1,8,0:0:0:0:
433,33,47508,2,0,L|452:213,1,166.529993139176,4|0,1:0|0:0,0:0:0:0:
450,198,47782,1,8,0:0:0:0:
210,310,47919,2,0,L|220:147,1,152.880001866211,4|0,1:0|0:0,0:0:0:0:
219,157,48193,1,8,0:0:0:0:
454,0,48330,6,0,L|489:308,1,300.299999083557,12|0,0:0|0:0,0:0:0:0:
410,281,48741,6,0,L|390:85,1,180.179999450134,12|0,0:0|0:0,0:0:0:0:
314,81,49015,2,0,L|332:260,1,180.179999450134,12|4,0:0|0:0,0:0:0:0:
256,236,49289,6,0,B|172:224|177:279|76:256,1,166.529993139176,4|0,3:0|0:0,0:0:0:0:
93,259,49563,2,0,L|80:81,1,166.529993139176,10|8,0:0|0:0,0:0:0:0:
80,93,49837,2,0,P|142:79|203:78,1,111.019995426117,2|0,1:2|1:0,0:0:0:0:
406,186,50111,2,0,P|326:160|274:95,1,166.529993139176,10|0,0:2|0:0,0:0:0:0:
275,97,50385,2,0,P|315:178|318:296,1,166.529993139176,6|0,3:0|0:0,0:0:0:0:
323,252,50659,1,8,0:0:0:0:
188,154,50796,1,2,0:0:0:0:
130,346,50933,2,0,L|239:329,1,111.019995426117,0|0,1:0|1:0,0:0:0:0:
323,252,51207,1,10,0:0:0:0:
405,328,51344,1,2,3:0:0:0:
471,217,51481,6,0,P|460:157|378:64,1,166.529993139176,6|0,3:0|0:0,0:0:0:0:
396,75,51755,1,10,0:0:0:0:
253,162,51892,2,0,P|177:157|127:115,1,111.019995426117,0|2,1:0|0:0,0:0:0:0:
91,72,52165,1,0,1:0:0:0:
253,162,52302,2,0,L|230:284,1,111.019995426117,10|0,0:0|0:0,0:0:0:0:
87,328,52576,2,0,B|181:303|155:386|277:358,1,166.529993139176,6|0,3:0|0:0,0:0:0:0:
243,363,52850,1,8,0:0:0:0:
401,236,52987,2,0,B|312:206|331:294|209:266,1,180.179999450134,6|0,3:0|0:0,0:0:0:0:
232,271,53261,1,0,1:0:0:0:
145,106,53398,2,0,P|238:121|259:212,1,180.179999450134,8|0,0:0|0:0,0:0:0:0:
263,193,53672,6,0,L|268:16,1,166.529993139176,4|0,3:0|0:0,0:0:0:0:
267,27,53946,2,0,P|300:106|385:114,1,166.529993139176,10|8,0:0|0:0,0:0:0:0:
372,118,54220,2,0,L|382:240,1,111.019995426117,2|0,1:0|1:0,0:0:0:0:
271,342,54494,2,0,B|365:307|341:381|448:333,1,166.529993139176,10|0,0:0|0:0,0:0:0:0:
432,339,54768,2,0,P|373:319|397:219,1,166.529993139176,6|0,3:0|0:0,0:0:0:0:
380,228,55042,1,10,0:0:0:0:
190,283,55179,2,0,B|94:125|94:125|126:60,1,222.039990852234,6|0,3:0|1:0,0:0:0:0:
290,143,55590,2,0,P|225:184|236:104,1,166.529993139176,10|0,0:0|0:0,0:0:0:0:
211,121,55864,6,0,L|384:92,1,166.529993139176,6|0,3:0|0:0,0:0:0:0:
375,93,56138,1,10,0:0:0:0:
462,305,56275,2,0,L|237:270,1,222.039990852234,0|0,1:0|1:0,0:0:0:0:
460,102,56686,2,0,L|470:225,1,111.019995426117,10|0,0:0|3:0,0:0:0:0:
262,56,56960,2,0,P|160:54|135:148,1,166.529993139176,6|0,3:0|0:0,0:0:0:0:
130,100,57234,2,0,L|141:217,1,111.019995426117,8|2,0:0|1:0,0:0:0:0:
232,381,57508,2,0,L|242:270,1,111.019995426117,6|0,3:0|1:0,0:0:0:0:
354,113,57782,1,8,0:0:0:0:
334,321,57919,1,8,0:0:0:0:
229,168,58056,6,0,B|282:166|282:166|336:190|336:190|425:185,1,166.529993139176,4|0,3:0|0:0,0:0:0:0:
390,186,58330,2,0,P|429:144|423:68,1,111.019995426117,10|0,0:0|0:0,0:0:0:0:
142,150,58604,2,0,P|147:204|185:243,1,111.019995426117,2|0,1:0|1:0,0:0:0:0:
276,53,58878,2,0,L|138:33,1,111.019995426117,10|0,0:0|0:0,0:0:0:0:
20,266,59152,2,0,L|217:238,1,166.529993139176,6|0,3:0|0:0,0:0:0:0:
184,242,59426,1,10,0:0:0:0:
404,332,59563,2,0,P|317:340|270:251,1,166.529993139176,6|0,3:0|0:0,0:0:0:0:
271,283,59837,1,0,1:0:0:0:
352,117,59974,2,0,L|361:228,1,111.019995426117,10|0,0:0|0:0,0:0:0:0:
254,51,60248,6,0,L|437:29,1,166.529993139176,6|0,3:0|0:0,0:0:0:0:
419,31,60522,2,0,P|460:102|452:148,1,111.019995426117,10|0,0:0|0:0,0:0:0:0:
215,148,60796,2,0,P|219:93|253:50,1,111.019995426117,2|0,1:0|1:0,0:0:0:0:
442,230,61070,2,0,P|407:291|288:262,1,166.529993139176,10|0,0:0|0:0,0:0:0:0:
318,293,61344,2,0,B|206:254|206:254|132:299,1,166.529993139176,6|0,3:0|0:0,0:0:0:0:
165,278,61618,1,8,0:0:0:0:
46,121,61755,2,0,P|74:62|121:123,1,166.529993139176,6|0,3:0|0:0,0:0:0:0:
123,118,62028,1,0,1:0:0:0:
283,51,62165,2,0,L|457:37,1,166.529993139176,8|0,0:0|0:0,0:0:0:0:
448,37,62439,6,0,P|400:123|421:189,1,166.529993139176,4|0,3:0|0:0,0:0:0:0:
417,183,62713,2,0,L|243:169,1,166.529993139176,10|0,0:0|0:0,0:0:0:0:
251,169,62987,2,0,L|123:198,1,111.019995426117,2|0,1:0|1:0,0:0:0:0:
39,339,63261,2,0,P|99:290|200:301,1,166.529993139176,10|0,0:0|0:0,0:0:0:0:
184,292,63535,2,0,P|232:335|357:319,1,180.179999450134,6|0,3:0|0:0,0:0:0:0:
342,329,63809,1,8,0:0:0:0:
459,107,63946,2,0,L|446:301,1,180.179999450134,6|0,3:0|0:0,0:0:0:0:
446,286,64220,1,0,1:0:0:0:
367,130,64357,6,0,B|267:110|283:192|160:160,1,197.469992165802,14|0,0:0|0:0,0:0:0:0:
178,164,64905,6,0,P|142:149|215:103,1,180.179999450134,8|0,0:0|0:0,0:0:0:0:
209,94,65179,2,0,L|220:279,1,180.179999450134,8|0,0:0|0:0,0:0:0:0:
219,274,65453,1,2,1:0:0:0:
301,325,65590,1,2,1:0:0:0:
446,249,65727,6,0,L|323:231,1,120.119999633423,14|8,0:0|3:0,0:0:0:0:
385,329,66001,1,6,3:0:0:0:
496,170,66138,2,0,L|274:137,1,180.179999450134,2|0,3:0|0:0,0:0:0:0:
317,143,66412,2,0,P|245:165|201:152,1,120.119999633423,10|4,0:0|3:0,0:0:0:0:
252,69,66686,1,2,1:0:0:0:
278,247,66823,5,14,0:0:0:0:
344,64,66960,1,8,0:0:0:0:
280,237,67097,1,8,0:0:0:0:
164,71,67234,2,0,B|112:111|112:111|152:237|118:314,1,258.439986986512,6|0,3:0|0:0,0:0:0:0:
245,157,67645,2,0,P|328:159|356:199,1,129.219993493256,4|8,3:0|0:0,0:0:0:0:
376,317,67850,1,8,0:0:0:0:
378,333,67919,6,0,L|483:320,1,91,8|8,0:0|0:0,0:0:0:0:
280,237,68185,2,0,L|175:224,1,91,8|8,0:0|0:0,0:0:0:0:
377,71,68452,2,0,L|482:58,1,91,8|8,0:0|0:0,0:0:0:0:
161,53,68719,6,0,P|64:75|84:286,1,345.799995778809,6|0,1:0|0:0,0:0:0:0:
74,280,69135,2,0,B|261:203|228:349|434:279,1,345.799995778809,6|0,1:0|0:0,0:0:0:0:
408,286,69552,2,0,B|433:60|433:60|391:124|291:114,1,345.799995778809,6|0,1:0|0:0,0:0:0:0:
333,114,69971,2,0,P|265:54|184:151,1,207.479997467285,6|0,1:0|0:0,0:0:0:0:
183,112,70254,1,12,3:0:0:0:
242,267,70396,2,0,L|258:128,1,138.319998311523,8|8,0:0|0:0,0:0:0:0:
275,341,70666,1,10,0:0:0:0:
129,193,70801,6,0,B|69:154|30:237|81:305|183:270|208:142|338:256,1,345.799995778809,6|0,1:0|0:0,0:0:0:0:
315,238,71206,1,8,0:0:0:0:
56,53,71477,1,8,0:0:0:0:
315,238,71751,1,6,3:0:0:0:
182,150,71888,2,0,L|386:131,1,193.829990239884,6|0,1:0|0:0,0:0:0:0:
374,132,72163,1,8,0:0:0:0:
428,225,72300,1,10,0:0:0:0:
470,70,72438,2,0,L|336:46,1,129.219993493256,6|8,3:0|3:0,0:0:0:0:
305,268,72712,2,0,L|439:244,2,129.219993493256,2|0|0,3:0|3:0|3:0,0:0:0:0:
147,27,73124,6,0,B|191:90|138:174|138:174|71:282|167:375,1,345.799995778809,6|0,1:0|0:0,0:0:0:0:
143,349,73534,2,0,P|191:244|363:347,1,345.799995778809,6|0,1:0|0:0,0:0:0:0:
362,320,73945,2,0,B|396:30|396:30|344:111,1,345.799995778809,6|0,1:0|0:0,0:0:0:0:
367,74,74356,2,0,P|253:102|154:89,1,207.479997467285,6|0,1:0|0:0,0:0:0:0:
164,92,74630,1,6,3:0:0:0:
214,211,74767,1,8,0:0:0:0:
152,336,74904,2,0,P|135:246|136:181,1,138.319998311523,10|8,0:0|0:0,0:0:0:0:
269,46,75178,6,0,B|256:320|256:320|310:239,1,345.799995778809,4|0,1:0|0:0,0:0:0:0:
295,260,75589,2,0,P|359:219|377:321,1,207.479997467285,8|0,0:0|0:0,0:0:0:0:
385,314,75863,2,0,L|397:101,1,207.479997467285,8|0,0:0|0:0,0:0:0:0:
396,107,76137,1,4,3:0:0:0:
167,217,76274,2,0,P|81:208|152:121,1,207.479997467285,4|0,1:0|0:0,0:0:0:0:
110,118,76548,1,8,0:0:0:0:
248,190,76685,1,8,0:0:0:0:
174,329,76822,1,8,0:0:0:0:
167,217,76959,2,0,P|183:141|221:112,1,120.119999633423,4|4,3:0|3:0,0:0:0:0:
327,170,77233,2,0,P|316:236|274:270,1,101.920001244141,0|0,1:0|1:0,0:0:0:0:
248,190,77507,1,4,3:0:0:0:
290,90,77644,6,0,B|470:73|470:73|452:171,1,276.639996623047,8|0,0:0|1:0,0:0:0:0:
248,190,78055,2,0,B|142:159|66:216|66:216|58:278|114:296,1,276.639996623047,8|0,0:0|1:0,0:0:0:0:
292,339,78466,1,8,0:0:0:0:
340,192,78603,2,0,P|304:115|243:102,1,138.319998311523,8|0,0:0|1:0,0:0:0:0:
222,316,78877,2,0,L|390:298,1,138.319998311523,0|8,0:0|0:0,0:0:0:0:
402,101,79151,1,8,0:0:0:0:
248,190,79288,1,0,3:0:0:0:
429,259,79425,2,0,L|428:104,1,138.319998311523,4|0,3:0|1:0,0:0:0:0:
139,60,79699,6,0,B|87:136|210:154|155:266|120:315|72:296|-20:199|102:93|153:164|185:227|163:245|195:293|272:293|304:240,1,484.119994090332,4|0,1:0|0:0,0:0:0:0:
290,255,80247,2,0,P|349:212|337:342,1,276.639996623047,8|0,0:0|1:0,0:0:0:0:
212,341,80658,1,8,0:0:0:0:
212,341,80726,1,8,0:0:0:0:
212,341,80795,2,0,L|194:201,1,129.219993493256,8|8,0:0|0:0,0:0:0:0:
307,127,81069,2,0,L|286:251,1,120.119999633423,4|0,3:0|0:0,0:0:0:0:
184,131,81343,1,0,1:0:0:0:
340,74,81480,2,0,L|301:316,1,240.239999266846,12|8,3:0|0:0,0:0:0:0:
414,161,81891,5,4,3:0:0:0:
231,244,82028,1,8,0:0:0:0:
195,239,82096,1,8,0:0:0:0:
159,235,82165,2,0,L|50:157,1,120.119999633423,8|8,0:0|0:0,0:0:0:0:
345,47,82439,2,0,L|325:192,1,120.119999633423,8|8,0:0|0:0,0:0:0:0:
476,344,82713,2,0,L|459:225,1,120.119999633423,8|8,0:0|0:0,0:0:0:0:
329,28,82987,2,0,L|309:173,1,120.119999633423,8|8,0:0|0:0,0:0:0:0:
497,357,83260,2,0,L|480:238,1,120.119999633423,8|8,0:0|0:0,0:0:0:0:
409,106,83534,1,8,0:0:0:0:
378,269,83671,1,8,0:0:0:0:
301,129,83808,1,8,0:0:0:0:
272,296,83945,1,8,0:0:0:0:
160,43,84082,6,0,L|212:166,1,120.119999633423,4|8,1:0|0:0,0:0:0:0:
160,328,84356,1,8,0:0:0:0:
114,190,84493,1,8,0:0:0:0:
272,296,84630,1,8,0:0:0:0:
301,129,84767,1,8,0:0:0:0:
480,238,84904,1,8,0:0:0:0:
450,49,85041,6,0,B|403:75|351:49|351:49|298:15|220:60,1,207.479997467285,4|0,1:0|0:0,0:0:0:0:
251,44,85315,1,8,0:0:0:0:
368,268,85452,1,8,0:0:0:0:
251,44,85726,5,8,0:0:0:0:
368,268,85863,1,8,0:0:0:0:
368,268,86137,6,0,B|299:254|299:254|229:275|229:275|132:258,1,222.039990852234,6|0,3:0|0:0,0:0:0:0:
218,76,86548,2,0,L|230:221,1,111.019995426117,10|0,0:0|0:0,0:0:0:0:
411,44,86822,2,0,L|399:189,1,111.019995426117,2|0,1:0|0:0,0:0:0:0:
311,57,87096,1,10,0:0:0:0:
138,196,87233,6,0,B|52:188|52:188|57:102|139:69,1,222.039990852234,6|0,3:0|0:0,0:0:0:0:
235,268,87644,2,0,P|203:331|158:353,1,111.019995426117,10|0,0:0|0:0,0:0:0:0:
203,118,87918,2,0,P|268:95|326:113,1,111.019995426117,2|0,1:0|0:0,0:0:0:0:
391,266,88192,1,10,0:0:0:0:
467,45,88329,6,0,L|481:270,1,222.039990852234,6|0,3:0|0:0,0:0:0:0:
380,125,88740,2,0,B|308:103|308:103|242:141,1,111.019995426117,10|0,0:0|0:0,0:0:0:0:
95,213,89014,2,0,B|167:191|167:191|233:229,1,111.019995426117,2|0,1:0|1:0,0:0:0:0:
293,343,89288,1,10,0:0:0:0:
312,189,89425,1,2,0:0:0:0:
292,354,89562,5,6,3:0:0:0:
328,33,89836,5,10,0:0:0:0:
382,291,90110,5,6,3:0:0:0:
305,271,90247,1,6,3:0:0:0:
230,253,90384,1,10,0:0:0:0:
138,177,90521,6,0,L|376:167,1,222.039990852234,6|0,3:0|1:0,0:0:0:0:
169,84,90932,2,0,L|47:116,1,111.019995426117,8|0,0:0|0:0,0:0:0:0:
124,287,91206,2,0,L|141:153,1,111.019995426117,0|0,1:0|0:0,0:0:0:0:
25,272,91480,2,0,L|68:386,1,111.019995426117,10|0,0:0|0:0,0:0:0:0:
223,231,91754,2,0,B|295:224|295:224|355:252|355:252|443:246,1,222.039990852234,6|10,3:0|0:0,0:0:0:0:
439,86,92165,2,0,P|392:135|375:195,1,111.019995426117,2|8,0:0|3:0,0:0:0:0:
238,57,92439,2,0,P|285:106|302:166,1,111.019995426117,2|8,0:0|0:0,0:0:0:0:
312,345,92713,6,0,P|294:270|191:336,1,222.039990852234,6|0,3:0|1:0,0:0:0:0:
394,285,93124,2,0,P|452:285|499:216,1,111.019995426117,10|0,0:0|0:0,0:0:0:0:
429,130,93397,1,2,1:0:0:0:
422,213,93534,1,2,1:0:0:0:
490,75,93671,2,0,P|434:46|378:66,1,111.019995426117,10|0,0:0|0:0,0:0:0:0:
350,161,93945,1,2,1:0:0:0:
429,130,94082,1,2,1:0:0:0:
258,84,94219,2,0,L|143:95,1,111.019995426117,10|0,0:0|0:0,0:0:0:0:
265,52,94493,2,0,L|150:63,1,111.019995426117,10|0,0:0|0:0,0:0:0:0:
273,22,94767,1,10,0:0:0:0:
217,268,94904,6,0,L|266:45,1,222.039990852234,6|0,3:0|0:0,0:0:0:0:
299,233,95315,2,0,L|417:221,1,111.019995426117,10|0,0:0|0:0,0:0:0:0:
155,186,95589,2,0,L|37:174,1,111.019995426117,2|0,1:0|0:0,0:0:0:0:
334,149,95863,2,0,L|452:137,1,111.019995426117,10|0,0:0|1:0,0:0:0:0:
176,100,96137,2,0,L|58:88,1,111.019995426117,2|0,1:0|0:0,0:0:0:0:
361,61,96411,1,10,0:0:0:0:
254,33,96548,1,2,0:0:0:0:
254,128,96685,1,4,3:0:0:0:
254,136,96822,1,6,3:0:0:0:
453,15,96959,1,8,0:0:0:0:
172,175,97096,6,0,B|177:328|177:328|191:281|247:271,1,222.039990852234,6|0,3:0|1:0,0:0:0:0:
396,203,97507,2,0,P|457:224|483:271,1,111.019995426117,8|0,0:0|0:0,0:0:0:0:
317,356,97781,2,0,L|313:236,1,111.019995426117,0|0,1:0|1:0,0:0:0:0:
399,92,98055,2,0,L|395:202,1,111.019995426117,8|0,0:0|0:0,0:0:0:0:
304,34,98329,5,6,3:0:0:0:
317,356,98603,5,10,0:0:0:0:
200,90,98877,5,10,0:0:0:0:
306,120,99014,1,10,0:0:0:0:
407,152,99151,1,10,0:0:0:0:
227,171,99288,6,0,P|168:213|273:218,1,222.039990852234,6|0,3:0|1:0,0:0:0:0:
127,125,99699,2,0,P|87:189|89:249,1,111.019995426117,10|0,0:0|0:0,0:0:0:0:
120,315,99973,1,2,1:0:0:0:
214,354,100110,1,2,1:0:0:0:
363,300,100247,2,0,P|371:232|342:186,1,111.019995426117,10|6,0:0|3:0,0:0:0:0:
457,258,100521,5,4,3:0:0:0:
84,222,100795,5,10,0:0:0:0:
367,121,101069,5,6,3:0:0:0:
352,196,101206,1,6,3:0:0:0:
335,271,101343,1,10,0:0:0:0:
279,126,101480,6,0,B|189:94|191:171|73:124,1,185.640001133057,6|0,3:0|1:0,0:0:0:0:
236,199,101891,2,0,P|245:262|226:317,1,92.8200005665283,10|0,0:0|0:0,0:0:0:0:
144,62,102165,2,0,P|206:38|268:40,1,92.8200005665283,10|0,0:0|0:0,0:0:0:0:
279,126,102439,1,2,0:0:0:0:
362,32,102576,2,0,L|372:204,1,167.439994379151,6|8,3:0|0:0,0:0:0:0:
449,117,102987,1,10,0:0:0:0:
270,125,103124,1,8,3:0:0:0:
381,206,103260,1,10,3:0:0:0:
300,251,103397,1,2,1:0:0:0:
369,298,103534,1,2,1:0:0:0:
324,331,103671,1,2,1:0:0:0:
202,180,103808,6,0,P|187:109|338:70,1,222.039990852234,6|8,1:0|0:0,0:0:0:0:
503,286,104219,2,0,B|371:303|371:303|296:248,1,222.039990852234,6|8,1:0|0:0,0:0:0:0:
422,30,104630,2,0,B|405:217|405:217|384:187,1,222.039990852234,6|8,1:0|0:0,0:0:0:0:
183,59,105041,2,0,B|227:168|111:143|193:311,1,222.039990852234,6|8,1:0|0:0,0:0:0:0:
109,107,105452,1,10,0:0:0:0:
246,214,105589,1,8,0:0:0:0:
115,112,105726,1,10,0:0:0:0:
251,217,105863,1,8,0:0:0:0:
94,250,106000,5,10,0:0:0:0:
223,126,106137,1,0,1:0:0:0:
230,121,106274,1,0,1:0:0:0:
324,236,106411,5,10,0:0:0:0:
175,194,106548,1,0,1:0:0:0:
166,192,106685,1,0,1:0:0:0:
301,57,106822,5,10,0:0:0:0:
254,205,106959,1,0,1:0:0:0:
251,217,107096,1,0,1:0:0:0:
388,160,107233,5,10,0:0:0:0:
379,129,107302,1,8,0:0:0:0:
361,107,107370,1,10,0:0:0:0:
370,237,107507,1,10,0:0:0:0:
405,37,107644,1,10,0:0:0:0:
440,280,107781,1,10,0:0:0:0:
228,137,116959,6,0,P|256:170|272:252,1,112.839995523316,2|0,1:0|0:0,0:0:0:0:
253,321,117370,1,2,0:0:0:0:
335,283,117507,2,0,L|458:279,1,112.839995523316,0|2,3:0|0:0,0:0:0:0:
502,204,117918,2,0,L|454:197,1,28.2099988808289,2|0,0:0|0:0,0:0:0:0:
389,187,118055,1,0,0:0:0:0:
332,128,118192,2,0,P|371:105|445:130,1,112.839995523316,0|2,1:0|0:0,0:0:0:0:
389,187,118603,2,0,L|384:254,1,56.4199977616578,0|0,3:0|0:0,0:0:0:0:
282,233,118877,2,0,L|286:289,1,56.4199977616578,2|0,0:0|0:0,0:0:0:0:
196,263,119151,6,0,P|148:273|78:240,1,112.839995523316,2|2,1:0|0:0,0:0:0:0:
22,184,119562,2,0,P|60:170|93:171,1,56.4199977616578,2|0,0:0|3:0,0:0:0:0:
80,80,119836,2,0,P|107:83|166:150,1,112.839995523316,2|0,0:0|0:0,0:0:0:0:
228,79,120247,2,0,L|292:71,1,56.4199977616578,2|0,0:0|1:0,0:0:0:0:
333,144,120521,2,0,L|388:150,1,56.4199977616578,0|0,0:0|0:0,0:0:0:0:
457,65,120795,2,0,P|473:102|475:129,1,56.4199977616578,10|0,0:0|0:0,0:0:0:0:
443,210,121069,2,0,P|430:235|424:262,1,56.4199977616578,2|0,0:0|0:0,0:0:0:0:
456,351,121343,6,0,L|386:341,1,56.4199977616578,2|2,1:0|0:0,0:0:0:0:
321,260,121617,2,0,L|265:267,1,56.4199977616578,2|2,0:0|0:0,0:0:0:0:
160,354,121891,2,0,P|170:300|141:234,1,112.839995523316,2|0,3:0|0:0,0:0:0:0:
81,188,122302,2,0,P|62:138|67:125,1,56.4199977616578,2|0,0:0|0:0,0:0:0:0:
103,58,122576,2,0,L|235:49,1,112.839995523316,2|2,1:0|0:0,0:0:0:0:
282,113,122987,2,0,L|357:120,1,56.4199977616578,0|0,3:0|0:0,0:0:0:0:
416,69,123260,1,2,0:0:0:0:
460,180,123397,1,10,0:0:0:0:
459,217,123466,1,8,0:0:0:0:
457,258,123534,5,8,0:0:0:0:
503,98,123671,1,8,0:0:0:0:
378,273,123808,1,0,1:0:0:0:
275,170,123945,2,0,P|335:155|372:154,1,92.8200005665283,4|0,3:0|0:0,0:0:0:0:
149,55,124219,2,0,P|195:58|239:71,1,92.8200005665283,8|0,3:0|0:0,0:0:0:0:
68,136,124493,1,0,0:0:0:0:
259,14,124630,6,0,L|281:278,1,222.039990852234,12|0,0:0|1:0,0:0:0:0:
503,53,125041,2,0,L|481:317,1,222.039990852234,12|0,0:0|1:0,0:0:0:0:
304,107,125452,2,0,L|326:371,1,222.039990852234,12|0,0:0|1:0,0:0:0:0:
480,6,125863,2,0,L|462:320,1,277.549988565293,12|0,0:0|0:0,0:0:0:0:
464,283,126274,2,0,B|340:245|340:245|288:260,1,166.529993139176,8|0,0:0|0:0,0:0:0:0:
304,255,126548,1,8,0:0:0:0:
71,218,126685,6,0,B|152:192|152:192|247:200|247:200|326:172,1,261.423913887038,4|0,1:0|0:0,0:0:0:0:
323,172,128329,1,0,1:0:0:0:
226,103,128466,5,8,0:0:0:0:
156,280,128603,1,8,0:0:0:0:
156,280,129014,6,0,P|192:308|376:279,1,238.743843161235,4|0,1:0|0:0,0:0:0:0:
370,284,130110,6,0,P|336:290|406:199,1,306.993854470113,4|0,1:0|0:0,0:0:0:0:
395,180,131206,6,0,P|373:146|433:195,1,354.899997833862,4|0,1:0|0:0,0:0:0:0:
454,192,132302,6,0,P|418:234|455:319,1,141.049994404145,8|0,0:0|0:0,0:0:0:0:
440,310,132713,2,0,P|397:273|305:313,1,163.800003999024,8|0,0:0|0:0,0:0:0:0:
306,309,133124,2,0,P|321:264|291:202,1,98.2800023994141,8|0,0:0|0:0,0:0:0:0:
305,217,133397,6,0,L|300:28,1,180.179999450134,4|0,3:0|0:0,0:0:0:0:
300,36,133671,2,0,P|267:115|182:123,1,166.529993139176,10|8,0:0|0:0,0:0:0:0:
194,127,133945,2,0,L|184:249,1,111.019995426117,2|0,1:0|1:0,0:0:0:0:
254,345,134219,2,0,B|160:310|184:384|77:336,1,166.529993139176,10|0,0:0|0:0,0:0:0:0:
93,342,134493,2,0,P|152:322|128:222,1,166.529993139176,6|0,3:0|0:0,0:0:0:0:
145,231,134767,1,10,0:0:0:0:
335,286,134904,2,0,B|431:128|431:128|399:63,1,222.039990852234,6|0,3:0|1:0,0:0:0:0:
235,146,135315,2,0,P|300:187|289:107,1,166.529993139176,10|0,0:0|0:0,0:0:0:0:
314,124,135589,6,0,L|141:95,1,166.529993139176,6|0,3:0|0:0,0:0:0:0:
150,96,135863,1,10,0:0:0:0:
168,335,136000,2,0,P|192:283|171:228,1,111.019995426117,0|2,1:0|0:0,0:0:0:0:
67,131,136274,1,0,1:0:0:0:
9,309,136411,2,0,L|135:273,1,111.019995426117,10|0,0:0|3:0,0:0:0:0:
271,50,136685,2,0,B|359:39|359:39|410:126,1,166.529993139176,6|0,3:0|0:0,0:0:0:0:
398,106,136959,2,0,B|400:189|400:189|387:223,1,111.019995426117,8|2,0:0|1:0,0:0:0:0:
293,384,137233,2,0,B|295:306|295:306|283:273,1,111.019995426117,6|0,3:0|1:0,0:0:0:0:
171,116,137507,1,8,0:0:0:0:
191,324,137644,1,8,0:0:0:0:
294,180,137781,6,0,B|195:161|231:246|98:197,1,166.529993139176,4|0,3:0|0:0,0:0:0:0:
135,208,138055,2,0,B|96:166|96:166|80:91,1,111.019995426117,10|0,0:0|0:0,0:0:0:0:
375,166,138329,2,0,B|370:220|370:220|318:273,1,111.019995426117,2|0,1:0|1:0,0:0:0:0:
241,69,138603,2,0,B|306:46|306:46|379:49,1,111.019995426117,10|0,0:0|0:0,0:0:0:0:
495,283,138877,2,0,L|298:255,1,166.529993139176,6|0,3:0|0:0,0:0:0:0:
330,259,139151,1,10,0:0:0:0:
113,348,139288,2,0,P|200:356|247:267,1,166.529993139176,6|0,3:0|0:0,0:0:0:0:
246,299,139562,1,0,1:0:0:0:
165,133,139699,2,0,L|156:244,1,111.019995426117,10|0,0:0|0:0,0:0:0:0:
263,67,139973,6,0,B|215:64|215:64|157:46|157:46|80:45,1,166.529993139176,6|0,3:0|0:0,0:0:0:0:
99,45,140247,2,0,L|66:162,1,111.019995426117,10|0,0:0|0:0,0:0:0:0:
300,171,140521,2,0,L|260:61,1,111.019995426117,2|0,1:0|1:0,0:0:0:0:
75,246,140795,2,0,P|110:307|229:278,1,166.529993139176,10|0,0:0|0:0,0:0:0:0:
198,309,141069,2,0,P|277:267|384:315,1,166.529993139176,6|0,3:0|0:0,0:0:0:0:
348,282,141343,1,8,0:0:0:0:
471,137,141480,2,0,P|443:78|396:139,1,166.529993139176,6|0,3:0|0:0,0:0:0:0:
394,134,141753,1,0,1:0:0:0:
234,67,141890,2,0,L|60:53,1,166.529993139176,8|0,0:0|0:0,0:0:0:0:
69,53,142164,6,0,P|117:139|96:205,1,166.529993139176,4|0,3:0|0:0,0:0:0:0:
100,199,142438,2,0,L|274:185,1,166.529993139176,10|0,0:0|0:0,0:0:0:0:
265,185,142713,2,0,P|315:209|393:214,1,111.019995426117,2|0,1:0|1:0,0:0:0:0:
478,355,142986,2,0,P|418:306|317:317,1,166.529993139176,10|0,0:0|0:0,0:0:0:0:
333,308,143260,2,0,P|285:351|160:335,1,180.179999450134,6|0,3:0|0:0,0:0:0:0:
175,345,143534,1,8,0:0:0:0:
58,123,143671,2,0,L|71:317,1,180.179999450134,6|0,3:0|0:0,0:0:0:0:
71,302,143945,1,0,1:0:0:0:
150,146,144082,6,0,B|212:145|212:145|266:175|266:175|358:172,1,197.469992165802,14|0,0:0|0:0,0:0:0:0:
339,172,144630,6,0,P|282:121|367:111,1,180.179999450134,8|0,0:0|0:0,0:0:0:0:
350,91,144904,2,0,L|474:80,1,120.119999633423,4|8,3:0|0:0,0:0:0:0:
387,263,145178,2,0,L|263:251,1,120.119999633423,8|8,0:0|0:0,0:0:0:0:
130,38,145452,2,0,P|169:112|172:164,1,120.119999633423,4|0,3:0|0:0,0:0:0:0:
234,43,145726,1,0,1:0:0:0:
94,187,145863,2,0,P|76:265|94:362,1,180.179999450134,4|0,3:0|0:0,0:0:0:0:
94,362,146137,2,0,L|160:368,5,60.0599998167114,4|0|4|0|4|0,3:0|3:0|3:0|3:0|3:0|3:0,0:0:0:0:
159,289,146548,6,0,L|345:285,1,180.179999450134,4|0,1:0|0:0,0:0:0:0:
339,285,146822,1,10,0:0:0:0:
201,91,146959,2,0,L|217:220,1,120.119999633423,2|8,0:0|0:0,0:0:0:0:
423,361,147233,2,0,L|437:241,1,120.119999633423,2|0,0:0|1:0,0:0:0:0:
354,41,147507,2,0,P|349:112|308:168,1,120.119999633423,6|0,3:0|0:0,0:0:0:0:
162,343,147781,2,0,P|133:290|133:241,1,111.019995426117,10|0,0:0|0:0,0:0:0:0:
196,89,148055,1,2,1:0:0:0:
351,307,148192,2,0,B|286:319|286:319|232:286,1,120.119999633423,8|2,0:0|0:0,0:0:0:0:
84,105,148466,2,0,B|130:76|130:76|195:88,1,120.119999633423,8|0,0:0|0:0,0:0:0:0:
395,205,148740,6,0,P|319:223|268:190,1,120.119999633423,6|8,1:0|0:0,0:0:0:0:
328,41,149014,1,2,1:0:0:0:
468,298,149151,2,0,L|481:169,1,111.019995426117,6|0,3:0|0:0,0:0:0:0:
198,327,149425,2,0,L|185:198,1,111.019995426117,6|0,3:0|0:0,0:0:0:0:
337,323,149699,2,0,L|337:111,1,166.529993139176,6|0,1:0|0:0,0:0:0:0:
337,156,149973,1,8,0:0:0:0:
243,270,150110,1,2,0:0:0:0:
154,97,150247,1,0,1:0:0:0:
15,194,150384,2,0,P|75:186|131:168,1,101.920001244141,10|0,0:0|3:0,0:0:0:0:
243,270,150658,2,0,P|183:262|138:247,1,92.8200005665283,6|4,3:0|3:0,0:0:0:0:
211,17,150932,6,0,P|239:102|246:187,1,166.529993139176,4|0,1:0|0:0,0:0:0:0:
246,178,151206,1,10,0:0:0:0:
317,47,151343,2,0,P|418:33|449:40,1,111.019995426117,2|8,0:0|0:0,0:0:0:0:
417,284,151617,2,0,P|392:224|391:156,1,111.019995426117,2|0,0:0|1:0,0:0:0:0:
140,104,151891,2,0,P|157:171|119:305,1,180.179999450134,10|0,0:0|0:0,0:0:0:0:
135,278,152165,1,8,0:0:0:0:
66,144,152302,2,0,P|60:76|98:33,1,120.119999633423,2|0,1:0|1:0,0:0:0:0:
250,116,152576,2,0,L|125:102,1,111.019995426117,8|2,0:0|0:0,0:0:0:0:
321,44,152850,2,0,L|340:168,1,101.920001244141,4|0,3:0|0:0,0:0:0:0:
234,281,153124,6,0,L|252:83,1,166.529993139176,6|0,1:0|0:0,0:0:0:0:
249,115,153397,1,10,0:0:0:0:
301,320,153534,2,0,P|232:363|158:305,1,166.529993139176,6|0,3:0|0:0,0:0:0:0:
165,241,153808,2,0,P|234:198|308:256,1,166.529993139176,6|0,3:0|0:0,0:0:0:0:
300,237,154082,2,0,B|374:258|374:258|440:193|460:100,1,240.239999266846,14|8,0:0|0:0,0:0:0:0:
321,34,154493,2,0,P|327:124|344:158,1,120.119999633423,10|4,0:0|3:0,0:0:0:0:
473,246,154767,1,6,3:0:0:0:
455,118,154904,1,2,1:0:0:0:
402,199,155041,1,0,1:0:0:0:
398,206,155178,1,0,1:0:0:0:
239,131,155315,5,2,1:0:0:0:
115,226,155452,2,0,L|327:201,1,203.840002488281,8|0,0:0|1:0,0:0:0:0:
158,41,155863,2,0,L|155:165,1,101.920001244141,8|0,0:0|0:0,0:0:0:0:
197,297,156137,1,0,1:0:0:0:
239,131,156274,2,0,L|356:119,1,101.920001244141,0|0,1:0|0:0,0:0:0:0:
416,264,156548,1,10,0:0:0:0:
387,52,156685,2,0,P|424:117|416:156,1,101.920001244141,0|0,0:0|1:0,0:0:0:0:
326,286,156959,2,0,P|328:235|360:196,1,101.920001244141,10|0,0:0|0:0,0:0:0:0:
394,37,157233,2,0,P|431:102|423:141,1,101.920001244141,10|0,0:0|0:0,0:0:0:0:
385,329,157507,6,0,L|265:338,1,101.920001244141,2|8,1:0|0:0,0:0:0:0:
163,185,157781,1,2,0:0:0:0:
142,319,157918,1,2,1:0:0:0:
91,109,158055,2,0,L|220:86,1,101.920001244141,8|0,0:0|0:0,0:0:0:0:
354,248,158329,2,0,L|225:225,1,101.920001244141,0|8,1:0|0:0,0:0:0:0:
306,39,158603,1,8,0:0:0:0:
327,154,158740,1,4,3:0:0:0:
329,165,158877,1,4,3:0:0:0:
412,51,159014,2,0,L|418:107,1,50.9600006220703,4|0,3:0|3:0,0:0:0:0:
427,221,159151,2,0,L|416:86,1,120.119999633423,8|0,0:0|0:0,0:0:0:0:
502,27,159425,2,0,L|511:146,1,120.119999633423,10|2,0:0|0:0,0:0:0:0:
354,321,159699,6,0,L|215:301,1,120.119999633423,10|0,0:0|1:0,0:0:0:0:
146,256,159973,1,2,1:0:0:0:
291,27,160110,2,0,L|309:160,1,120.119999633423,10|0,0:0|1:0,0:0:0:0:
288,232,160384,1,2,1:0:0:0:
220,92,160521,1,8,0:0:0:0:
486,161,160658,2,0,L|290:144,1,180.179999450134,6|0,1:0|0:0,0:0:0:0:
306,145,160932,1,8,0:0:0:0:
181,191,161069,1,8,0:0:0:0:
220,92,161206,1,8,0:0:0:0:
264,218,161343,2,0,P|268:274|260:328,1,101.920001244141,12|4,3:0|3:0,0:0:0:0:
110,250,161617,2,0,P|98:198|106:148,1,101.920001244141,2|2,1:0|1:0,0:0:0:0:
403,43,161891,6,0,L|391:205,1,129.219993493256,10|0,0:0|1:0,0:0:0:0:
417,261,162165,1,2,1:0:0:0:
247,86,162302,2,0,P|171:69|105:165,1,193.829990239884,14|0,0:0|0:0,0:0:0:0:
105,151,162576,1,10,0:0:0:0:
173,320,162713,1,8,0:0:0:0:
393,171,162850,2,0,L|193:159,1,193.829990239884,6|0,1:0|0:0,0:0:0:0:
199,159,163124,1,8,0:0:0:0:
361,253,163260,2,0,P|443:245|472:205,1,129.219993493256,10|0,0:0|1:0,0:0:0:0:
377,51,163534,2,0,L|398:208,1,120.119999633423,14|8,3:0|3:0,0:0:0:0:
455,322,163808,2,0,L|469:212,1,111.019995426117,6|0,3:0|0:0,0:0:0:0:
287,89,164082,6,0,B|225:83|225:83|150:101|150:101|74:95,1,193.829990239884,6|0,1:0|0:0,0:0:0:0:
95,96,164356,1,8,0:0:0:0:
233,165,164493,2,0,P|276:228|263:337,1,180.179999450134,6|0,1:0|0:0,0:0:0:0:
267,327,164767,1,8,0:0:0:0:
348,166,164904,2,0,P|391:106|443:185,1,166.529993139176,6|0,1:0|0:0,0:0:0:0:
450,152,165178,1,8,0:0:0:0:
287,50,165315,2,0,L|76:39,1,207.479997467285,2|0,1:0|0:0,0:0:0:0:
79,39,165589,1,8,0:0:0:0:
111,158,165726,1,8,0:0:0:0:
68,37,165863,1,8,0:0:0:0:
102,154,166000,1,8,0:0:0:0:
53,35,166137,1,8,0:0:0:0:
16,152,166274,5,10,0:0:0:0:
194,161,166411,1,10,0:0:0:0:
13,141,166548,1,8,0:0:0:0:
175,81,166685,6,0,P|260:109|273:167,1,138.319998311523,6|8,1:0|0:0,0:0:0:0:
237,309,166959,1,8,0:0:0:0:
332,77,167096,6,0,P|372:156|340:207,1,138.319998311523,6|8,1:0|0:0,0:0:0:0:
207,327,167370,1,8,0:0:0:0:
443,180,167507,6,0,P|415:265|356:278,1,138.319998311523,6|0,1:0|0:0,0:0:0:0:
179,343,167781,1,8,0:0:0:0:
104,298,167918,1,2,1:0:0:0:
81,224,168055,1,4,3:0:0:0:
87,186,168192,1,2,1:0:0:0:
99,162,168329,1,0,1:0:0:0:
254,230,168466,6,0,P|177:238|169:235,3,69.1599991557617,14|0|0|0,0:0|3:0|3:0|3:0,0:0:0:0:
210,160,168740,2,0,L|212:87,1,69.1599991557617,4|0,1:0|3:0,0:0:0:0:
289,35,168877,6,0,P|307:98|305:114,3,60.0599998167114,14|0|0|0,0:0|3:0|3:0|3:0,0:0:0:0:
312,167,169151,2,0,L|393:153,1,60.0599998167114,4|0,3:0|3:0,0:0:0:0:
457,181,169288,6,0,P|459:124|452:99,3,50.9600006220703,14|0|0|0,0:0|3:0|3:0|3:0,0:0:0:0:
403,242,169562,2,0,L|416:321,1,50.9600006220703,4|0,3:0|3:0,0:0:0:0:
360,353,169699,6,0,P|292:357|288:355,3,64.609996746628,14|0|0|0,0:0|3:0|3:0|3:0,0:0:0:0:
319,280,169973,2,0,P|252:279|243:283,1,64.609996746628,4|0,3:0|3:0,0:0:0:0:
191,308,170110,5,10,0:0:0:0:
237,37,170384,5,10,0:0:0:0:
191,308,170521,6,0,P|129:301|252:280,1,686.139995812134,6|0,1:0|0:0,0:0:0:0:
255,276,172576,5,10,0:0:0:0:
175,187,172713,1,10,0:0:0:0:
