osu file format v14

[General]
AudioFilename: audio.mp3
AudioLeadIn: 0
PreviewTime: 128877
Countdown: 0
SampleSet: Soft
StackLeniency: 0.7
Mode: 0
LetterboxInBreaks: 0
WidescreenStoryboard: 1

[Editor]
Bookmarks: 108192,116959
DistanceSpacing: 1
BeatDivisor: 4
GridSize: 8
TimelineZoom: 2.3

[Metadata]
Title:Comet Lucifer ~The Seed and the Sower~
TitleUnicode:コメットルシファー ~The Seed and the Sower~
Artist:fhana
ArtistUnicode:fhána
Creator:Sotarks
Version:Akitoshi's Normal
Source:コメット・ルシファー
Tags:opening op junichi sato yuxuki waga kevin mitsunaga towana toybot garden akitoshi corinn
BeatmapID:1385698
BeatmapSetID:651869

[Difficulty]
HPDrainRate:4
CircleSize:3.5
OverallDifficulty:4
ApproachRate:5
SliderMultiplier:0.849999999999999
SliderTickRate:1

[Events]
//Background and Video events
0,0,"bg.jpg",0,0
//Break Periods
2,108192,115759
//Storyboard Layer 0 (Background)
//Storyboard Layer 1 (Fail)
//Storyboard Layer 2 (Pass)
//Storyboard Layer 3 (Foreground)
//Storyboard Sound Samples

[TimingPoints]
1084,273.972602739726,4,2,22,42,1,0
1084,-100,4,2,22,42,0,0
1494,-100,4,2,22,42,0,0
1905,-100,4,2,22,42,0,0
2316,-100,4,2,22,42,0,0
2727,-100,4,2,22,42,0,0
3001,-100,4,2,22,42,0,0
3275,-100,4,2,22,42,0,0
3686,-100,4,2,22,42,0,0
4097,-100,4,2,22,42,0,0
4508,-100,4,2,22,42,0,0
5330,-100,4,2,22,42,0,0
10399,-100,4,2,22,42,0,0
10810,-100,4,2,22,42,0,0
11084,-100,4,2,22,42,0,0
11905,-100,4,2,22,52,0,0
12453,-100,4,2,22,42,0,0
12727,-100,4,2,22,42,0,0
13139,272.66530334015,4,2,22,72,1,0
13139,-100,4,2,22,72,0,0
15524,-100,4,2,22,5,0,0
15592,-100,4,2,22,72,0,0
15933,-100,4,2,22,5,0,0
16001,-100,4,2,22,72,0,0
17501,274.473924977127,4,2,22,72,1,0
17501,-100,4,2,22,72,0,0
19696,-100,4,2,22,82,0,0
19902,-100,4,2,22,5,0,0
19971,-100,4,2,22,82,0,0
20314,-100,4,2,22,5,0,0
20382,-100,4,2,22,82,0,0
20588,-100,4,2,22,5,0,0
20657,-100,4,2,22,52,0,0
20863,-100,4,2,22,5,0,0
20931,-100,4,2,22,82,0,0
21069,-100,4,2,22,82,0,0
21892,273.972602739726,4,2,22,52,1,0
21892,-100,4,2,22,52,0,0
30659,-100,4,2,22,62,0,0
34974,-100,4,2,22,5,0,0
35042,-100,4,2,22,62,0,0
38330,-100,4,2,22,52,0,0
38535,-100,4,2,22,5,0,0
38604,-100,4,2,22,52,0,0
38809,-100,4,2,22,5,0,0
38878,-100,4,2,22,52,0,0
39083,-100,4,2,22,5,0,0
39152,-100,4,2,22,52,0,0
39357,-100,4,2,22,5,0,0
39426,-100,4,2,22,52,0,0
39837,-100,4,2,22,52,0,0
40248,-100,4,2,22,52,0,0
40453,-100,4,2,22,5,0,0
40522,-100,4,2,22,52,0,0
40727,-100,4,2,22,5,0,0
40796,-100,4,2,22,52,0,0
41001,-100,4,2,22,5,0,0
41070,-100,4,2,22,52,0,0
41275,-100,4,2,22,5,0,0
41344,-100,4,2,22,52,0,0
43672,-100,4,2,22,52,0,0
44083,-100,4,2,22,52,0,0
44631,-100,4,2,22,52,0,0
44837,-100,4,2,22,5,0,0
44905,-100,4,2,22,62,0,0
46001,-100,4,2,22,72,0,0
47097,-100,4,2,22,82,0,0
47302,-100,4,2,22,5,0,0
47371,-100,4,2,22,82,0,0
47508,-100,4,2,22,72,0,0
47713,-100,4,2,22,5,0,0
47782,-100,4,2,22,72,0,0
47919,-100,4,2,22,62,0,0
48124,-100,4,2,22,5,0,0
48193,-100,4,2,22,62,0,0
48330,-100,4,2,22,82,0,0
48672,-100,4,2,22,5,0,0
48741,-100,4,2,22,82,0,0
48946,-100,4,2,22,5,0,0
49015,-100,4,2,22,82,0,0
49220,-100,4,2,22,5,0,0
49289,-100,4,2,22,82,0,1
49494,-100,4,2,22,5,0,1
49563,-100,4,2,22,82,0,1
49768,-100,4,2,22,5,0,1
49837,-100,4,2,22,82,0,1
50316,-100,4,2,22,5,0,1
50385,-100,4,2,22,82,0,1
50590,-100,4,2,22,5,0,1
50659,-100,4,2,22,82,0,1
51686,-100,4,2,22,5,0,1
51755,-100,4,2,22,82,0,1
52782,-100,4,2,22,5,0,1
52850,-100,4,2,22,82,0,1
52987,-100,4,2,22,82,0,1
53193,-100,4,2,22,5,0,1
53261,-100,4,2,22,82,0,1
53604,-100,4,2,22,5,0,1
53672,-100,4,2,22,82,0,1
53878,-100,4,2,22,5,0,1
53946,-100,4,2,22,82,0,1
54152,-100,4,2,22,5,0,1
54220,-100,4,2,22,82,0,1
54700,-100,4,2,22,5,0,1
54768,-100,4,2,22,82,0,1
54974,-100,4,2,22,5,0,1
55042,-100,4,2,22,82,0,1
55796,-100,4,2,22,5,0,1
55864,-100,4,2,22,82,0,1
56070,-100,4,2,22,5,0,1
56138,-100,4,2,22,82,0,1
57165,-100,4,2,22,5,0,1
57234,-100,4,2,22,82,0,1
58261,-100,4,2,22,5,0,1
58330,-100,4,2,22,82,0,1
59357,-100,4,2,22,5,0,1
59426,-100,4,2,22,82,0,1
59768,-100,4,2,22,5,0,1
59837,-100,4,2,22,82,0,1
60453,-100,4,2,22,5,0,1
60522,-100,4,2,22,82,0,1
61275,-100,4,2,22,5,0,1
61344,-100,4,2,22,82,0,1
61549,-100,4,2,22,5,0,1
61618,-100,4,2,22,82,0,1
61960,-100,4,2,22,5,0,1
62028,-100,4,2,22,82,0,1
62371,-100,4,2,22,5,0,1
62439,-100,4,2,22,82,0,1
62645,-100,4,2,22,5,0,1
62713,-100,4,2,22,82,0,1
62919,-100,4,2,22,5,0,1
62987,-100,4,2,22,82,0,1
63467,-100,4,2,22,5,0,1
63535,-100,4,2,22,82,0,1
63741,-100,4,2,22,5,0,1
63809,-100,4,2,22,82,0,1
64152,-100,4,2,22,5,0,1
64220,-100,4,2,22,82,0,1
64357,-100,4,2,22,82,0,1
64837,-100,4,2,22,5,0,1
64905,-100,4,2,22,82,0,1
65111,-100,4,2,22,5,0,1
65179,-100,4,2,22,82,0,1
65385,-100,4,2,22,5,0,1
65453,-100,4,2,22,82,0,1
66344,-100,4,2,22,5,0,1
66412,-100,4,2,22,82,0,1
67234,-100,4,2,22,82,0,1
67919,266.666666666667,4,2,22,82,1,0
68719,277.777777777778,4,2,22,82,1,0
68719,-100,4,2,22,82,0,0
69066,-100,4,2,22,5,0,0
69135,-100,4,2,22,82,0,0
69482,-100,4,2,22,5,0,0
69552,-100,4,2,22,82,0,0
69830,283.018867924528,4,2,22,82,1,0
69830,-100,4,2,22,82,0,0
69900,-100,4,2,22,5,0,0
69971,-100,4,2,22,82,0,0
70183,-100,4,2,22,5,0,0
70254,-100,4,2,22,82,0,0
70396,270.27027027027,4,2,22,82,1,0
70396,-100,4,2,22,82,0,0
71139,-100,4,2,22,5,0,0
71206,-100,4,2,22,82,0,0
71477,274.599542334096,4,2,22,82,1,0
71477,-100,4,2,22,82,0,0
72094,-100,4,2,22,5,0,0
72163,-100,4,2,22,82,0,0
73124,273.972602739726,4,2,22,82,1,0
73124,-100,4,2,22,82,0,0
73466,-100,4,2,22,5,0,0
73534,-100,4,2,22,82,0,0
73877,-100,4,2,22,5,0,0
73945,-100,4,2,22,82,0,0
74288,-100,4,2,22,5,0,0
74356,-100,4,2,22,82,0,0
74562,-100,4,2,22,5,0,0
74630,-100,4,2,22,82,0,0
75521,-100,4,2,22,5,0,0
75589,-100,4,2,22,82,0,0
75795,-100,4,2,22,5,0,0
75863,-100,4,2,22,82,0,0
76069,-100,4,2,22,5,0,0
76137,-100,4,2,22,82,0,0
76480,-100,4,2,22,5,0,0
76548,-100,4,2,22,82,0,0
80178,-100,4,2,22,5,0,0
80247,-100,4,2,22,82,0,0
80795,-100,4,2,22,82,0,0
81069,-100,4,2,22,82,0,0
81822,-100,4,2,22,5,0,0
81891,-100,4,2,22,52,0,1
82165,-100,4,2,22,62,0,1
82713,-100,4,2,22,72,0,1
83534,-100,4,2,22,82,0,1
84082,-100,4,2,22,92,0,1
85041,-100,4,2,22,82,0,1
85247,-100,4,2,22,5,0,1
85315,-100,4,2,22,82,0,1
85521,-100,4,2,22,82,0,0
85726,-100,4,2,22,82,0,1
85932,-100,4,2,22,82,0,0
86137,-100,4,2,22,72,0,0
100384,-100,4,2,22,72,0,0
101480,-100,4,2,22,72,0,0
102576,-100,4,2,22,72,0,0
103808,-100,4,2,22,72,0,0
116959,-100,4,2,22,42,0,0
123397,-100,4,2,22,62,0,0
124630,-100,4,2,22,72,0,0
126206,-100,4,2,22,5,0,0
126274,-100,4,2,22,72,0,0
126480,-100,4,2,22,5,0,0
126548,-100,4,2,22,72,0,0
126685,-100,4,2,22,72,0,0
128260,-100,4,2,22,5,0,0
128329,-100,4,2,22,72,0,0
129014,-100,4,2,22,42,0,0
130041,-100,4,2,22,5,0,0
130110,-100,4,2,22,42,0,0
131137,-100,4,2,22,5,0,0
131206,-100,4,2,22,42,0,0
132233,-100,4,2,22,5,0,0
132302,-100,4,2,22,52,0,0
132644,-100,4,2,22,5,0,0
132713,-100,4,2,22,62,0,0
133055,-100,4,2,22,5,0,0
133124,-100,4,2,22,72,0,0
133329,-100,4,2,22,5,0,0
133397,-100,4,2,22,82,0,1
133603,-100,4,2,22,5,0,1
133671,-100,4,2,22,82,0,1
133877,-100,4,2,22,5,0,1
133945,-100,4,2,22,82,0,1
134425,-100,4,2,22,5,0,1
134493,-100,4,2,22,82,0,1
134699,-100,4,2,22,5,0,1
134767,-100,4,2,22,82,0,1
135521,-100,4,2,22,5,0,1
135589,-100,4,2,22,82,0,1
135795,-100,4,2,22,5,0,1
135863,-100,4,2,22,82,0,1
136890,-100,4,2,22,5,0,1
136959,-100,4,2,22,82,0,1
137986,-100,4,2,22,5,0,1
138055,-100,4,2,22,82,0,1
139082,-100,4,2,22,5,0,1
139151,-100,4,2,22,82,0,1
139493,-100,4,2,22,5,0,1
139562,-100,4,2,22,82,0,1
140178,-100,4,2,22,5,0,1
140247,-100,4,2,22,82,0,1
141000,-100,4,2,22,5,0,1
141069,-100,4,2,22,82,0,1
141274,-100,4,2,22,5,0,1
141343,-100,4,2,22,82,0,1
141685,-100,4,2,22,5,0,1
141753,-100,4,2,22,82,0,1
142096,-100,4,2,22,5,0,1
142164,-100,4,2,22,82,0,1
142370,-100,4,2,22,5,0,1
142438,-100,4,2,22,82,0,1
142644,-100,4,2,22,5,0,1
142712,-100,4,2,22,82,0,1
143192,-100,4,2,22,5,0,1
143260,-100,4,2,22,82,0,1
143466,-100,4,2,22,5,0,1
143534,-100,4,2,22,82,0,1
143877,-100,4,2,22,5,0,1
143945,-100,4,2,22,82,0,1
144082,-100,4,2,22,82,0,1
144562,-100,4,2,22,5,0,1
144630,-100,4,2,22,82,0,1
144836,-100,4,2,22,5,0,1
144904,-100,4,2,22,82,0,1
146069,-100,4,2,22,5,0,1
146137,-100,4,2,22,82,0,1
146754,-100,4,2,22,5,0,1
146822,-100,4,2,22,82,0,1
147781,-100,4,2,22,82,0,1
147918,-100,4,2,22,82,0,1
149151,-100,4,2,22,82,0,1
149904,-100,4,2,22,5,0,1
149973,-100,4,2,22,82,0,1
150521,-100,4,2,22,82,0,1
150932,-100,4,2,22,82,0,1
151137,-100,4,2,22,5,0,1
151206,-100,4,2,22,82,0,1
151891,-100,4,2,22,82,0,1
152096,-100,4,2,22,5,0,1
152165,-100,4,2,22,82,0,1
152576,-100,4,2,22,82,0,1
152850,-100,4,2,22,82,0,1
153124,-100,4,2,22,82,0,1
153329,-100,4,2,22,5,0,1
153397,-100,4,2,22,82,0,1
153740,-100,4,2,22,5,0,1
153808,-100,4,2,22,82,0,1
154014,-100,4,2,22,5,0,1
154082,-100,4,2,22,82,0,1
154904,-100,4,2,22,72,0,1
155041,-100,4,2,22,62,0,1
155178,-100,4,2,22,52,0,1
155315,-100,4,2,22,82,0,1
155452,-100,4,2,22,82,0,1
159151,-100,4,2,22,82,0,1
160863,-100,4,2,22,5,0,1
160932,-100,4,2,22,82,0,1
161891,-100,4,2,22,82,0,1
162507,-100,4,2,22,5,0,1
162576,-100,4,2,22,82,0,1
163055,-100,4,2,22,5,0,1
163124,-100,4,2,22,82,0,1
163534,-100,4,2,22,72,0,1
163808,-100,4,2,22,62,0,1
164082,-100,4,2,22,82,0,1
164288,-100,4,2,22,5,0,1
164356,-100,4,2,22,82,0,1
164493,-100,4,2,22,82,0,1
164699,-100,4,2,22,5,0,1
164767,-100,4,2,22,82,0,1
164904,-100,4,2,22,82,0,1
165110,-100,4,2,22,5,0,1
165178,-100,4,2,22,82,0,1
165315,-100,4,2,22,82,0,1
165521,-100,4,2,22,5,0,1
165589,-100,4,2,22,82,0,1
168055,-100,4,2,22,72,0,1
168192,-100,4,2,22,62,0,1
168329,-100,4,2,22,52,0,1
168466,-100,4,2,22,82,0,1
168534,-100,4,2,22,62,0,1
168740,-100,4,2,22,72,0,1
168808,-100,4,2,22,62,0,1
168877,-100,4,2,22,82,0,1
168945,-100,4,2,22,62,0,1
169151,-100,4,2,22,72,0,1
169219,-100,4,2,22,62,0,1
169288,-100,4,2,22,82,0,1
169356,-100,4,2,22,62,0,1
169562,-100,4,2,22,72,0,1
169630,-100,4,2,22,62,0,1
169699,-100,4,2,22,82,0,1
169767,-100,4,2,22,62,0,1
169973,-100,4,2,22,72,0,1
170041,-100,4,2,22,62,0,1
170110,-100,4,2,22,82,0,1
170521,-100,4,2,22,82,0,0
170589,-100,4,2,22,62,0,0
172507,-100,4,2,22,5,0,0
172576,-100,4,2,22,82,0,1
172713,-100,4,2,22,82,0,0

[Colours]
Combo1 : 159,167,174
Combo2 : 38,63,121
Combo3 : 215,101,9
Combo4 : 50,243,88
SliderBorder : 255,255,255
SliderTrackOverride : 0,0,0

[HitObjects]
361,231,1084,6,0,L|499:226,1,127.5,0|2,1:0|3:0,0:0:0:0:
488,98,1905,2,0,L|350:93,1,127.5,0|2,1:0|3:0,0:0:0:0:
244,39,2727,2,0,P|202:24|153:24,1,84.9999999999999,2|2,1:0|3:0,0:0:0:0:
78,42,3275,6,0,L|72:180,1,127.5,0|2,1:0|3:0,0:0:0:0:
188,221,4097,2,0,L|194:359,1,127.5,0|2,1:0|3:0,0:0:0:0:
319,372,4919,2,0,L|322:287,1,84.9999999999999,2|2,1:0|3:0,0:0:0:0:
332,202,5467,6,0,P|395:190|463:217,2,127.5,0|0|2,0:0|3:0|0:0,0:0:0:0:
254,236,6563,2,0,L|122:227,2,127.5,0|2|2,0:0|3:0|0:0,0:0:0:0:
323,287,7659,6,0,P|285:341|213:359,1,127.5,0|0,0:0|3:0,0:0:0:0:
143,352,8344,1,2,3:0:0:0:
32,289,8755,2,0,B|20:170|20:170|50:111,1,170,2|0,1:0|3:0,0:0:0:0:
91,55,9577,1,2,3:0:0:0:
171,80,9851,6,0,P|212:92|268:83,1,84.9999999999999,2|2,1:0|0:0,0:0:0:0:
330,51,10399,1,2,0:0:0:0:
431,128,10810,2,0,L|423:229,1,84.9999999999999,2|2,3:0|1:0,0:0:0:0:
382,286,11357,2,0,P|306:297|250:273,1,127.5,2|0,3:0|1:0,0:0:0:0:
209,210,12042,6,0,L|64:218,1,127.5,8|6,0:0|3:0,0:0:0:0:
9,263,12727,1,6,2:0:0:0:
97,355,13139,6,0,P|168:365|234:341,1,127.5,6|6,1:0|3:0,0:0:0:0:
289,298,13820,1,8,0:0:0:0:
330,223,14093,2,0,L|320:86,1,127.5,6|4,1:0|3:0,0:0:0:0:
262,34,14774,2,0,L|175:36,1,84.9999999999999,10|10,0:0|0:0,0:0:0:0:
113,95,15320,6,0,B|97:179|97:179|113:234,1,127.5,6|6,1:0|1:0,0:0:0:0:
149,293,16001,1,10,0:0:0:0:
228,261,16274,2,0,P|278:225|360:221,1,127.5,6|6,1:0|3:0,0:0:0:0:
426,231,16956,2,0,P|465:259|487:295,1,84.9999999999999,10|10,0:0|0:0,0:0:0:0:
449,367,17501,6,0,L|320:363,1,127.5,6|6,1:0|3:0,0:0:0:0:
236,357,18187,1,10,0:0:0:0:
161,316,18461,2,0,P|140:261|160:183,1,127.5,6|10,1:0|0:0,0:0:0:0:
205,128,19147,2,0,L|306:125,1,84.9999999999999,4|4,3:0|3:0,0:0:0:0:
361,172,19696,6,0,P|382:227|362:305,1,127.5,14|14,0:0|0:0,0:0:0:0:
321,363,20382,1,6,3:0:0:0:
246,322,20657,2,0,L|108:332,1,127.5,14|0,0:0|1:0,0:0:0:0:
33,323,21343,2,0,P|29:304|30:264,1,42.5,12|12,0:0|0:0,0:0:0:0:
92,169,21892,6,0,P|153:132|256:159,1,170,2|0,1:0|1:0,0:0:0:0:
305,211,22713,1,2,1:0:0:0:
314,295,22987,2,0,L|487:273,1,170,0|0,1:0|1:0,0:0:0:0:
504,190,23809,1,2,1:0:0:0:
479,108,24083,6,0,P|410:63|313:78,1,170,0|0,1:0|1:0,0:0:0:0:
255,119,24905,1,0,1:0:0:0:
194,178,25179,2,0,L|204:265,2,84.9999999999999,2|0|4,1:0|1:0|3:0,0:0:0:0:
134,117,26001,1,10,0:0:0:0:
51,135,26275,6,0,P|16:212|44:306,1,170,2|0,1:0|1:0,0:0:0:0:
92,354,27097,1,0,1:0:0:0:
167,315,27371,2,0,L|268:321,1,84.9999999999999,0|2,1:0|1:0,0:0:0:0:
326,360,27919,2,0,L|427:354,1,84.9999999999999,2|2,1:0|1:0,0:0:0:0:
480,306,28467,6,0,P|494:248|451:184,2,127.5,2|2|0,1:0|3:0|1:0,0:0:0:0:
408,259,29563,2,0,L|317:249,1,84.9999999999999,6|8,3:0|0:0,0:0:0:0:
263,188,30111,2,0,L|172:198,1,84.9999999999999,8|6,0:0|3:0,0:0:0:0:
94,214,30659,5,6,3:0:0:0:
47,142,30933,2,0,P|60:77|115:37,1,127.5,10|0,0:0|0:0,0:0:0:0:
185,69,31618,2,0,B|229:90|229:90|324:79,1,127.5,10|10,0:0|0:0,0:0:0:0:
392,76,32302,1,0,0:0:0:0:
453,134,32576,1,10,0:0:0:0:
455,218,32850,6,0,P|425:274|363:294,2,127.5,6|2|0,3:0|1:0|0:0,0:0:0:0:
370,208,33946,2,0,B|282:192|291:236|196:217,1,170,6|4,3:0|3:0,0:0:0:0:
125,182,34768,1,10,0:0:0:0:
72,115,35042,6,0,L|80:25,2,84.9999999999999,6|10|2,3:0|0:0|1:0,0:0:0:0:
6,169,35864,2,0,L|16:268,1,84.9999999999999,10|2,0:0|1:1,0:0:0:0:
28,337,36412,1,8,0:0:0:0:
108,363,36686,2,0,P|157:361|204:338,1,84.9999999999999,0|10,0:0|0:0,0:0:0:0:
244,281,37234,6,0,B|329:275|329:275|387:292,1,127.5,10|2,0:0|1:0,0:0:0:0:
446,323,37919,1,10,0:0:0:0:
506,210,38330,6,0,P|495:119|427:63,1,170,6|2,3:0|1:0,0:0:0:0:
355,58,39152,1,2,1:0:0:0:
279,97,39426,2,0,L|137:88,2,127.5,10|6|10,3:0|3:0|3:0,0:0:0:0:
351,142,40522,6,0,P|367:204|329:265,2,127.5,2|0|4,1:0|0:0|3:0,0:0:0:0:
282,193,41618,2,0,L|194:187,1,84.9999999999999,0|0,1:0|1:0,0:0:0:0:
136,127,42165,2,0,L|48:132,1,84.9999999999999,4|2,3:0|1:0,0:0:0:0:
17,210,42713,6,0,P|5:256|22:309,1,84.9999999999999,6|8,1:0|0:0,0:0:0:0:
90,256,43261,2,0,B|175:262|175:262|224:240,2,127.5,2|10|10,1:0|0:0|0:0,0:0:0:0:
17,210,44357,2,0,L|21:124,1,84.9999999999999,0|10,0:0|0:0,0:0:0:0:
58,48,44905,5,6,1:0:0:0:
133,87,45179,2,0,P|203:110|291:77,1,170,8|2,0:0|0:0,0:0:0:0:
350,16,46001,1,2,1:0:0:0:
419,65,46275,2,0,L|503:59,2,84.9999999999999,8|8|4,0:0|0:0|3:0,0:0:0:0:
387,144,47097,6,0,B|373:202|373:202|388:279,2,127.5,6|4|4,1:0|1:0|1:0,0:0:0:0:
283,69,48330,2,0,P|227:86|155:63,1,127.5,12|12,0:0|0:0,0:0:0:0:
89,23,49015,1,12,0:0:0:0:
35,88,49289,6,0,L|43:172,1,84.9999999999999,4|10,3:0|0:0,0:0:0:0:
121,206,49837,2,0,L|113:290,1,84.9999999999999,2|10,1:2|0:2,0:0:0:0:
100,375,50385,2,0,P|39:335|29:274,2,127.5,6|2|10,3:0|1:0|0:0,0:0:0:0:
180,345,51481,6,0,L|354:354,1,170,6|2,3:0|0:0,0:0:0:0:
425,314,52302,1,10,0:0:0:0:
474,245,52576,2,0,P|484:183|434:122,2,127.5,6|6|8,3:0|3:0|0:0,0:0:0:0:
400,202,53672,6,0,L|307:195,1,84.9999999999999,4|10,3:0|0:0,0:0:0:0:
253,136,54220,2,0,L|160:143,1,84.9999999999999,2|10,1:0|0:0,0:0:0:0:
103,198,54768,2,0,P|124:259|114:330,2,127.5,6|6|10,3:0|3:0|0:0,0:0:0:0:
32,149,55864,6,0,P|38:95|122:12,1,170,6|2,3:0|0:0,0:0:0:0:
200,23,56686,1,10,0:0:0:0:
273,66,56960,2,0,L|281:193,1,127.5,6|2,3:0|1:0,0:0:0:0:
310,224,57508,2,0,L|304:312,1,84.9999999999999,6|8,3:0|0:0,0:0:0:0:
230,351,58056,6,0,P|167:349|136:329,1,84.9999999999999,4|10,3:0|0:0,0:0:0:0:
74,297,58604,2,0,P|76:234|96:203,1,84.9999999999999,2|10,1:0|0:0,0:0:0:0:
137,147,59152,2,0,L|123:19,2,127.5,6|6|10,3:0|3:0|0:0,0:0:0:0:
180,220,60248,6,0,P|226:225|276:204,1,84.9999999999999,6|10,3:0|0:0,0:0:0:0:
322,152,60796,1,2,1:0:0:0:
404,150,61070,1,10,0:0:0:0:
464,210,61344,2,0,P|477:284|454:340,2,127.5,6|6|8,3:0|3:0|0:0,0:0:0:0:
404,150,62439,6,0,P|364:158|312:151,1,84.9999999999999,4|10,3:0|0:0,0:0:0:0:
244,113,62987,2,0,P|204:105|152:112,1,84.9999999999999,2|10,1:0|0:0,0:0:0:0:
87,154,63535,2,0,L|100:291,1,127.5,6|6,3:0|3:0,0:0:0:0:
197,362,64357,6,0,P|281:371|361:336,1,170,14|8,0:0|0:0,0:0:0:0:
398,263,65179,2,0,L|384:170,1,84.9999999999999,8|2,0:0|1:0,0:0:0:0:
328,115,65727,6,0,P|393:94|455:129,2,127.5,14|2|4,0:0|3:0|3:0,0:0:0:0:
269,177,66823,2,0,P|216:182|182:168,1,84.9999999999999,14|8,0:0|0:0,0:0:0:0:
151,147,67234,2,0,L|158:288,1,127.5,6|4,3:0|3:0,0:0:0:0:
147,361,67919,2,0,P|101:366|50:350,2,84.9999999999999,8|8|8,0:0|0:0|0:0,0:0:0:0:
222,329,68719,6,0,L|359:339,2,127.5,6|6|6,1:0|1:0|1:0,0:0:0:0:
130,242,69971,2,0,P|120:182|146:104,1,127.5,6|8,1:0|0:0,0:0:0:0:
252,63,70801,6,0,L|393:58,1,127.5,6|8,1:0|0:0,0:0:0:0:
461,76,71477,2,0,P|476:117|473:165,1,84.9999999999999,8|6,0:0|3:0,0:0:0:0:
428,229,72026,2,0,L|441:362,2,127.5,0|6|0,0:0|3:0|3:0,0:0:0:0:
359,178,73124,6,0,P|307:172|238:207,1,127.5,6|6,1:0|1:0,0:0:0:0:
134,273,73945,2,0,P|82:279|13:244,2,127.5,6|6|8,1:0|1:0|0:0,0:0:0:0:
241,203,75178,6,0,L|231:67,1,127.5,4|8,1:0|0:0,0:0:0:0:
169,17,75863,1,8,0:0:0:0:
43,41,76274,2,0,P|26:84|34:165,1,127.5,4|8,1:0|0:0,0:0:0:0:
75,237,76959,2,0,L|162:230,1,84.9999999999999,4|0,3:0|1:0,0:0:0:0:
241,203,77507,6,0,P|301:200|393:269,1,170,4|8,3:0|0:0,0:0:0:0:
437,329,78329,1,0,1:0:0:0:
499,271,78603,2,0,L|501:177,1,84.9999999999999,8|0,0:0|0:0,0:0:0:0:
505,100,79151,1,8,0:0:0:0:
446,38,79425,1,4,3:0:0:0:
363,59,79699,6,0,P|301:80|196:59,1,170,4|8,1:0|0:0,0:0:0:0:
124,21,80521,1,0,1:0:0:0:
71,87,80795,2,0,L|80:183,1,84.9999999999999,8|4,0:0|3:0,0:0:0:0:
115,248,81343,2,0,P|177:266|247:244,1,127.5,0|0,1:0|0:0,0:0:0:0:
272,228,81891,6,0,L|368:240,2,84.9999999999999,4|8|8,3:0|0:0|0:0,0:0:0:0:
211,167,82713,1,8,0:0:0:0:
271,106,82987,2,0,L|367:94,2,84.9999999999999,8|8|8,0:0|0:0|0:0,0:0:0:0:
211,167,83808,1,8,0:0:0:0:
150,227,84082,6,0,P|106:232|53:216,1,84.9999999999999,4|8,1:0|0:0,0:0:0:0:
15,154,84630,2,0,P|10:110|26:57,1,84.9999999999999,8|8,0:0|0:0,0:0:0:0:
54,46,85041,2,0,B|93:64|93:64|194:56,1,127.5,4|8,1:0|0:0,0:0:0:0:
261,43,85726,1,8,0:0:0:0:
345,138,86137,6,0,L|336:276,1,127.5,6|10,3:0|0:0,0:0:0:0:
328,350,86822,2,0,P|390:364|459:342,2,127.5,2|6|10,1:0|3:0|0:0,0:0:0:0:
258,300,87918,1,2,1:0:0:0:
207,182,88329,6,0,B|124:174|124:174|71:186,1,127.5,6|10,3:0|0:0,0:0:0:0:
12,234,89014,2,0,L|23:367,2,127.5,2|2|10,1:0|0:0|0:0,0:0:0:0:
4,148,90110,1,6,3:0:0:0:
87,51,90521,6,0,P|155:43|224:74,1,127.5,6|8,3:0|0:0,0:0:0:0:
278,113,91206,2,0,P|318:104|373:108,1,84.9999999999999,0|10,1:0|0:0,0:0:0:0:
437,145,91754,2,0,P|446:185|442:240,1,84.9999999999999,6|10,3:0|0:0,0:0:0:0:
388,293,92302,2,0,P|348:302|293:298,1,84.9999999999999,8|8,3:0|0:0,0:0:0:0:
268,276,92713,6,0,L|127:288,1,127.5,6|10,3:0|0:0,0:0:0:0:
58,267,93397,2,0,P|46:230|49:181,1,84.9999999999999,2|10,1:0|0:0,0:0:0:0:
93,112,93945,2,0,P|130:100|179:103,1,84.9999999999999,2|10,1:0|0:0,0:0:0:0:
250,143,94493,2,0,P|287:155|336:152,1,84.9999999999999,10|10,0:0|0:0,0:0:0:0:
369,131,94904,6,0,L|377:274,1,127.5,6|10,3:0|0:0,0:0:0:0:
380,343,95589,2,0,P|423:350|473:334,1,84.9999999999999,2|10,1:0|0:0,0:0:0:0:
503,264,96137,2,0,L|498:179,2,84.9999999999999,2|10|4,1:0|0:0|3:0,0:0:0:0:
376,258,97096,6,0,P|314:243|241:265,1,127.5,6|8,3:0|0:0,0:0:0:0:
188,313,97781,2,0,L|104:304,1,84.9999999999999,0|8,1:0|0:0,0:0:0:0:
37,249,98329,2,0,P|29:209|38:160,1,84.9999999999999,6|10,3:0|0:0,0:0:0:0:
72,88,98877,2,0,P|112:80|161:89,1,84.9999999999999,10|10,0:0|0:0,0:0:0:0:
195,101,99288,6,0,L|200:235,1,127.5,6|10,3:0|0:0,0:0:0:0:
256,291,99973,2,0,P|292:301|347:298,1,84.9999999999999,2|10,1:0|0:0,0:0:0:0:
424,291,100521,2,0,L|427:378,2,84.9999999999999,0|10|6,0:0|0:0|3:0,0:0:0:0:
379,171,101480,6,0,B|311:156|320:203|249:180,1,127.5,6|10,3:0|0:0,0:0:0:0:
206,111,102165,2,0,L|79:120,2,127.5,10|6|10,0:0|3:0|0:0,0:0:0:0:
264,49,103260,2,0,P|302:39|359:45,1,84.9999999999999,10|2,3:0|1:0,0:0:0:0:
412,96,103808,6,0,L|428:233,2,127.5,6|6|6,1:0|1:0|1:0,0:0:0:0:
299,35,105041,2,0,P|237:28|171:59,1,127.5,6|10,1:0|0:0,0:0:0:0:
117,113,105726,1,10,0:0:0:0:
94,194,106000,6,0,L|109:324,2,127.5,10|10|10,0:0|0:0|0:0,0:0:0:0:
219,219,107233,2,0,P|278:232|349:214,1,127.5,10|10,0:0|0:0,0:0:0:0:
205,123,116959,6,0,B|290:102|288:156|387:133,1,170,2|0,1:0|3:0,0:0:0:0:
506,239,118055,2,0,B|421:218|424:276|329:250,1,170,0|0,0:0|3:0,0:0:0:0:
175,207,119151,6,0,B|164:85|164:85|189:28,1,170,2|0,1:0|3:0,0:0:0:0:
298,166,120247,2,0,B|309:288|309:288|284:345,1,170,2|10,0:0|0:0,0:0:0:0:
209,361,121069,1,2,0:0:0:0:
147,302,121343,6,0,B|98:298|64:321|64:321|25:303|11:241,1,170,2|2,1:0|3:0,0:0:0:0:
54,91,122439,2,0,B|103:95|137:72|137:72|176:90|190:152,1,170,0|0,0:0|3:0,0:0:0:0:
213,216,123260,1,2,0:0:0:0:
271,277,123534,6,0,L|399:269,1,127.5,8|4,0:0|3:0,0:0:0:0:
476,234,124219,1,8,3:0:0:0:
395,135,124630,6,0,P|385:72|417:7,2,127.5,12|12|12,0:0|0:0|0:0,0:0:0:0:
476,234,125863,2,0,L|464:370,2,127.5,12|8|4,0:0|0:0|1:0,0:0:0:0:
256,192,126822,12,8,128466,0:0:0:0:
256,192,129014,6,0,P|222:114|258:36,1,170,4|0,1:0|0:0,0:0:0:0:
423,40,130110,2,0,P|457:118|421:196,1,170,4|0,1:0|0:0,0:0:0:0:
354,238,130932,1,0,0:0:0:0:
278,276,131206,6,0,B|163:287|163:287|97:260,1,170,4|0,1:0|0:0,0:0:0:0:
12,128,132302,2,0,P|19:79|70:22,2,127.5,8|8|8,0:0|0:0|0:0,0:0:0:0:
67,192,133397,6,0,L|161:185,1,84.9999999999999,4|10,3:0|0:0,0:0:0:0:
212,125,133945,2,0,L|306:132,1,84.9999999999999,2|10,1:0|0:0,0:0:0:0:
367,178,134493,2,0,P|429:148|501:160,2,127.5,6|6|10,3:0|3:0|0:0,0:0:0:0:
327,253,135589,6,0,L|224:260,1,84.9999999999999,6|10,3:0|0:0,0:0:0:0:
175,312,136137,2,0,L|72:305,1,84.9999999999999,2|10,0:0|0:0,0:0:0:0:
31,244,136685,2,0,P|17:186|33:115,1,127.5,6|2,3:0|1:0,0:0:0:0:
59,88,137233,2,0,P|98:103|149:103,1,84.9999999999999,6|8,3:0|0:0,0:0:0:0:
213,59,137781,6,0,B|264:52|264:52|328:66|328:66|390:59,1,170,4|2,3:0|1:0,0:0:0:0:
445,115,138603,1,10,0:0:0:0:
503,177,138877,2,0,P|505:242|468:303,2,127.5,6|6|10,3:0|3:0|0:0,0:0:0:0:
445,115,139973,6,0,L|341:123,1,84.9999999999999,6|10,3:0|0:0,0:0:0:0:
277,141,140521,1,2,1:0:0:0:
241,218,140795,1,10,0:0:0:0:
277,295,141069,2,0,P|342:312|410:299,2,127.5,6|6|8,3:0|3:0|0:0,0:0:0:0:
241,218,142165,6,0,L|142:222,1,84.9999999999999,4|10,3:0|0:0,0:0:0:0:
72,238,142713,2,0,P|63:282|70:329,1,84.9999999999999,2|10,1:0|0:0,0:0:0:0:
134,373,143260,2,0,L|268:367,1,127.5,6|6,3:0|3:0,0:0:0:0:
372,304,144082,6,0,B|388:258|388:258|370:127,1,170,14|8,0:0|0:0,0:0:0:0:
311,76,144904,2,0,P|261:64|220:72,1,84.9999999999999,4|8,3:0|0:0,0:0:0:0:
181,140,145452,2,0,L|167:10,2,127.5,4|4|4,3:0|3:0|3:0,0:0:0:0:
173,225,146548,6,0,P|130:244|85:245,1,84.9999999999999,4|10,1:0|0:0,0:0:0:0:
16,208,147096,2,0,P|3:143|23:79,1,127.5,8|6,0:0|3:0,0:0:0:0:
84,29,147781,1,10,0:0:0:0:
156,72,148055,2,0,P|213:96|284:78,1,127.5,2|10,1:0|0:0,0:0:0:0:
351,42,148740,6,0,P|402:39|470:79,1,127.5,6|6,1:0|3:0,0:0:0:0:
504,151,149425,1,6,3:0:0:0:
453,219,149699,2,0,L|311:210,1,127.5,6|0,1:0|0:0,0:0:0:0:
253,166,150384,2,0,L|157:172,1,84.9999999999999,10|6,0:0|3:0,0:0:0:0:
86,196,150932,6,0,P|75:243|82:288,1,84.9999999999999,4|10,1:0|0:0,0:0:0:0:
137,340,151480,2,0,L|276:332,1,127.5,8|10,0:0|0:0,0:0:0:0:
349,325,152165,1,8,0:0:0:0:
476,318,152576,2,0,P|484:281|472:225,1,84.9999999999999,8|4,0:0|3:0,0:0:0:0:
416,174,153124,6,0,L|399:45,1,127.5,6|6,1:0|3:0,0:0:0:0:
319,17,153808,1,6,3:0:0:0:
249,65,154082,2,0,P|177:74|129:49,1,127.5,14|10,0:0|0:0,0:0:0:0:
47,27,154767,2,0,L|37:123,1,84.9999999999999,6|0,3:0|1:0,0:0:0:0:
9,191,155315,6,0,P|11:252|101:311,1,170,2|8,1:0|0:0,0:0:0:0:
171,276,156137,2,0,B|256:272|256:272|302:295,2,127.5,0|10|10,1:0|0:0|0:0,0:0:0:0:
93,310,157233,1,10,0:0:0:0:
10,329,157507,6,0,L|-1:154,1,170,2|8,1:0|0:0,0:0:0:0:
54,94,158329,1,0,1:0:0:0:
118,38,158603,2,0,P|167:43|210:68,1,84.9999999999999,8|4,0:0|3:0,0:0:0:0:
263,113,159151,2,0,P|312:108|355:83,1,84.9999999999999,8|10,0:0|0:0,0:0:0:0:
394,23,159699,6,0,L|411:168,1,127.5,10|10,0:0|0:0,0:0:0:0:
430,275,160521,2,0,P|383:301|296:292,2,127.5,8|8|12,0:0|0:0|3:0,0:0:0:0:
475,202,161617,1,2,1:0:0:0:
408,149,161891,6,0,L|265:139,1,127.5,10|14,0:0|0:0,0:0:0:0:
195,136,162576,1,10,0:0:0:0:
117,171,162850,2,0,P|103:238|123:301,1,127.5,6|10,1:0|0:0,0:0:0:0:
184,347,163534,1,14,3:0:0:0:
267,364,163808,1,6,3:0:0:0:
336,315,164082,6,0,L|480:310,1,127.5,6|6,1:0|1:0,0:0:0:0:
501,188,164904,2,0,L|405:184,1,84.9999999999999,6|8,1:0|0:0,0:0:0:0:
386,154,165315,2,0,P|331:133|266:147,1,127.5,2|8,1:0|0:0,0:0:0:0:
196,197,166000,1,8,0:0:0:0:
130,250,166274,6,0,L|31:239,1,84.9999999999999,10|8,0:0|0:0,0:0:0:0:
16,209,166685,2,0,P|8:159|23:108,1,84.9999999999999,6|8,1:0|0:0,0:0:0:0:
42,93,167096,1,6,1:0:0:0:
164,127,167507,2,0,B|216:145|216:145|295:131,1,127.5,6|2,1:0|1:0,0:0:0:0:
368,105,168192,1,2,1:0:0:0:
438,152,168466,6,0,P|465:202|462:275,2,127.5,14|14|14,0:0|0:0|0:0,0:0:0:0:
340,234,169699,2,0,L|200:223,1,127.5,14|10,0:0|0:0,0:0:0:0:
137,183,170384,2,0,L|88:186,1,42.5,10|6,0:0|1:1,1:0:0:0:
256,192,170658,12,10,172576,0:0:0:0:
