osu file format v14

[General]
AudioFilename: Comet Lucifer OP - Opening - The Seed and the Sower by Fhana.mp3
AudioLeadIn: 0
PreviewTime: 49548
Countdown: 0
SampleSet: Soft
StackLeniency: 0.7
Mode: 0
LetterboxInBreaks: 0
WidescreenStoryboard: 1

[Editor]
DistanceSpacing: 0.9
BeatDivisor: 4
GridSize: 32
TimelineZoom: 1.4

[Metadata]
Title:Comet Lucifer ~The Seed and the Sower~
TitleUnicode:コメットルシファー 〜The Seed and the Sower〜
Artist:fhana
ArtistUnicode:fhána
Creator:Mikii
Version:Normal
Source:コメット・ルシファー
Tags:opening evilelvis towana junichi sato yuxuki waga kevin mitsunaga
BeatmapID:827121
BeatmapSetID:374875

[Difficulty]
HPDrainRate:4
CircleSize:3.6
OverallDifficulty:4
ApproachRate:5
SliderMultiplier:1.1
SliderTickRate:1

[Events]
//Background and Video events
0,0,"maxresdefault.jpg",0,0
Video,0,"vid.avi"
//Break Periods
//Storyboard Layer 0 (Background)
//Storyboard Layer 1 (Fail)
//Storyboard Layer 2 (Pass)
//Storyboard Layer 3 (Foreground)
//Storyboard Sound Samples

[TimingPoints]
1566,273.972602739726,4,2,1,30,1,0
1566,-100,4,2,1,30,0,0
5949,-100,4,2,1,40,0,0
12524,-100,4,2,1,50,0,0
13621,273.972602739726,4,2,1,60,1,0
13621,-100,4,2,1,60,0,0
17983,273.972602739726,4,2,1,60,1,0
22374,273.972602739726,4,2,1,50,1,0
22374,-100,4,2,1,50,0,0
30319,-100,4,2,1,50,0,0
30456,-100,4,2,1,50,0,0
31004,-100,4,2,1,50,0,0
38812,-100,4,2,1,30,0,0
43195,-100,4,2,1,50,0,0
49771,-100,4,2,1,65,0,1
64017,-100,4,2,1,70,0,0
67305,-100,4,2,1,80,0,1
84839,-100,4,2,1,90,0,0
88812,-100,4,2,1,40,0,0

[Colours]
Combo1 : 255,255,255
Combo2 : 172,89,255
Combo3 : 255,66,160
Combo4 : 0,255,255

[HitObjects]
81,100,1566,6,0,P|166:57|236:93,2,165,2|2|2,0:0|0:0|0:0,0:0:0:0:
93,248,2798,1,2,0:0:0:0:
93,248,3209,2,0,L|223:236,1,110,2|2,0:0|0:0,0:0:0:0:
301,233,3757,6,0,B|351:265|351:265|392:259|459:255,2,165,2|2|2,0:0|0:0|0:0,0:0:0:0:
251,92,4990,1,2,0:0:0:0:
392,45,5401,2,0,L|380:158,1,110,2|2,0:0|0:0,0:0:0:0:
353,250,5949,6,0,P|301:238|225:231,1,110,2|0,0:0|0:0,0:0:0:0:
202,259,6360,2,0,P|162:287|58:250,1,165,2|2,0:0|0:0,0:0:0:0:
137,190,7045,2,0,L|153:77,1,110,2|2,0:0|0:0,0:0:0:0:
132,35,7456,1,2,0:0:0:0:
279,57,7867,5,2,0:0:0:0:
279,57,8004,2,0,P|333:27|416:81,1,165,2|2,0:0|0:0,0:0:0:0:
426,124,8552,2,0,P|416:176|411:234,1,110,2|2,0:0|0:0,0:0:0:0:
305,337,9237,2,0,P|301:283|293:226,2,110,2|0|2,0:0|0:0|0:0,0:0:0:0:
209,363,10059,1,2,0:0:0:0:
113,335,10333,6,0,P|121:280|142:211,1,110,2|0,0:0|0:0,0:0:0:0:
125,130,10881,2,0,L|13:141,1,110,2|2,0:0|0:0,0:0:0:0:
0,93,11292,2,0,P|36:48|94:46,1,110,2|2,0:0|0:0,0:0:0:0:
183,30,11839,1,2,0:0:0:0:
314,99,12250,5,2,0:0:0:0:
314,99,12524,2,0,P|322:163|315:228,1,110,8|0,0:0|0:0,0:0:0:0:
294,238,12935,2,0,L|412:252,1,110,8|8,0:0|0:0,0:0:0:0:
498,136,13621,5,4,0:0:0:0:
366,70,14031,2,0,P|303:68|251:58,1,110,8|8,0:0|0:0,0:0:0:0:
161,32,14579,2,0,B|175:76|175:76|150:158,1,110,8|0,0:0|0:0,0:0:0:0:
145,186,14990,1,8,0:0:0:0:
50,215,15264,2,0,P|60:273|63:333,1,110,8|8,0:0|0:0,0:0:0:0:
158,320,15812,6,0,P|244:353|305:305,1,165,4|8,0:0|0:0,0:0:0:0:
390,352,16497,1,8,0:0:0:0:
443,269,16771,2,0,P|436:197|439:138,1,110,8|0,0:0|0:0,0:0:0:0:
437,109,17182,1,8,0:0:0:0:
345,135,17456,2,0,L|305:23,1,110,8|8,0:0|0:0,0:0:0:0:
219,74,17983,6,0,P|183:59|108:34,2,110,4|8|0,0:0|0:0|0:0,0:0:0:0:
260,100,18667,1,8,0:0:0:0:
232,195,18941,2,0,P|181:161|90:217,1,165,8|8,0:0|0:0,0:0:0:0:
68,298,19626,1,8,0:0:0:0:
68,298,19900,1,8,0:0:0:0:
166,282,20174,6,0,B|176:320|170:336|170:336|242:303|297:320,1,165,4|8,0:0|0:0,0:0:0:0:
354,253,20859,2,0,L|346:129,2,110,8|4|8,0:0|0:0|0:0,0:0:0:0:
442,298,21681,2,0,P|445:268|449:239,2,55,0|8|0,0:0|0:0|0:0,0:0:0:0:
300,350,22374,6,0,P|285:301|261:235,1,110,6|0,0:0|0:0,0:0:0:0:
167,232,22921,1,0,0:0:0:0:
226,153,23195,1,2,0:0:0:0:
226,153,23332,2,0,B|214:114|196:93|196:93|238:64|243:9,1,165,2|0,0:0|0:0,0:0:0:0:
320,73,24017,1,0,0:0:0:0:
418,60,24291,1,2,0:0:0:0:
418,60,24428,6,0,P|406:144|400:228,1,165,2|0,0:0|0:0,0:0:0:0:
416,322,25113,1,0,0:0:0:0:
327,278,25387,1,2,0:0:0:0:
327,278,25661,2,0,P|248:263|202:264,1,110,2|0,0:0|0:0,0:0:0:0:
121,283,26209,2,0,L|113:209,2,55,0|0|8,0:0|0:0|0:0,0:0:0:0:
30,324,26757,6,0,P|24:263|13:191,1,110,2|0,0:0|0:0,0:0:0:0:
27,115,27305,2,0,P|12:56|45:0,1,110
113,67,27853,1,2,0:0:0:0:
210,49,28127,2,0,L|339:62,2,110,2|0|0,0:0|0:0|0:0,0:0:0:0:
208,148,28949,6,0,L|329:161,1,110,2|0,0:0|0:0,0:0:0:0:
410,197,29497,2,0,P|417:251|420:311,1,110
322,326,30045,1,2,0:0:0:0:
235,277,30319,2,0,L|227:333,2,55,8|8|0,0:0|0:0|0:0,0:0:0:0:
155,217,30867,1,8,0:0:0:0:
155,217,31004,6,0,P|219:159|303:191,1,165,6|8,0:0|0:0,0:0:0:0:
296,225,31552,2,0,P|289:282|285:348,1,110
186,331,32100,2,0,P|115:362|52:305,1,165,10|8,0:0|0:0,0:0:0:0:
8,223,32784,1,0,0:0:0:0:
8,223,33058,1,10,0:0:0:0:
51,144,33332,6,0,P|127:138|185:128,1,110,2|8,0:0|0:0,0:0:0:0:
207,149,33743,2,0,B|245:134|245:134|323:154,1,110
409,134,34291,1,2,0:0:0:0:
409,134,34428,2,0,L|397:18,2,110,2|8|0,0:0|0:0|0:0,0:0:0:0:
482,201,35250,1,8,0:0:0:0:
412,267,35524,6,0,L|347:257,1,55,2|0,0:0|0:0,0:0:0:0:
308,253,35798,1,8,0:0:0:0:
218,294,36072,2,0,P|210:243|198:185,1,110,0|8,0:0|0:0,0:0:0:0:
172,145,36483,2,0,L|191:20,2,110,2|8|8,0:0|0:0|0:0,0:0:0:0:
41,215,37442,5,10,0:0:0:0:
41,215,37716,2,0,B|64:235|64:235|166:225,1,110,8|0,0:0|0:0,0:0:0:0:
169,185,38127,2,0,L|176:248,2,55,8|0|8,0:0|0:0|0:0,0:0:0:0:
265,71,38812,6,0,P|257:132|253:183,1,110,6|2,0:0|0:0,0:0:0:0:
316,257,39360,2,0,P|369:241|431:273,1,110,2|2,0:0|0:0,0:0:0:0:
420,359,39908,2,0,P|364:351|243:344,2,165,2|2|2,0:0|0:0|0:0,0:0:0:0:
497,296,41004,6,0,P|491:243|489:178,1,110,4|0,0:0|0:0,0:0:0:0:
470,88,41552,2,0,P|431:53|367:80,1,110,0|0,0:0|0:0,0:0:0:0:
375,164,42100,2,0,L|263:154,1,110,0|2,0:0|0:0,0:0:0:0:
170,124,42647,2,0,P|183:192|190:256,1,110,8|8,0:0|0:0,0:0:0:0:
110,299,43195,6,0,P|99:249|89:179,1,110,4|0,0:0|0:0,0:0:0:0:
19,122,43743,2,0,L|32:-1,1,110,2|0,0:0|0:0,0:0:0:0:
76,31,44154,2,0,P|140:78|228:32,1,165,8|2,0:0|0:0,0:0:0:0:
310,78,44839,2,0,P|321:134|322:208,1,110,0|2,0:0|0:0,0:0:0:0:
293,281,45387,6,0,P|229:275|195:190,1,165,4|8,0:0|0:0,0:0:0:0:
336,144,46209,1,2,0:0:0:0:
399,220,46483,2,0,P|391:271|385:348,2,110,2|8|8,0:0|0:0|0:0,0:0:0:0:
431,181,47168,1,0,0:0:0:0:
283,194,47579,6,0,L|265:137,1,55,10|8,0:0|0:0,0:0:0:0:
200,216,47990,2,0,L|183:268,1,55,10|8,0:0|0:0,0:0:0:0:
108,202,48401,6,0,P|105:171|102:141,1,55,10|8,0:0|0:0,0:0:0:0:
148,59,48812,2,0,P|73:49|34:72,1,110,2|0,0:0|0:0,0:0:0:0:
17,105,49223,2,0,P|12:155|6:214,1,110,2|2,0:0|0:0,0:0:0:0:
35,309,49771,5,4,0:0:0:0:
123,258,50045,2,0,P|169:225|234:242,2,110,10|2|10,0:0|0:0|0:0,0:0:0:0:
199,321,50867,2,0,L|327:315,1,110,0|10,0:0|0:0,0:0:0:0:
348,285,51278,1,0,0:0:0:0:
477,357,51689,1,10,0:0:0:0:
477,357,51963,6,0,P|467:307|461:238,1,110,0|10,0:0|0:0,0:0:0:0:
395,174,52510,2,0,P|355:179|267:168,1,110,2|10,0:0|0:0,0:0:0:0:
194,132,53058,5,4,0:0:0:0:
81,229,53469,1,4,0:0:0:0:
207,306,53880,1,10,0:0:0:0:
207,306,54154,6,0,B|217:277|217:277|198:197,1,110,4|10,0:0|0:0,0:0:0:0:
113,149,54702,2,0,P|106:208|97:259,1,110,2|10,0:0|0:0,0:0:0:0:
52,346,55250,1,0,0:0:0:0:
148,325,55524,2,0,L|218:312,1,55,10|0,0:0|0:0,0:0:0:0:
320,224,56072,1,8,0:0:0:0:
320,224,56346,6,0,L|330:101,2,110,0|10|2,0:0|0:0|0:0,0:0:0:0:
408,269,57168,1,10,0:0:0:0:
325,324,57442,2,0,P|276:315|212:311,1,110,4|10,0:0|0:0,0:0:0:0:
168,326,57853,2,0,P|129:209|151:168,1,165,4|10,0:0|0:0,0:0:0:0:
209,104,58538,5,4,0:0:0:0:
129,45,58812,2,0,P|92:51|19:62,2,110,10|2|10,0:0|0:0|0:0,0:0:0:0:
219,86,59634,2,0,L|333:94,1,110,0|10,0:0|0:0,0:0:0:0:
377,81,60045,2,0,B|397:130|397:130|365:246,1,165,0|10,0:0|0:0,0:0:0:0:
302,313,60730,6,0,P|261:303|185:283,1,110,2|10,0:0|0:0,0:0:0:0:
174,190,61278,2,0,P|229:175|298:160,1,110,2|10,0:0|0:0,0:0:0:0:
232,76,61826,2,0,P|181:29|87:55,2,165,4|4|8,0:0|0:0|0:0,0:0:0:0:
148,129,62921,6,0,L|128:257,1,110,4|10,0:0|0:0,0:0:0:0:
198,310,63469,1,2,0:0:0:0:
198,310,63743,1,10,0:0:0:0:
295,297,64017,2,0,P|361:299|426:305,1,110,4|8,0:0|0:0,0:0:0:0:
432,261,64428,1,4,0:0:0:0:
296,202,64839,6,0,B|329:157|329:157|294:72|288:36,1,165
255,20,65387,2,0,P|196:32|132:37,1,110,8|0,0:0|0:0,0:0:0:0:
48,25,65935,1,2,0:0:0:0:
48,25,66209,2,0,P|43:86|35:147,1,110,10|0,0:0|0:0,0:0:0:0:
52,181,66620,2,0,L|170:162,1,110,2|10,0:0|0:0,0:0:0:0:
78,287,67305,5,4,0:0:0:0:
78,287,67579,2,0,L|244:253,1,165,10|8,0:0|0:0,0:0:0:0:
333,287,68264,2,0,P|335:233|343:165,1,110,8|2,0:0|0:0,0:0:0:0:
265,112,68812,1,8,0:0:0:0:
192,179,69086,2,0,L|207:305,1,110,2|0,0:0|0:0,0:0:0:0:
228,332,69497,6,0,P|296:329|361:331,1,110,8|10,0:0|0:0,0:0:0:0:
387,322,69908,2,0,P|442:345|504:313,2,110,8|0|8,0:0|0:0|0:0,0:0:0:0:
454,191,70867,5,0,0:0:0:0:
394,111,71141,1,10,0:0:0:0:
299,139,71415,1,8,0:0:0:0:
244,56,71689,6,0,P|201:59|109:51,1,110,4|8,0:0|0:0,0:0:0:0:
159,151,72237,2,0,L|35:131,1,110,2|0,0:0|0:0,0:0:0:0:
9,161,72647,2,0,P|47:231|8:301,1,165,8|2,0:0|0:0,0:0:0:0:
102,333,73332,2,0,P|163:322|222:321,1,110,8|0,0:0|0:0,0:0:0:0:
268,241,73880,6,0,L|275:123,1,110,2|8,0:0|0:0,0:0:0:0:
285,82,74291,2,0,P|338:60|397:80,1,110,2|8,0:0|0:0,0:0:0:0:
450,149,74839,2,0,L|444:273,1,110
425,305,75250,1,8,0:0:0:0:
337,258,75524,2,0,P|288:230|221:249,1,110,2|0,0:0|0:0,0:0:0:0:
269,332,76072,6,0,L|160:318,1,110,4|0,0:0|0:0,0:0:0:0:
60,325,76620,2,0,P|60:275|53:199,1,110,8|8,0:0|0:0,0:0:0:0:
23,176,77031,1,10,0:0:0:0:
62,84,77305,1,8,0:0:0:0:
62,84,77442,2,0,P|114:68|172:89,1,110,2|10,0:0|0:0,0:0:0:0:
253,38,77990,1,2,0:0:0:0:
324,106,78264,6,0,P|316:162|308:223,1,110
397,259,78812,2,0,P|404:204|411:150,1,110,8|10,0:0|0:0,0:0:0:0:
412,100,79223,2,0,P|357:26|274:40,1,165,0|2,0:0|0:0,0:0:0:0:
250,119,79908,1,8,0:0:0:0:
250,119,80182,1,0,0:0:0:0:
294,208,80456,6,0,L|269:315,1,110,4|2,0:0|0:0,0:0:0:0:
223,336,80867,2,0,P|161:280|85:313,1,165,8|8,0:0|0:0,0:0:0:0:
27,228,81552,2,0,L|18:159,2,55,0|8|8,0:0|0:0|0:0,0:0:0:0:
114,180,82100,2,0,L|117:125,2,55,0|8|8,0:0|0:0|0:0,0:0:0:0:
208,151,82647,6,0,P|222:100|248:27,1,110,8|8,0:0|0:0,0:0:0:0:
339,36,83195,2,0,L|448:47,1,110,8|8,0:0|0:0,0:0:0:0:
462,145,83743,2,0,L|352:133,1,110,8|8,0:0|0:0,0:0:0:0:
260,169,84291,1,8,0:0:0:0:
287,264,84565,1,8,0:0:0:0:
191,299,84839,6,0,P|142:292|17:292,2,165,4|4|4,0:0|0:0|0:0,0:0:0:0:
335,334,86072,1,8,0:0:0:0:
282,195,86483,2,0,L|299:78,1,110,2|8,0:0|0:0,0:0:0:0:
306,37,86894,1,4,0:0:0:0:
256,192,87031,12,10,88949,0:0:0:0:
