osu file format v14

[General]
AudioFilename: Comet Lucifer OP - Opening - The Seed and the Sower by Fhana.mp3
AudioLeadIn: 0
PreviewTime: 49548
Countdown: 0
SampleSet: Soft
StackLeniency: 0.7
Mode: 0
LetterboxInBreaks: 0
WidescreenStoryboard: 0

[Editor]
DistanceSpacing: 1.3
BeatDivisor: 4
GridSize: 4
TimelineZoom: 1.8

[Metadata]
Title:Comet Lucifer ~The Seed and the Sower~
TitleUnicode:コメットルシファー 〜The Seed and the Sower〜
Artist:fhana
ArtistUnicode:fhána
Creator:Mikii
Version:Gifdium
Source:コメット・ルシファー
Tags:opening evilelvis towana junichi sato yuxuki waga kevin mitsunaga
BeatmapID:821201
BeatmapSetID:374875

[Difficulty]
HPDrainRate:6.4
CircleSize:4
OverallDifficulty:8
ApproachRate:9.3
SliderMultiplier:1.8
SliderTickRate:1

[Events]
//Background and Video events
0,0,"maxresdefault.jpg",0,0
Video,0,"vid.avi"
//Break Periods
//Storyboard Layer 0 (Background)
//Storyboard Layer 1 (Fail)
//Storyboard Layer 2 (Pass)
//Storyboard Layer 3 (Foreground)
//Storyboard Sound Samples

[TimingPoints]
1566,273.972602739726,4,2,1,30,1,0
1566,-166.666666666667,4,2,1,30,0,0
5949,-133.333333333333,4,2,1,40,0,0
12524,-111.111111111111,4,2,1,50,0,0
13620,-100,4,2,1,60,0,0
13621,273.972602739726,4,2,1,60,1,0
17983,273.972602739726,4,2,1,60,1,0
22374,273.972602739726,4,2,1,50,1,0
22374,-133.333333333333,4,2,1,50,0,0
30319,-90.9090909090909,4,2,1,50,0,0
30456,-83.3333333333333,4,2,1,50,0,0
31004,-111.111111111111,4,2,1,50,0,0
38812,-133.333333333333,4,2,1,30,0,0
43195,-111.111111111111,4,2,1,50,0,0
48812,-90.9090909090908,4,2,1,50,0,0
49771,-100,4,2,1,65,0,1
64017,-111.111111111111,4,2,1,70,0,0
65113,-133.333333333333,4,2,1,70,0,0
65661,-121.951219512195,4,2,1,70,0,0
66209,-111.111111111111,4,2,1,70,0,0
66894,-90.9090909090908,4,2,1,70,0,0
67305,-100,4,2,1,80,0,1
84839,-111.111111111111,4,2,1,90,0,0
88674,-111.111111111111,4,2,1,40,0,0

[Colours]
Combo1 : 255,255,255
Combo2 : 172,89,255
Combo3 : 255,66,160
Combo4 : 0,255,255

[HitObjects]
192,232,1566,6,0,P|184:178|184:114,1,107.999996704102,2|0,0:0|0:0,0:0:0:0:
374,177,1976,1,2,0:0:0:0:
374,177,2387,6,0,P|373:230|365:284,1,107.999996704102,2|0,0:0|0:0,0:0:0:0:
233,344,2798,1,2,0:0:0:0:
233,344,3209,2,0,P|201:340|158:341,1,53.9999983520508,2|0,0:0|0:0,0:0:0:0:
69,203,3483,2,0,P|109:193|147:189,1,53.9999983520508,2|0,0:0|0:0,0:0:0:0:
264,152,3757,5,2,0:0:0:0:
264,152,4031,2,0,P|260:191|259:222,1,53.9999983520508,2|0,0:0|0:0,0:0:0:0:
173,46,4579,6,0,P|227:48|297:55,1,107.999996704102,2|0,0:0|0:0,0:0:0:0:
438,135,4990,1,2,0:0:0:0:
438,135,5401,6,0,P|434:104|437:73,1,53.9999983520508,2|0,0:0|0:0,0:0:0:0:
343,142,5675,2,0,P|331:173|318:204,1,53.9999983520508,2|0,0:0|0:0,0:0:0:0:
499,242,5949,6,0,P|425:239|385:308,1,135.000005149842,2|0,0:0|0:0,0:0:0:0:
467,335,6360,1,2,0:0:0:0:
268,252,6771,1,2,0:0:0:0:
268,252,6908,2,0,P|224:258|118:267,1,135.000005149842,2|0,0:0|0:0,0:0:0:0:
53,356,7319,2,0,P|92:361|132:360,1,67.5000025749208,2|2,0:0|0:0,0:0:0:0:
373,186,7867,5,2,0:0:0:0:
373,186,8004,2,0,P|316:146|246:186,1,135.000005149842,2|0,0:0|0:0,0:0:0:0:
300,283,8415,1,2,0:0:0:0:
459,297,8552,6,0,P|457:261|457:220,1,67.5000025749208,2|0,0:0|0:0,0:0:0:0:
455,52,8826,1,2,0:0:0:0:
440,140,8963,2,0,P|470:142|507:146,1,67.5000025749208
362,88,9237,6,0,P|291:85|203:87,2,135.000005149842,2|0|2,0:0|0:0|0:0,0:0:0:0:
298,233,10059,6,0,P|289:193|288:152,1,67.5000025749208,2|0,0:0|0:0,0:0:0:0:
159,14,10333,2,0,P|144:46|135:89,1,67.5000025749208,2|0,0:0|0:0,0:0:0:0:
70,237,10607,2,0,L|147:231,1,67.5000025749208,2|0,0:0|0:0,0:0:0:0:
214,126,10881,1,2,0:0:0:0:
303,242,11018,1,0,0:0:0:0:
394,64,11155,1,2,0:0:0:0:
447,153,11292,6,0,P|385:169|316:125,1,135.000005149842,2|2,0:0|0:0,0:0:0:0:
276,30,11702,1,2,0:0:0:0:
394,64,11839,1,0,0:0:0:0:
224,200,11976,2,0,P|227:166|227:132,1,67.5000025749208,2|0,0:0|0:0,0:0:0:0:
351,256,12250,6,0,P|355:293|353:335,1,67.5000025749208,2|0,0:0|0:0,0:0:0:0:
279,358,12456,1,0,0:0:0:0:
279,358,12524,2,0,L|185:354,1,80.9999975280763,8|0,0:0|0:0,0:0:0:0:
130,167,12798,1,0,0:0:0:0:
12,289,12935,2,0,L|111:278,1,80.9999975280763
196,338,13209,1,0,0:0:0:0:
130,167,13346,1,0,0:0:0:0:
468,134,13620,6,0,P|422:131|367:97,1,90,4|0,0:0|0:0,0:0:0:0:
317,36,13894,1,8,0:0:0:0:
282,237,14031,2,0,P|272:187|284:146,1,90,8|0,0:0|0:0,0:0:0:0:
458,52,14305,1,8,0:0:0:0:
360,197,14442,1,0,0:0:0:0:
310,54,14579,6,0,P|230:75|122:85,1,180,8|0,0:0|0:0,0:0:0:0:
32,39,14990,1,8,0:0:0:0:
188,166,15127,1,0,0:0:0:0:
0,192,15264,1,8,0:0:0:0:
32,54,15401,1,0,0:0:0:0:
97,146,15538,2,0,L|89:260,1,90,8|0,0:0|0:0,0:0:0:0:
53,342,15812,6,0,P|96:330|140:324,1,90,4|0,0:0|0:0,0:0:0:0:
188,166,16086,1,0,0:0:0:0:
360,248,16223,2,0,P|316:251|272:240,1,90,8|0,0:0|0:0,0:0:0:0:
330,155,16497,1,0,0:0:0:0:
314,344,16634,1,8,0:0:0:0:
465,185,16771,6,0,B|477:236|477:236|474:304|449:375,1,180,8|0,0:0|0:0,0:0:0:0:
319,169,17182,2,0,P|317:122|314:71,1,90,8|0,0:0|0:0,0:0:0:0:
211,156,17456,1,8,0:0:0:0:
418,99,17593,1,0,0:0:0:0:
204,135,17730,2,0,L|105:127,1,90,8|0,0:0|0:0,0:0:0:0:
303,49,17983,5,4,0:0:0:0:
268,200,18119,2,0,L|273:309,1,90,0|8,0:0|0:0,0:0:0:0:
347,114,18393,1,0,0:0:0:0:
432,256,18530,2,0,P|426:303|425:356,1,90,0|8,0:0|0:0,0:0:0:0:
456,37,18804,1,0,0:0:0:0:
361,125,18941,6,0,P|313:123|190:130,1,135,8|0,0:0|0:0,0:0:0:0:
186,190,19215,1,8,0:0:0:0:
44,133,19352,1,8,0:0:0:0:
76,254,19489,1,8,0:0:0:0:
135,116,19626,2,0,P|129:71|121:27,1,90
257,250,19900,2,0,P|261:204|275:130,1,90,8|0,0:0|0:0,0:0:0:0:
56,126,20174,5,4,0:0:0:0:
152,202,20311,1,8,0:0:0:0:
253,105,20448,1,0,0:0:0:0:
173,215,20585,2,0,P|170:259|169:319,1,90,8|0,0:0|0:0,0:0:0:0:
253,105,20859,2,0,P|248:65|240:-5,1,90,8|0,0:0|0:0,0:0:0:0:
442,27,21133,6,0,P|428:105|428:171,1,135,4|0,0:0|0:0,0:0:0:0:
464,228,21407,1,8,0:0:0:0:
345,108,21544,1,0,0:0:0:0:
299,291,21681,1,0,0:0:0:0:
445,151,21818,5,8,0:0:0:0:
445,151,21955,1,0,0:0:0:0:
274,306,22374,6,0,P|218:293|119:276,1,135.000005149842,6|0,0:0|0:0,0:0:0:0:
54,197,22784,2,0,P|93:190|152:178,1,67.5000025749208
198,113,23058,1,0,0:0:0:0:
241,203,23195,1,2,0:0:0:0:
20,295,23332,6,0,P|76:286|180:275,1,135.000005149842,2|0,0:0|0:0,0:0:0:0:
198,113,23743,1,2,0:0:0:0:
241,203,23880,1,0,0:0:0:0:
305,126,24017,2,0,L|385:115,1,67.5000025749208
466,79,24291,1,0,0:0:0:0:
502,218,24428,6,0,P|451:214|341:210,1,135.000005149842,2|0,0:0|0:0,0:0:0:0:
286,124,24839,1,2,0:0:0:0:
316,285,24976,2,0,P|321:320|326:365,1,67.5000025749208,2|0,0:0|0:0,0:0:0:0:
227,251,25250,1,0,0:0:0:0:
283,150,25387,1,0,0:0:0:0:
131,178,25524,1,2,0:0:0:0:
131,178,25661,6,0,P|130:231|133:329,2,135.000005149842,2|2|0,0:0|0:0|0:0,0:0:0:0:
39,281,26346,1,0,0:0:0:0:
235,224,26483,1,8,0:0:0:0:
47,302,26620,1,8,0:0:0:0:
227,208,26757,6,0,P|223:159|223:119,1,67.5000025749208,2|0,0:0|0:0,0:0:0:0:
345,29,27031,1,0,0:0:0:0:
345,29,27168,2,0,L|342:119,1,67.5000025749208
377,199,27442,2,0,P|339:202|308:192,1,67.5000025749208
450,120,27716,6,0,P|494:182|465:254,1,135.000005149842,2|2,0:0|0:0,0:0:0:0:
340,323,28127,1,2,0:0:0:0:
340,323,28264,1,0,0:0:0:0:
428,300,28401,2,0,L|420:372,1,67.5000025749208
323,239,28675,2,0,L|315:167,1,67.5000025749208,0|2,0:0|0:0,0:0:0:0:
333,343,28949,6,0,L|238:335,1,67.5000025749208,2|0,0:0|0:0,0:0:0:0:
187,283,29223,1,0,0:0:0:0:
187,283,29360,2,0,L|195:215,1,67.5000025749208
47,236,29634,1,0,0:0:0:0:
114,164,29771,2,0,P|110:128|108:88,1,67.5000025749208
63,20,30045,5,2,0:0:0:0:
23,135,30182,1,2,0:0:0:0:
240,210,30319,5,10,0:0:0:0:
213,50,30456,1,0,0:0:0:0:
213,50,30524,1,0,0:0:0:0:
213,50,30593,1,2,0:0:0:0:
388,148,30730,5,8,0:0:0:0:
216,88,30867,1,10,0:0:0:0:
374,16,31004,1,8,0:0:0:0:
276,160,31141,6,0,P|268:200|268:256,1,80.9999975280763,6|0,0:0|0:0,0:0:0:0:
452,331,31415,1,8,0:0:0:0:
251,261,31552,1,0,0:0:0:0:
350,298,31689,2,0,P|357:338|361:379,1,80.9999975280763
371,197,31963,1,2,0:0:0:0:
251,368,32100,6,0,P|196:359|155:256,1,161.999995056153,10|0,0:0|0:0,0:0:0:0:
48,340,32510,2,0,L|41:254,1,80.9999975280763,8|0,0:0|0:0,0:0:0:0:
135,139,32784,1,0,0:0:0:0:
0,62,32921,1,0,0:0:0:0:
19,172,33058,2,0,P|62:168|130:156,1,80.9999975280763,10|0,0:0|0:0,0:0:0:0:
320,52,33332,6,0,P|279:29|227:38,1,80.9999975280763,2|0,0:0|0:0,0:0:0:0:
132,91,33606,1,8,0:0:0:0:
255,228,33743,2,0,P|250:192|246:139,1,80.9999975280763
151,79,34017,1,0,0:0:0:0:
145,211,34154,1,0,0:0:0:0:
263,114,34291,1,10,0:0:0:0:
314,305,34428,6,0,P|257:332|193:298,1,121.499996292114,2|0,0:0|0:0,0:0:0:0:
127,287,34702,2,0,L|132:376,1,80.9999975280763,8|0,0:0|0:0,0:0:0:0:
82,166,34976,1,0,0:0:0:0:
257,240,35113,1,0,0:0:0:0:
186,124,35250,1,8,0:0:0:0:
186,124,35387,1,2,0:0:0:0:
324,131,35524,6,0,L|414:125,1,80.9999975280763,2|0,0:0|0:0,0:0:0:0:
451,32,35798,1,8,0:0:0:0:
401,221,35935,1,0,0:0:0:0:
235,135,36072,2,0,P|237:93|243:45,1,80.9999975280763
281,229,36346,1,8,0:0:0:0:
148,283,36483,6,0,P|86:237|-14:276,2,161.999995056153,2|8|8,0:0|0:0|0:0,0:0:0:0:
64,334,37168,1,0,0:0:0:0:
22,149,37305,1,0,0:0:0:0:
83,353,37442,2,0,P|86:308|91:252,1,80.9999975280763,10|0,0:0|0:0,0:0:0:0:
80,81,37716,5,8,0:0:0:0:
206,234,37853,1,8,0:0:0:0:
262,63,37990,1,0,0:0:0:0:
58,183,38127,5,8,0:0:0:0:
221,237,38264,1,0,0:0:0:0:
162,11,38401,5,8,0:0:0:0:
186,145,38538,1,0,0:0:0:0:
193,19,38675,1,0,0:0:0:0:
173,154,38812,6,0,L|248:147,1,67.5000025749208,6|0,0:0|0:0,0:0:0:0:
429,54,39086,2,0,P|390:44|356:36,1,67.5000025749208,2|0,0:0|0:0,0:0:0:0:
322,200,39360,2,0,P|326:167|333:130,1,67.5000025749208,2|0,0:0|0:0,0:0:0:0:
466,315,39634,2,0,P|461:277|454:231,1,67.5000025749208,2|0,0:0|0:0,0:0:0:0:
362,297,39908,6,0,P|301:309|243:258,1,135.000005149842,2|0,0:0|0:0,0:0:0:0:
213,363,40319,1,2,0:0:0:0:
135,288,40456,2,0,L|63:277,1,67.5000025749208
146,182,40730,2,0,L|222:166,1,67.5000025749208,2|0,0:0|0:0,0:0:0:0:
48,187,41004,6,0,P|47:148|40:103,1,67.5000025749208,4|0,0:0|0:0,0:0:0:0:
157,26,41278,2,0,L|148:111,1,67.5000025749208
253,218,41552,2,0,L|244:119,1,67.5000025749208
263,25,41826,2,0,L|343:36,1,67.5000025749208,0|2,0:0|0:0,0:0:0:0:
329,34,42031,1,0,0:0:0:0:
329,34,42100,5,0,0:0:0:0:
449,128,42237,1,2,0:0:0:0:
336,192,42374,2,0,P|338:165|349:119,1,67.5000025749208,2|8,0:0|0:0,0:0:0:0:
413,242,42647,1,8,0:0:0:0:
262,313,42784,1,8,0:0:0:0:
438,228,42921,1,8,0:0:0:0:
437,372,43058,1,8,0:0:0:0:
257,293,43195,6,0,L|364:286,1,80.9999975280763,4|0,0:0|0:0,0:0:0:0:
426,206,43469,1,8,0:0:0:0:
311,378,43606,1,0,0:0:0:0:
173,251,43743,2,0,P|132:251|27:242,1,121.499996292114,2|0,0:0|0:0,0:0:0:0:
21,260,44017,1,0,0:0:0:0:
135,78,44154,6,0,P|147:119|152:159,1,80.9999975280763,8|0,0:0|0:0,0:0:0:0:
112,286,44428,1,2,0:0:0:0:
244,190,44565,2,0,B|272:190|303:201|303:201|327:186|352:184|352:184|392:192|435:178,2,161.999995056153,8|0|8,0:0|0:0|0:0,0:0:0:0:
143,279,45250,1,0,0:0:0:0:
288,116,45387,6,0,P|283:73|275:22,1,80.9999975280763,4|0,0:0|0:0,0:0:0:0:
375,260,45661,1,0,0:0:0:0:
474,130,45798,2,0,P|431:136|373:137,1,80.9999975280763,8|0,0:0|0:0,0:0:0:0:
408,42,46072,1,0,0:0:0:0:
405,241,46209,1,2,0:0:0:0:
279,147,46346,1,8,0:0:0:0:
290,288,46483,6,0,P|225:280|137:280,1,121.499996292114,2|0,0:0|0:0,0:0:0:0:
120,312,46757,2,0,L|115:221,1,80.9999975280763,8|0,0:0|0:0,0:0:0:0:
41,172,46963,1,0,0:0:0:0:
41,172,47031,2,0,L|55:73,1,80.9999975280763,8|0,0:0|0:0,0:0:0:0:
308,118,47305,2,0,L|210:130,1,80.9999975280763,8|0,0:0|0:0,0:0:0:0:
193,37,47579,5,10,0:0:0:0:
275,215,47716,1,8,0:0:0:0:
275,215,47853,1,0,0:0:0:0:
269,20,47990,5,10,0:0:0:0:
190,262,48127,1,8,0:0:0:0:
190,262,48264,1,0,0:0:0:0:
215,7,48401,5,10,0:0:0:0:
270,307,48538,1,8,0:0:0:0:
270,307,48675,1,0,0:0:0:0:
391,132,48812,6,0,P|367:74|323:164,1,198.000006042481,2|0,0:0|0:0,0:0:0:0:
362,225,49154,1,0,0:0:0:0:
362,225,49223,2,0,P|405:220|466:207,1,99.0000030212403,2|0,0:0|0:0,0:0:0:0:
252,326,49497,2,0,L|140:309,1,99.0000030212403,2|0,0:0|0:0,0:0:0:0:
59,201,49771,6,0,P|56:160|47:102,1,90,4|0,0:0|0:0,0:0:0:0:
196,128,50045,1,10,0:0:0:0:
178,283,50182,1,0,0:0:0:0:
38,215,50319,1,2,0:0:0:0:
189,273,50456,1,0,0:0:0:0:
115,114,50593,1,10,0:0:0:0:
284,206,50730,1,0,0:0:0:0:
115,366,50867,6,0,P|115:302|109:208,1,135
86,178,51141,2,0,P|135:180|186:171,1,90,10|0,0:0|0:0,0:0:0:0:
339,76,51415,1,2,0:0:0:0:
262,260,51552,1,0,0:0:0:0:
389,220,51689,1,10,0:0:0:0:
237,115,51826,1,0,0:0:0:0:
457,149,51963,6,0,L|354:139,1,90
227,122,52237,1,10,0:0:0:0:
379,251,52374,1,0,0:0:0:0:
421,57,52510,1,2,0:0:0:0:
403,253,52647,1,0,0:0:0:0:
269,194,52784,2,0,P|263:238|259:283,1,90,10|0,0:0|0:0,0:0:0:0:
233,91,53058,6,0,P|173:107|55:133,1,180,4|10,0:0|0:0,0:0:0:0:
160,218,53469,1,4,0:0:0:0:
101,26,53606,1,2,0:0:0:0:
145,202,53743,2,0,P|138:243|132:298,2,90,0|10|0,0:0|0:0|0:0,0:0:0:0:
315,131,54154,6,0,P|361:127|407:120,1,90,4|0,0:0|0:0,0:0:0:0:
450,22,54428,1,10,0:0:0:0:
406,207,54565,1,0,0:0:0:0:
229,151,54702,2,0,P|227:103|221:40,1,90,2|0,0:0|0:0,0:0:0:0:
332,205,54976,1,10,0:0:0:0:
341,57,55113,1,0,0:0:0:0:
310,226,55250,6,0,P|305:268|303:330,1,90
428,380,55524,1,10,0:0:0:0:
417,229,55661,1,0,0:0:0:0:
212,304,55798,1,2,0:0:0:0:
412,266,55935,1,0,0:0:0:0:
312,144,56072,2,0,L|203:148,1,90,10|0,0:0|0:0,0:0:0:0:
82,253,56346,6,0,L|190:259,1,90
267,156,56620,1,10,0:0:0:0:
296,334,56757,1,0,0:0:0:0:
385,202,56894,1,2,0:0:0:0:
385,202,57031,1,0,0:0:0:0:
271,354,57168,2,0,L|176:345,1,90,10|0,0:0|0:0,0:0:0:0:
360,211,57442,5,0,0:0:0:0:
360,211,57579,1,0,0:0:0:0:
444,344,57716,1,10,0:0:0:0:
275,248,57853,1,0,0:0:0:0:
275,248,57921,1,0,0:0:0:0:
275,248,57990,5,2,0:0:0:0:
467,254,58127,1,0,0:0:0:0:
354,106,58264,1,10,0:0:0:0:
480,224,58401,1,8,0:0:0:0:
360,286,58538,6,0,P|365:250|370:186,1,90,4|0,0:0|0:0,0:0:0:0:
272,112,58812,1,10,0:0:0:0:
409,201,58949,1,0,0:0:0:0:
253,241,59086,2,0,P|219:235|157:237,1,90,2|0,0:0|0:0,0:0:0:0:
377,119,59360,2,0,P|430:124|481:123,1,90,10|0,0:0|0:0,0:0:0:0:
297,42,59634,5,0,0:0:0:0:
217,154,59771,1,0,0:0:0:0:
396,201,59908,1,10,0:0:0:0:
272,22,60045,1,0,0:0:0:0:
305,165,60182,2,0,P|308:209|310:263,1,90,2|0,0:0|0:0,0:0:0:0:
426,318,60456,1,10,0:0:0:0:
227,242,60593,1,0,0:0:0:0:
227,242,60661,1,0,0:0:0:0:
227,242,60730,1,2,0:0:0:0:
412,197,60867,5,0,0:0:0:0:
221,260,61004,2,0,B|118:252,1,90,10|0,0:0|0:0,0:0:0:0:
40,163,61278,1,2,0:0:0:0:
65,311,61415,1,0,0:0:0:0:
196,158,61552,1,10,0:0:0:0:
162,347,61689,1,0,0:0:0:0:
164,185,61826,6,0,B|137:135|137:135|147:83|147:83|111:20,1,180,4|8,0:0|0:0,0:0:0:0:
59,212,62237,2,0,P|113:216|252:204,1,180,4|0,0:0|0:0,0:0:0:0:
320,45,62647,1,8,0:0:0:0:
320,45,62921,6,0,L|318:141,1,90,4|0,0:0|0:0,0:0:0:0:
405,315,63195,2,0,L|400:213,1,90,10|0,0:0|0:0,0:0:0:0:
472,117,63469,1,2,0:0:0:0:
472,117,63606,1,0,0:0:0:0:
327,24,63743,1,10,0:0:0:0:
327,24,63880,1,0,0:0:0:0:
287,138,64017,6,0,B|369:153|364:105|456:141,1,161.999995056153,4|0,0:0|0:0,0:0:0:0:
448,239,64428,2,0,B|365:206|370:254|288:239,1,161.999995056153,4|0,0:0|0:0,0:0:0:0:
185,155,64839,6,0,P|146:169|190:230,1,121.499996292114
224,278,65113,2,0,L|219:353,1,67.5000025749208,2|0,0:0|0:0,0:0:0:0:
53,232,65387,2,0,L|57:157,1,67.5000025749208,2|0,0:0|0:0,0:0:0:0:
265,27,65661,6,0,L|259:107,1,73.8000011260987,2|0,0:0|0:0,0:0:0:0:
421,297,65935,2,0,L|426:224,1,73.8000011260987,2|0,0:0|0:0,0:0:0:0:
270,177,66209,6,0,L|154:188,2,80.9999975280763,10|0|0,0:0|0:0|0:0,0:0:0:0:
379,91,66620,2,0,L|366:183,1,80.9999975280763,2|0,0:0|0:0,0:0:0:0:
247,265,66894,2,0,P|256:317|260:373,1,99.0000030212403,10|0,0:0|0:0,0:0:0:0:
90,256,67168,1,8,0:0:0:0:
90,256,67237,1,0,0:0:0:0:
90,256,67305,6,0,L|98:150,1,90,4|0,0:0|0:0,0:0:0:0:
182,59,67579,1,10,0:0:0:0:
215,193,67716,1,0,0:0:0:0:
155,86,67853,2,0,P|129:89|50:81,1,90,8|0,0:0|0:0,0:0:0:0:
230,211,68127,1,2,0:0:0:0:
386,98,68264,6,0,P|376:197|372:261,1,135,8|0,0:0|0:0,0:0:0:0:
441,271,68538,2,0,P|453:312|463:364,1,90,8|0,0:0|0:0,0:0:0:0:
465,174,68812,1,2,0:0:0:0:
248,206,68949,1,8,0:0:0:0:
359,334,69086,1,2,0:0:0:0:
351,154,69223,2,0,P|344:104|344:60,1,90,8|0,0:0|0:0,0:0:0:0:
462,197,69497,5,8,0:0:0:0:
293,236,69634,1,0,0:0:0:0:
430,313,69771,1,10,0:0:0:0:
285,252,69908,2,0,P|238:257|170:271,1,90,8|0,0:0|0:0,0:0:0:0:
121,340,70182,1,0,0:0:0:0:
84,164,70319,1,2,0:0:0:0:
346,182,70456,6,0,P|386:247|325:328,1,180,8|8,0:0|0:0,0:0:0:0:
223,198,70867,1,0,0:0:0:0:
198,343,71004,1,2,0:0:0:0:
50,260,71141,1,8,0:0:0:0:
215,349,71278,1,10,0:0:0:0:
132,174,71415,2,0,P|135:219|135:275,1,90,8|8,0:0|0:0,0:0:0:0:
48,58,71689,6,0,P|89:72|194:80,1,135,4|0,0:0|0:0,0:0:0:0:
243,14,71963,1,10,0:0:0:0:
53,191,72100,1,0,0:0:0:0:
85,41,72237,1,10,0:0:0:0:
145,279,72374,2,0,P|147:232|151:181,1,90,0|8,0:0|0:0,0:0:0:0:
255,257,72647,6,0,L|469:244,1,180,10|8,0:0|0:0,0:0:0:0:
359,154,73058,1,2,0:0:0:0:
438,331,73195,1,0,0:0:0:0:
381,155,73332,2,0,P|378:105|377:64,1,90,8|0,0:0|0:0,0:0:0:0:
453,221,73606,1,0,0:0:0:0:
286,147,73743,1,2,0:0:0:0:
331,278,73880,6,0,P|328:316|322:377,1,90,2|0,0:0|0:0,0:0:0:0:
261,171,74154,1,8,0:0:0:0:
141,249,74291,2,0,L|46:255,1,90
230,325,74565,1,2,0:0:0:0:
252,194,74702,1,0,0:0:0:0:
115,213,74839,6,0,P|124:144|126:51,1,135,8|0,0:0|0:0,0:0:0:0:
70,23,75113,1,2,0:0:0:0:
210,95,75250,1,8,0:0:0:0:
13,163,75387,1,0,0:0:0:0:
60,41,75524,1,2,0:0:0:0:
150,173,75661,2,0,L|258:181,1,90,8|0,0:0|0:0,0:0:0:0:
414,50,75935,1,8,0:0:0:0:
332,225,76072,6,0,P|329:182|331:130,2,90,4|8|0,0:0|0:0|0:0,0:0:0:0:
413,323,76483,1,2,0:0:0:0:
240,260,76620,2,0,L|144:262,1,90,8|0,0:0|0:0,0:0:0:0:
284,349,76894,1,8,0:0:0:0:
438,237,77031,1,8,0:0:0:0:
310,103,77168,6,0,L|206:96,1,90,2|0,0:0|0:0,0:0:0:0:
63,195,77442,1,0,0:0:0:0:
39,41,77579,1,0,0:0:0:0:
222,78,77716,1,10,0:0:0:0:
48,171,77853,1,0,0:0:0:0:
148,21,77990,2,0,P|140:69|136:120,1,90,2|0,0:0|0:0,0:0:0:0:
118,250,78264,5,0,0:0:0:0:
153,121,78401,1,8,0:0:0:0:
215,270,78538,1,0,0:0:0:0:
51,181,78675,1,2,0:0:0:0:
123,349,78812,2,0,L|121:244,1,90,10|0,0:0|0:0,0:0:0:0:
269,182,79086,1,10,0:0:0:0:
400,294,79223,6,0,L|214:273,1,180,8|0,0:0|0:0,0:0:0:0:
274,184,79634,1,2,0:0:0:0:
251,368,79771,1,0,0:0:0:0:
128,229,79908,2,0,L|25:223,1,90,10|0,0:0|0:0,0:0:0:0:
274,184,80182,1,10,0:0:0:0:
253,310,80319,1,2,0:0:0:0:
140,254,80456,5,4,0:0:0:0:
279,317,80593,1,0,0:0:0:0:
191,148,80730,1,2,0:0:0:0:
397,196,80867,6,0,L|288:187,1,90,8|0,0:0|0:0,0:0:0:0:
196,137,81141,1,0,0:0:0:0:
358,108,81278,1,10,0:0:0:0:
276,274,81415,1,0,0:0:0:0:
331,113,81552,6,0,P|326:61|323:11,1,90,0|8,0:0|0:0,0:0:0:0:
166,230,81826,2,0,P|170:279|172:334,1,90,10|0,0:0|0:0,0:0:0:0:
242,148,82100,1,10,0:0:0:0:
93,102,82237,1,8,0:0:0:0:
153,232,82374,1,2,0:0:0:0:
100,80,82510,1,0,0:0:0:0:
254,112,82647,6,0,L|356:109,1,90,8|0,0:0|0:0,0:0:0:0:
142,253,82921,2,0,L|28:249,1,90,8|0,0:0|0:0,0:0:0:0:
175,144,83195,5,8,0:0:0:0:
233,325,83332,1,0,0:0:0:0:
335,103,83469,5,8,0:0:0:0:
251,333,83606,1,0,0:0:0:0:
176,160,83743,5,8,0:0:0:0:
401,260,83880,1,8,0:0:0:0:
257,31,84017,5,8,0:0:0:0:
297,242,84154,1,8,0:0:0:0:
462,84,84291,5,8,0:0:0:0:
251,123,84428,1,8,0:0:0:0:
450,54,84565,5,8,0:0:0:0:
262,152,84702,1,8,0:0:0:0:
411,275,84839,6,0,L|236:260,1,161.999995056153,4|0,0:0|0:0,0:0:0:0:
77,159,85250,2,0,P|152:108|222:161,1,161.999995056153,4|0,0:0|0:0,0:0:0:0:
131,345,85661,2,0,L|155:161,1,161.999995056153,4|0,0:0|0:0,0:0:0:0:
288,36,86072,2,0,L|312:220,1,161.999995056153,4|0,0:0|0:0,0:0:0:0:
336,331,86483,1,8,0:0:0:0:
324,312,86757,5,8,0:0:0:0:
108,220,86894,1,4,0:0:0:0:
256,192,87031,12,0,88812,0:0:0:0:
256,192,88949,5,10,0:0:0:0:
256,192,89086,1,10,0:0:0:0:
