osu file format v14

[General]
AudioFilename: comet lucifer.mp3
AudioLeadIn: 0
PreviewTime: 50050
Countdown: 0
SampleSet: Soft
StackLeniency: 0.7
Mode: 0
LetterboxInBreaks: 0
WidescreenStoryboard: 0

[Editor]
DistanceSpacing: 1.3
BeatDivisor: 4
GridSize: 4
TimelineZoom: 1.5

[Metadata]
Title:Comet Lucifer ~The Seed and the Sower ~
TitleUnicode:コメットルシファー ~The Seed and the Sower~
Artist:fhana
ArtistUnicode:fhána
Creator:Del05
Version:Insane
Source:コメット・ルシファー
Tags:opening felia sougo gifdium tv size SnowNiNo_
BeatmapID:840021
BeatmapSetID:371908

[Difficulty]
HPDrainRate:7
CircleSize:4
OverallDifficulty:7
ApproachRate:9
SliderMultiplier:1.6
SliderTickRate:1

[Events]
//Background and Video events
Video,96,"OP.avi"
0,0,"BG.jpg",0,0
//Break Periods
//Storyboard Layer 0 (Background)
//Storyboard Layer 1 (Fail)
//Storyboard Layer 2 (Pass)
//Storyboard Layer 3 (Foreground)
//Storyboard Sound Samples

[TimingPoints]
1831,273.972602739726,4,2,1,50,1,0
1831,-133.333333333333,4,2,1,50,0,0
13885,-100,4,2,1,50,0,0
22652,-125,4,2,1,35,0,0
31420,-111.111111111111,4,2,1,50,0,0
39091,-133.333333333333,4,2,1,50,0,0
42378,-117.647058823529,4,2,1,50,0,0
45666,-100,4,2,1,50,0,0
50050,-100,4,2,1,70,0,1
58543,-100,4,2,1,70,0,0
58817,-100,4,2,1,70,0,1
65118,-125,4,2,1,70,0,1
65392,-125,4,2,1,70,0,1
65666,-100,4,2,1,70,0,1
67173,-100,4,2,1,70,0,0
67584,-100,4,2,1,70,0,1
79639,-100,4,2,1,70,0,0

[Colours]
Combo1 : 220,39,60
Combo2 : 225,147,204
Combo3 : 145,220,236
Combo4 : 239,167,114
Combo5 : 133,136,254
Combo6 : 135,196,164

[HitObjects]
72,344,1831,6,0,P|60:277|64:216,1,120.000004577637,2|0,0:1|0:0,0:0:0:0:
120,164,2241,2,0,P|188:163|260:144,1,120.000004577637,2|0,0:1|0:0,0:0:0:0:
320,168,2652,6,0,P|321:227|310:286,1,120.000004577637,2|0,0:1|0:0,0:0:0:0:
408,360,3063,2,0,P|396:301|398:241,1,120.000004577637,2|0,0:1|0:0,0:0:0:0:
452,176,3474,2,0,L|510:163,1,60.0000022888184,2|0,0:1|0:0,0:0:0:0:
432,96,3748,2,0,L|373:82,1,60.0000022888184,2|0,0:1|0:0,0:0:0:0:
292,64,4022,5,2,0:1:0:0:
212,144,4159,1,2,0:1:0:0:
180,52,4296,1,2,0:1:0:0:
296,148,4433,6,0,P|267:208|197:227,1,120.000004577637,2|0,0:1|0:0,0:0:0:0:
104,131,4844,2,0,P|133:71|203:52,1,120.000004577637,2|0,0:1|0:0,0:0:0:0:
212,144,5255,6,0,L|212:264,1,120.000004577637,2|0,0:1|0:0,0:0:0:0:
296,268,5666,2,0,L|296:148,1,120.000004577637,2|0,0:1|0:0,0:0:0:0:
340,76,6077,1,2,0:1:0:0:
408,124,6214,6,0,P|408:184|368:236,1,120.000004577637
296,268,6625,2,0,P|231:276|156:276,1,120.000004577637
96,248,7036,1,0,0:0:0:0:
120,168,7173,6,0,P|185:160|260:160,1,120.000004577637
320,188,7584,1,0,0:0:0:0:
381,242,7721,2,0,P|401:186|380:132,1,120.000004577637
300,268,8132,1,0,0:0:0:0:
320,188,8269,6,0,L|252:80,1,120.000004577637
184,40,8680,2,0,P|144:36|116:40,1,60.0000022888184
60,92,8954,1,0,0:0:0:0:
116,156,9091,1,0,0:0:0:0:
48,204,9228,2,0,L|36:268,1,60.0000022888184
100,320,9502,6,0,P|160:300|240:317,1,120.000004577637
292,344,9913,1,0,0:0:0:0:
364,300,10050,2,0,L|352:232,1,60.0000022888184
306,116,10324,2,0,L|296:176,1,60.0000022888184
248,244,10598,5,0,0:0:0:0:
248,244,10735,1,0,0:0:0:0:
184,171,10872,1,0,0:0:0:0:
152,260,11009,1,0,0:0:0:0:
248,244,11146,2,0,B|292:244|292:244|320:256|320:256|388:256,1,120.000004577637
436,208,11557,6,0,P|444:146|440:80,1,120.000004577637
380,32,11967,1,0,0:0:0:0:
316,104,12104,2,0,P|252:116|176:112,1,120.000004577637
132,64,12515,1,0,0:0:0:0:
72,120,12652,1,2,0:0:0:0:
132,176,12789,6,0,L|132:240,1,60.0000022888184,8|2,0:0|0:0,0:0:0:0:
120,320,13063,1,8,0:0:0:0:
208,272,13200,2,0,P|272:252|344:264,1,120.000004577637,2|6,0:0|0:0,0:0:0:0:
426,265,13885,6,0,B|426:197|426:197|438:161|438:161|438:105,1,160,6|8,0:0|0:0,0:0:0:0:
352,60,14296,2,0,P|304:56|260:68,1,80
200,128,14570,1,8,0:0:0:0:
136,32,14707,1,8,0:0:0:0:
68,124,14844,2,0,L|64:208,1,80,2|0,0:0|0:0,0:0:0:0:
60,300,15118,5,8,0:0:0:0:
60,300,15255,1,0,0:0:0:0:
148,260,15392,1,2,0:0:0:0:
216,328,15529,2,0,P|255:334|307:327,1,80,8|0,0:0|0:0,0:0:0:0:
415,246,15803,2,0,P|375:239|336:244,1,80,8|0,0:0|0:0,0:0:0:0:
471,307,16077,6,0,P|495:233|449:170,1,160,6|8,0:0|0:0,0:0:0:0:
360,140,16488,2,0,L|348:48,1,80,6|0,0:0|0:0,0:0:0:0:
349,60,16762,1,8,0:0:0:0:
252,120,16899,1,8,0:0:0:0:
164,52,17036,2,0,P|119:49|80:64,1,80,6|0,0:0|0:0,0:0:0:0:
20,132,17310,5,8,0:0:0:0:
20,132,17447,1,0,0:0:0:0:
88,200,17584,1,2,0:0:0:0:
172,152,17721,2,0,P|210:152|260:164,1,80,8|0,0:0|0:0,0:0:0:0:
355,264,17995,2,0,P|315:264|276:256,1,80,8|0,0:0|0:0,0:0:0:0:
410,203,18269,6,0,P|436:262|377:343,1,160,6|8,0:0|0:0,0:0:0:0:
296,360,18680,2,0,L|200:332,1,80,2|0,0:0|0:0,0:0:0:0:
132,296,18954,1,8,0:0:0:0:
44,364,19091,1,8,0:0:0:0:
4,260,19228,6,0,P|5:173|25:77,1,160,2|8,0:0|0:0,0:0:0:0:
92,36,19639,1,0,0:0:0:0:
160,104,19776,1,2,0:0:0:0:
236,44,19913,2,0,P|274:35|314:37,1,80,8|0,0:0|0:0,0:0:0:0:
434,117,20187,2,0,P|395:126|356:123,1,80,8|0,0:0|0:0,0:0:0:0:
491,57,20461,6,2,P|517:129|461:198,1,160,6|2,0:0|0:0,0:0:0:0:
388,240,20872,2,0,P|296:232|200:249,1,160,8|2,0:0|0:0,0:0:0:0:
148,296,21283,1,0,0:0:0:0:
228,348,21420,6,0,P|320:356|416:339,1,160,6|2,0:0|0:0,0:0:0:0:
473,218,21831,1,2,0:0:0:0:
327,271,21967,1,2,0:0:0:0:
477,314,22104,1,8,0:0:0:0:
381,192,22241,1,8,0:0:0:0:
381,192,22652,6,0,P|308:181|228:200,1,128,2|2,0:0|0:0,0:0:0:0:
188,240,23063,1,0,0:0:0:0:
120,196,23200,2,0,L|112:124,1,64,2|0,0:0|0:0,0:0:0:0:
144,56,23474,1,2,0:0:0:0:
216,100,23611,1,0,0:0:0:0:
288,60,23748,6,0,P|347:49|424:64,1,128,2|2,0:0|0:0,0:0:0:0:
476,116,24159,1,0,0:0:0:0:
412,168,24296,2,0,P|411:208|420:240,1,64,2|0,0:0|0:0,0:0:0:0:
452,308,24570,1,2,0:0:0:0:
384,356,24707,1,0,0:0:0:0:
320,304,24844,6,0,P|248:297|164:314,1,128,2|2,0:0|0:0,0:0:0:0:
124,352,25255,1,0,0:0:0:0:
60,300,25392,2,0,B|69:195|69:195|80:168,1,128,2|2,0:0|0:0,0:0:0:0:
148,128,25803,1,0,0:0:0:0:
212,180,25940,6,0,L|288:172,1,64,2|0,0:0|0:0,0:0:0:0:
399,123,26214,2,0,L|336:116,1,64,2|0,0:0|0:0,0:0:0:0:
256,92,26488,1,2,0:0:0:0:
256,92,26625,1,0,0:0:0:0:
212,180,26762,1,8,0:0:0:0:
164,64,26899,1,8,0:0:0:0:
72,136,27036,6,0,P|63:203|64:271,1,128,2|2,0:0|0:0,0:0:0:0:
120,324,27447,2,0,P|192:332|272:320,1,128
316,280,27858,1,2,0:0:0:0:
384,328,27995,1,0,0:0:0:0:
444,272,28132,6,0,L|456:180,1,64,2|0,0:0|0:0,0:0:0:0:
388,148,28406,2,0,L|378:211,1,64,2|0,0:0|0:0,0:0:0:0:
464,131,28680,2,0,P|432:82|355:78,1,128,2|2,0:0|0:0,0:0:0:0:
296,116,29091,1,0,0:0:0:0:
224,72,29228,6,0,P|154:63|88:76,1,128,2|2,0:0|0:0,0:0:0:0:
36,128,29639,1,0,0:0:0:0:
96,188,29776,2,0,B|104:300|104:300|116:320,1,128,2|2,0:0|0:0,0:0:0:0:
184,356,30187,1,0,0:0:0:0:
252,312,30324,6,0,P|260:276|252:244,1,64,2|0,0:0|0:0,0:0:0:0:
204,184,30598,1,8,0:0:0:0:
168,260,30735,1,8,0:0:0:0:
168,260,30803,1,8,0:0:0:0:
168,260,30872,1,8,0:0:0:0:
288,176,31009,1,8,0:0:0:0:
220,108,31146,1,2,0:0:0:0:
136,156,31283,1,8,0:0:0:0:
254,249,31420,6,0,L|352:268,1,71.9999978027344,2|0,0:0|0:0,0:0:0:0:
348,348,31694,2,0,L|276:334,1,71.9999978027344,8|0,0:0|0:0,0:0:0:0:
196,312,31967,1,2,0:0:0:0:
168,232,32104,1,2,0:0:0:0:
112,296,32241,1,0,0:0:0:0:
254,249,32378,6,0,P|274:168|262:101,1,143.999995605469,8|2,0:0|0:0,0:0:0:0:
137,30,32789,2,0,P|130:65|126:113,1,71.9999978027344,8|0,0:0|0:0,0:0:0:0:
192,156,33063,1,2,0:0:0:0:
265,109,33200,1,2,0:0:0:0:
348,132,33337,2,0,P|384:136|425:129,1,71.9999978027344,8|0,0:0|0:0,0:0:0:0:
448,212,33611,6,0,P|414:207|367:218,1,71.9999978027344,2|0,0:0|0:0,0:0:0:0:
336,292,33885,2,0,P|300:298|265:293,1,71.9999978027344,8|0,0:0|0:0,0:0:0:0:
188,252,34159,1,2,0:0:0:0:
188,340,34296,1,2,0:0:0:0:
112,296,34433,1,0,0:0:0:0:
265,293,34570,6,0,P|272:214|260:120,1,143.999995605469,8|2,0:0|0:0,0:0:0:0:
195,40,34981,2,0,P|189:76|188:112,1,71.9999978027344,8|0,0:0|0:0,0:0:0:0:
100,223,35255,2,0,P|106:187|108:152,1,71.9999978027344,2|2,0:0|0:0,0:0:0:0:
80,68,35529,1,8,0:0:0:0:
80,68,35666,1,0,0:0:0:0:
195,40,35803,6,0,L|288:60,1,71.9999978027344,2|0,0:0|0:0,0:0:0:0:
264,144,36077,2,0,L|193:130,1,71.9999978027344,8|0,0:0|0:0,0:0:0:0:
108,151,36351,1,2,0:0:0:0:
168,212,36488,1,2,0:0:0:0:
84,232,36625,2,0,L|72:312,1,71.9999978027344,8|0,0:0|0:0,0:0:0:0:
140,360,36899,6,0,L|155:265,1,71.9999978027344,2|0,0:0|0:0,0:0:0:0:
232,256,37173,2,0,L|221:332,1,71.9999978027344,8|0,0:0|0:0,0:0:0:0:
300,368,37447,1,2,0:0:0:0:
380,332,37584,1,2,0:0:0:0:
460,368,37721,2,0,P|468:329|460:294,1,71.9999978027344,8|0,0:0|0:0,0:0:0:0:
389,182,37995,6,0,P|381:216|388:252,1,71.9999978027344,8|8,0:0|0:0,0:0:0:0:
468,216,38269,1,2,0:0:0:0:
388,252,38406,2,0,B|280:267|280:267|232:256,1,143.999995605469,2|8,0:0|0:0,0:0:0:0:
168,220,38817,1,2,0:0:0:0:
108,280,38954,1,2,0:0:0:0:
88,300,39022,1,2,0:0:0:0:
72,316,39091,6,0,L|64:176,1,120.000004577637,2|2,0:0|0:0,0:0:0:0:
88,104,39639,1,2,0:0:0:0:
88,104,39913,1,2,0:0:0:0:
176,188,40187,5,2,0:0:0:0:
176,188,40461,1,2,0:0:0:0:
176,188,40735,1,2,0:0:0:0:
284,132,41009,2,0,L|292:72,1,60.0000022888184,8|0,0:0|0:0,0:0:0:0:
360,36,41283,5,2,0:0:0:0:
360,36,41557,1,2,0:0:0:0:
360,36,41831,1,2,0:0:0:0:
360,36,42104,1,2,0:0:0:0:
424,156,42378,6,0,L|436:236,1,68.0000012969971,2|8,0:0|0:0,0:0:0:0:
392,304,42652,1,2,0:0:0:0:
320,240,42789,1,8,0:0:0:0:
320,240,42926,2,0,L|232:260,1,68.0000012969971,2|0,0:0|0:0,0:0:0:0:
180,316,43200,1,2,0:0:0:0:
140,228,43337,1,0,0:0:0:0:
253,255,43474,6,0,P|268:182|252:108,1,136.000002593994,6|8,0:0|0:0,0:0:0:0:
212,48,43885,1,0,0:0:0:0:
148,104,44022,2,0,P|112:104|64:96,1,68.0000012969971,2|2,0:0|0:0,0:0:0:0:
12,48,44296,1,0,0:0:0:0:
16,168,44433,6,0,L|28:308,1,136.000002593994,8|2,0:0|0:0,0:0:0:0:
108,352,44844,2,0,L|115:285,1,68.0000012969971,8|0,0:0|0:0,0:0:0:0:
164,212,45118,1,2,0:0:0:0:
220,276,45255,1,2,0:0:0:0:
276,212,45392,2,0,P|308:201|364:208,1,68.0000012969971,8|0,0:0|0:0,0:0:0:0:
220,276,45666,6,0,P|194:193|242:135,1,160,6|8,0:0|0:0,0:0:0:0:
341,201,46077,2,0,L|337:285,1,80
420,332,46351,2,0,L|423:248,1,80,2|0,0:0|0:0,0:0:0:0:
428,156,46625,1,8,0:0:0:0:
341,201,46762,6,0,L|244:216,1,80,0|2,0:0|0:0,0:0:0:0:
284,120,47036,2,0,L|195:135,1,80,8|0,0:0|0:0,0:0:0:0:
112,156,47310,1,8,0:0:0:0:
72,68,47447,1,2,0:0:0:0:
12,144,47584,1,2,0:0:0:0:
148,80,47721,1,2,0:0:0:0:
55,209,47858,6,0,B|44:240|64:268|64:268|48:296|60:332|60:332|60:364,1,160,6|8,0:0|0:0,0:0:0:0:
153,234,48269,2,0,B|164:203|144:175|144:175|160:147|148:111|148:111|148:79,1,160,6|8,0:0|0:0,0:0:0:0:
272,48,48680,2,0,B|272:80|272:80|260:116|276:144|276:144|256:172|267:203,1,160,6|8,0:0|0:0,0:0:0:0:
279,300,49091,5,6,0:0:0:0:
279,328,49502,5,6,0:0:0:0:
279,346,49776,5,6,0:0:0:0:
279,362,50050,6,0,B|207:384|151:364|151:364|163:320,1,160,6|8,0:0|0:0,0:0:0:0:
191,244,50461,1,0,0:0:0:0:
95,252,50598,1,2,0:0:0:0:
67,344,50735,1,2,0:0:0:0:
3,272,50872,2,0,L|11:172,1,80,8|0,0:0|0:0,0:0:0:0:
75,124,51146,6,0,B|191:146|191:146|235:140,1,160,2|8,0:0|0:0,0:0:0:0:
315,88,51557,1,0,0:0:0:0:
391,147,51694,2,0,P|406:101|405:67,1,80,2|2,0:0|0:0,0:0:0:0:
311,171,51967,2,0,P|314:211|329:248,1,80,8|0,0:0|0:0,0:0:0:0:
391,324,52241,6,0,B|331:355|289:332|289:332|231:336,1,160,2|8,0:0|0:0,0:0:0:0:
143,360,52652,1,2,0:0:0:0:
63,304,52789,2,0,P|60:254|71:220,1,80,0|2,0:0|0:0,0:0:0:0:
143,160,53063,1,8,0:0:0:0:
159,256,53200,1,0,0:0:0:0:
66,151,53337,6,0,P|101:94|198:104,1,160,2|8,0:0|0:0,0:0:0:0:
263,216,53748,2,0,P|187:222|143:160,1,160,2|2,0:0|0:0,0:0:0:0:
142,159,54159,1,8,0:0:0:0:
204,88,54296,1,2,0:0:0:0:
288,196,54433,6,0,B|288:240|288:240|259:315|310:358,1,160,6|8,0:0|0:0,0:0:0:0:
376,288,54844,1,0,0:0:0:0:
448,224,54981,1,2,0:0:0:0:
468,320,55118,1,2,0:0:0:0:
376,212,55255,2,0,P|396:170|430:151,1,80,8|0,0:0|0:0,0:0:0:0:
468,320,55529,6,0,P|448:362|414:381,1,80,2|0,0:0|0:0,0:0:0:0:
376,288,55803,1,8,0:0:0:0:
300,344,55940,1,0,0:0:0:0:
224,284,56077,2,0,L|216:184,1,80,2|2,0:0|0:0,0:0:0:0:
124,188,56351,2,0,L|131:267,1,80,8|0,0:0|0:0,0:0:0:0:
40,232,56625,6,0,L|55:52,1,160,2|8,0:0|0:0,0:0:0:0:
53,72,57036,1,2,0:0:0:0:
144,108,57173,2,0,L|244:128,1,80,0|2,0:0|0:0,0:0:0:0:
292,192,57447,1,8,0:0:0:0:
356,124,57584,1,0,0:0:0:0:
356,124,57721,6,0,P|384:186|325:279,1,160,2|8,0:0|0:0,0:0:0:0:
252,280,58132,1,0,0:0:0:0:
292,192,58269,2,0,L|268:104,1,80,2|0,0:0|0:0,0:0:0:0:
196,56,58543,1,8,0:0:0:0:
196,56,58680,1,8,0:0:0:0:
114,204,58817,6,0,P|176:254|251:279,1,160,6|8,0:0|0:0,0:0:0:0:
344,244,59228,1,0,0:0:0:0:
328,340,59365,1,2,0:0:0:0:
416,308,59502,1,2,0:0:0:0:
436,216,59639,2,0,L|432:136,1,80,8|0,0:0|0:0,0:0:0:0:
380,56,59913,6,0,B|261:73|261:73|198:107,1,160,2|8,0:0|0:0,0:0:0:0:
136,184,60324,2,0,B|255:167|255:167|290:148,1,160,2|2,0:0|0:0,0:0:0:0:
290,148,60735,1,8,0:0:0:0:
340,228,60872,1,0,0:0:0:0:
340,228,61009,6,0,B|172:252,1,160,2|8,0:0|0:0,0:0:0:0:
88,272,61420,1,0,0:0:0:0:
152,344,61557,1,2,0:0:0:0:
152,344,61694,1,2,0:0:0:0:
56,352,61831,2,0,P|21:323|3:275,1,80,8|0,0:0|0:0,0:0:0:0:
28,200,62104,6,0,P|104:179|173:230,1,160,2|8,0:0|0:0,0:0:0:0:
88,272,62515,2,0,L|88:96,1,160,2|2,0:0|0:0,0:0:0:0:
164,40,62926,2,0,L|164:120,1,80,8|0,0:0|0:0,0:0:0:0:
167,220,63200,6,0,P|256:232|336:216,1,160,2|8,0:0|0:0,0:0:0:0:
400,160,63611,1,0,0:0:0:0:
440,248,63748,1,2,0:0:0:0:
440,248,63885,1,2,0:0:0:0:
512,184,64022,2,0,L|504:100,1,80,8|0,0:0|0:0,0:0:0:0:
432,40,64296,6,0,P|349:35|248:44,1,160,6|8,0:0|0:0,0:0:0:0:
264,136,64707,2,0,P|184:140|104:136,1,160,2|2,0:0|0:0,0:0:0:0:
28,108,65118,6,0,B|21:158|40:188|40:188|18:260|32:304,1,192,12|2,0:0|0:0,0:0:0:0:
92,360,65666,6,0,L|196:352,1,80,8|0,0:0|0:0,0:0:0:0:
276,356,65940,1,2,0:0:0:0:
360,296,66077,1,2,0:0:0:0:
460,308,66214,2,0,L|468:220,1,80,8|0,0:0|0:0,0:0:0:0:
440,136,66488,6,0,P|356:116|276:152,1,160,2|8,0:0|0:0,0:0:0:0:
224,212,66899,1,2,0:0:0:0:
148,152,67036,2,0,L|140:72,1,80,0|2,0:0|0:0,0:0:0:0:
44,68,67310,1,8,0:0:0:0:
44,68,67447,1,2,0:0:0:0:
82,217,67584,6,0,P|43:223|4:218,1,80,6|0,0:0|0:0,0:0:0:0:
156,156,67858,2,0,P|192:150|238:157,1,80,8|0,0:0|0:0,0:0:0:0:
362,227,68132,2,0,P|323:233|284:228,1,80,8|0,0:0|0:0,0:0:0:0:
234,156,68406,1,0,0:0:0:0:
284,84,68543,6,0,P|328:77|430:138,1,160,2|8,0:0|0:0,0:0:0:0:
456,220,68954,1,0,0:0:0:0:
362,227,69091,1,2,0:0:0:0:
348,320,69228,2,0,L|260:332,1,80,8|0,0:0|0:0,0:0:0:0:
124,249,69502,2,0,L|204:260,1,80,8|0,0:0|0:0,0:0:0:0:
144,336,69776,5,2,0:0:0:0:
52,304,69913,2,0,L|29:227,1,80,8|0,0:0|0:0,0:0:0:0:
124,249,70187,2,0,L|121:168,1,80,2|0,0:0|0:0,0:0:0:0:
220,176,70461,2,0,L|232:80,1,80,2|0,0:0|0:0,0:0:0:0:
203,259,70735,6,0,P|247:256|300:156,1,160,6|8,0:0|0:0,0:0:0:0:
368,96,71146,2,0,P|371:136|412:184,1,80,0|2,0:0|0:0,0:0:0:0:
476,214,71420,1,8,0:0:0:0:
365,323,71557,1,8,0:0:0:0:
462,309,71694,1,2,0:0:0:0:
321,238,71831,1,2,0:0:0:0:
196,348,71967,6,0,P|192:268|192:168,1,160,6|8,0:0|0:0,0:0:0:0:
232,100,72378,1,2,0:0:0:0:
325,78,72515,2,0,P|324:157|320:237,1,160,8|2,0:0|0:0,0:0:0:0:
400,292,72926,6,0,P|396:212|395:132,1,160,8|8,0:0|0:0,0:0:0:0:
464,64,73337,1,0,0:0:0:0:
488,156,73474,1,2,0:0:0:0:
504,252,73611,2,0,L|500:340,1,80,8|0,0:0|0:0,0:0:0:0:
412,376,73885,1,2,0:0:0:0:
316,364,74022,1,2,0:0:0:0:
320,237,74159,6,0,P|324:157|325:78,1,160,6|8,0:0|0:0,0:0:0:0:
244,28,74570,2,0,L|156:52,1,80,2|0,0:0|0:0,0:0:0:0:
236,116,74844,2,0,L|158:135,1,80,2|0,0:0|0:0,0:0:0:0:
76,84,75118,6,0,P|64:152|128:228,1,160,8|8,0:0|0:0,0:0:0:0:
196,272,75529,2,0,P|259:286|352:272,1,160,2|2,0:0|0:0,0:0:0:0:
416,200,75940,1,2,0:0:0:0:
488,264,76077,1,2,0:0:0:0:
424,336,76214,1,2,0:0:0:0:
416,200,76351,6,0,L|408:108,1,80,6|8,0:0|0:0,0:0:0:0:
344,48,76625,1,8,0:0:0:0:
276,116,76762,1,2,0:0:0:0:
208,48,76899,2,0,P|125:37|40:52,1,160,8|8,0:0|0:0,0:0:0:0:
118,116,77310,6,0,P|201:127|286:112,1,160,2|8,0:0|0:0,0:0:0:0:
344,48,77721,2,0,L|424:56,1,80,2|0,0:0|0:0,0:0:0:0:
511,145,77995,2,0,L|432:152,1,80,8|0,0:0|0:0,0:0:0:0:
340,184,78269,1,0,0:0:0:0:
340,184,78406,1,2,0:0:0:0:
344,48,78543,5,6,0:0:0:0:
275,115,78680,2,0,P|196:127|118:116,1,160,8|2,0:0|0:0,0:0:0:0:
28,80,79091,2,0,L|16:172,1,80,8|0,0:0|0:0,0:0:0:0:
110,291,79365,2,0,L|100:212,1,80,8|0,0:0|0:0,0:0:0:0:
117,115,79639,5,2,0:0:0:0:
196,172,79776,1,2,0:0:0:0:
120,76,79913,1,8,0:0:0:0:
232,172,80050,1,0,0:0:0:0:
123,35,80187,2,0,L|220:24,1,80,8|0,0:0|0:0,0:0:0:0:
264,176,80461,2,0,L|365:165,1,80,8|0,0:0|0:0,0:0:0:0:
480,96,80735,6,0,L|400:87,1,80,8|2,0:0|0:0,0:0:0:0:
343,167,81009,2,0,L|422:176,1,80,2|8,0:0|0:0,0:0:0:0:
488,248,81283,1,2,0:0:0:0:
420,316,81420,1,2,0:0:0:0:
356,244,81557,1,8,0:0:0:0:
488,248,81694,6,0,P|504:192|476:88,1,160,2|8,0:0|0:0,0:0:0:0:
400,44,82104,2,0,L|304:52,1,80,8|2,0:0|0:0,0:0:0:0:
224,64,82378,1,2,0:0:0:0:
160,136,82515,1,2,0:0:0:0:
120,52,82652,1,2,0:0:0:0:
236,140,82789,1,2,0:0:0:0:
84,120,82926,6,0,L|72:212,1,80,8|0,0:0|0:0,0:0:0:0:
100,292,83200,1,8,0:0:0:0:
168,224,83337,1,2,0:0:0:0:
100,320,83474,1,8,0:0:0:0:
196,228,83611,1,2,0:0:0:0:
100,344,83748,1,8,0:0:0:0:
228,236,83885,6,0,B|392:228,1,160,2|8,0:0|0:0,0:0:0:0:
440,148,84296,2,0,L|349:144,1,80,8|8,0:0|0:0,0:0:0:0:
264,140,84570,1,0,0:0:0:0:
252,44,84707,1,2,0:0:0:0:
348,52,84844,1,2,0:0:0:0:
194,102,84981,1,2,0:0:0:0:
352,152,85118,6,0,B|363:183|343:211|343:211|359:239|347:275|347:275|347:307,1,160,6|8,0:0|0:0,0:0:0:0:
212,348,85529,2,0,B|212:316|212:316|200:280|216:252|216:252|196:224|207:193,1,160,6|8,0:0|0:0,0:0:0:0:
84,120,85940,2,0,B|84:152|84:152|96:188|80:216|80:216|100:244|89:275,1,160,6|8,0:0|0:0,0:0:0:0:
32,352,86351,5,6,0:0:0:0:
264,140,86762,1,12,0:0:0:0:
347,306,87036,5,12,0:0:0:0:
212,348,87173,1,6,0:0:0:0:
256,192,87310,12,0,89091,0:0:0:0:
256,192,89228,5,12,0:0:0:0:
256,192,89365,1,12,0:0:0:0:
