osu file format v14

[General]
AudioFilename: comet lucifer.mp3
AudioLeadIn: 0
PreviewTime: 50050
Countdown: 0
SampleSet: Soft
StackLeniency: 0.7
Mode: 0
LetterboxInBreaks: 0
WidescreenStoryboard: 0

[Editor]
DistanceSpacing: 1.1
BeatDivisor: 4
GridSize: 4
TimelineZoom: 1.5

[Metadata]
Title:Comet Lucifer ~The Seed and the Sower ~
TitleUnicode:コメットルシファー ~The Seed and the Sower~
Artist:fhana
ArtistUnicode:fhána
Creator:Del05
Version:Easy
Source:コメット・ルシファー
Tags:opening felia sougo gifdium tv size SnowNiNo_
BeatmapID:819461
BeatmapSetID:371908

[Difficulty]
HPDrainRate:3
CircleSize:2.5
OverallDifficulty:3
ApproachRate:3
SliderMultiplier:0.800000005960464
SliderTickRate:1

[Events]
//Background and Video events
Video,96,"OP.avi"
0,0,"BG.jpg",0,0
//Break Periods
//Storyboard Layer 0 (Background)
//Storyboard Layer 1 (Fail)
//Storyboard Layer 2 (Pass)
//Storyboard Layer 3 (Foreground)
//Storyboard Sound Samples

[TimingPoints]
1831,273.972602739726,4,2,1,45,1,0
1831,-100,4,2,1,45,0,0
22652,-100,4,2,1,35,0,0
31420,-100,4,2,1,50,0,0
39091,-100,4,2,1,45,0,0
50050,-100,4,2,1,55,0,1
58543,-100,4,2,1,55,0,0
58817,-100,4,2,1,55,0,1
65118,-100,4,2,1,55,0,1
65392,-100,4,2,1,55,0,1
67173,-100,4,2,1,55,0,0
67584,-100,4,2,1,55,0,1
79639,-100,4,2,1,50,0,0

[Colours]
Combo1 : 220,39,60
Combo2 : 225,147,204
Combo3 : 145,220,236
Combo4 : 239,167,114
Combo5 : 133,136,254
Combo6 : 135,196,164

[HitObjects]
88,56,1831,6,0,B|76:148|76:148|80:188,1,120.00000089407,2|0,0:1|0:0,0:0:0:0:
128,300,2652,2,0,P|211:319|262:310,1,120.00000089407,2|0,0:1|0:0,0:0:0:0:
356,244,3474,2,0,B|368:180|368:180|364:160,1,80,2|2,0:1|0:1,0:0:0:0:
312,92,4022,6,0,L|192:99,1,120.00000089407,2|0,0:1|0:0,0:0:0:0:
72,154,4844,2,0,P|63:90|83:29,2,120.00000089407,2|0|0,0:1|0:0|0:0,0:0:0:0:
52,240,5940,1,0,0:0:0:0:
140,229,6214,6,0,B|272:220|272:220|260:256,1,160,2|0,0:1|0:0,0:0:0:0:
332,300,7036,2,0,L|361:214,1,80
432,176,7584,2,0,L|404:92,1,80
340,44,8132,1,0,0:0:0:0:
283,112,8406,6,0,P|225:121|165:115,2,120
340,44,9502,2,0,P|370:102|326:188,1,160
256,224,10324,1,0,0:0:0:0:
179,183,10598,6,0,P|104:160|43:211,1,160.000001192093
8,288,11420,1,0,0:0:0:0:
72,352,11694,2,0,B|212:344|212:344|232:328,1,160.000001192093
284,264,12515,6,0,L|280:184,1,80.0000005960464,0|8,0:0|0:0,0:0:0:0:
248,100,13063,2,0,P|192:104|156:152,1,120.00000089407,2|0,0:0|0:0,0:0:0:0:
116,280,13885,6,0,P|64:296|-7:258,2,120.00000089407,6|2|8,0:0|0:0|0:0,0:0:0:0:
200,248,14981,2,0,L|292:264,1,80.0000005960464
356,304,15529,1,8,0:0:0:0:
400,228,15803,1,8,0:0:0:0:
464,168,16077,6,0,P|489:228|472:282,2,120.00000089407,2|2|8,0:0|0:0|0:0,0:0:0:0:
380,132,17173,2,0,L|292:124,1,80.0000005960464
212,116,17721,1,8,0:0:0:0:
200,204,17995,1,8,0:0:0:0:
166,283,18269,6,0,P|123:244|116:184,2,120.00000089407,2|2|8,0:0|0:0|0:0,0:0:0:0:
236,336,19365,2,0,L|320:328,1,80.0000005960464
404,332,19913,1,8,0:0:0:0:
360,256,20187,1,8,0:0:0:0:
448,256,20461,6,0,P|421:190|381:169,1,120.00000089407,6|8,0:0|0:0,0:0:0:0:
296,144,21146,2,0,B|300:88|300:88|284:60,1,80.0000005960464,6|6,0:0|0:0,0:0:0:0:
208,32,21694,2,0,P|159:31|121:43,2,80.0000005960464,2|2|8,0:0|0:0|0:0,0:0:0:0:
180,160,22652,6,0,B|169:281|169:281|184:320,1,160.000001192093,6|2,0:0|0:0,0:0:0:0:
256,364,23474,1,2,0:0:0:0:
330,317,23748,2,0,B|343:281|343:281|332:159,1,160.000001192093,2|2,0:0|0:0,0:0:0:0:
280,88,24570,1,2,0:0:0:0:
216,148,24844,6,0,P|152:160|88:140,2,120,2|0|2,0:0|0:0|0:0,0:0:0:0:
280,88,25940,2,0,B|319:138|290:193|290:193|296:256,1,160.000001192093,2|2,0:0|0:0,0:0:0:0:
284,328,26762,1,8,0:0:0:0:
214,276,27036,6,0,P|154:260|90:268,2,120,2|0|2,0:0|0:0|0:0,0:0:0:0:
294,240,28132,2,0,P|283:178|248:124,2,120,2|0|2,0:0|0:0|0:0,0:0:0:0:
352,308,29228,6,0,P|412:294|466:258,2,120,2|0|2,0:0|0:0|0:0,0:0:0:0:
271,343,30324,1,6,0:0:0:0:
214,276,30598,2,0,B|168:212|184:144|184:144|200:124,1,160.000001192093,2|8,0:0|0:0,0:0:0:0:
260,68,31420,6,0,P|335:41|418:75,1,160.000001192093,6|2,0:0|0:0,0:0:0:0:
464,136,32241,1,0,0:0:0:0:
388,184,32515,2,0,B|376:228|376:228|396:308|396:308|372:344,1,160.000001192093
300,292,33337,1,8,0:0:0:0:
224,336,33611,6,0,B|206:310|206:310|226:218,2,120.00000089407,2|0|0,0:0|0:0|0:0,0:0:0:0:
144,376,34707,2,0,B|116:320|116:320|137:215,1,160.000001192093
180,148,35529,1,8,0:0:0:0:
224,223,35803,6,0,P|305:238|384:220,1,160.000001192093
432,148,36625,1,8,0:0:0:0:
500,204,36899,2,0,P|519:155|515:121,2,80.0000005960464
451,274,37721,1,8,0:0:0:0:
379,222,37995,2,0,B|373:126|373:126|380:96,2,120.00000089407
336,300,39091,6,0,P|294:310|252:304,1,80.0000005960464,6|2,0:0|0:0,0:0:0:0:
184,256,39639,2,0,B|177:195|177:195|184:176,1,80.0000005960464,2|2,0:0|0:0,0:0:0:0:
256,124,40187,2,0,L|352:116,1,80.0000005960464,2|2,0:0|0:0,0:0:0:0:
416,152,40735,2,0,P|425:196|424:244,1,80.0000005960464,2|8,0:0|0:0,0:0:0:0:
376,304,41283,6,0,P|332:306|292:300,1,80.0000005960464,2|2,0:0|0:0,0:0:0:0:
219,259,41831,2,0,P|180:256|141:264,1,80.0000005960464,2|2,0:0|0:0,0:0:0:0:
84,332,42378,2,0,B|43:280|63:232|63:232|64:208,1,120.00000089407,2|8,0:0|0:0,0:0:0:0:
84,88,43200,1,2,0:0:0:0:
144,152,43474,6,0,P|193:156|248:144,1,80.0000005960464,6|8,0:0|0:0,0:0:0:0:
300,108,44022,2,0,P|359:86|416:104,2,120.00000089407,2|8|8,0:0|0:0|0:0,0:0:0:0:
360,172,45118,2,0,L|360:252,1,80,2|8,0:0|0:0,0:0:0:0:
392,336,45666,6,0,P|436:304|447:230,2,120.00000089407,6|8|0,0:0|0:0|0:0,0:0:0:0:
308,356,46762,2,0,B|284:360|284:360|180:356,2,120.00000089407,2|0|2,0:0|0:0|0:0,0:0:0:0:
332,272,47858,6,0,P|349:207|331:142,2,120.00000089407,6|6|6,0:0|0:0|0:0,0:0:0:0:
216,208,49091,1,6,0:0:0:0:
164,88,49502,2,0,P|124:116|105:146,1,80.0000005960464,6|6,0:0|0:0,0:0:0:0:
128,228,50050,5,6,0:0:0:0:
216,208,50324,2,0,P|252:194|292:196,2,80.0000005960464,8|2|8,0:0|0:0|0:0,0:0:0:0:
268,281,51146,2,0,P|350:266|382:202,1,160.000001192093,2|2,0:0|0:0,0:0:0:0:
356,121,51967,1,8,0:0:0:0:
284,73,52241,6,0,P|314:47|365:35,2,80.0000005960464,2|8|0,0:0|0:0|0:0,0:0:0:0:
240,148,53063,1,8,0:0:0:0:
164,100,53337,2,0,P|98:86|46:120,2,120.00000089407,2|2|8,0:0|0:0|0:0,0:0:0:0:
116,176,54433,5,6,0:0:0:0:
176,240,54707,2,0,P|136:259|85:258,2,80.0000005960464,8|0|8,0:0|0:0|0:0,0:0:0:0:
232,172,55529,2,0,P|308:141|386:165,1,160.000001192093,2|2,0:0|0:0,0:0:0:0:
444,224,56351,1,8,0:0:0:0:
394,296,56625,6,0,P|448:311|510:282,2,120.00000089407,2|2|8,0:0|0:0|0:0,0:0:0:0:
312,264,57721,2,0,B|180:252|180:252|152:268,1,160.000001192093,2|2,0:0|0:0,0:0:0:0:
104,336,58543,1,8,0:0:0:0:
28,288,58817,6,0,P|22:240|28:196,1,80.0000005960464,6|8,0:0|0:0,0:0:0:0:
72,136,59365,1,0,0:0:0:0:
152,176,59639,1,8,0:0:0:0:
148,88,59913,2,0,P|96:48|37:52,2,120.00000089407,2|2|8,0:0|0:0|0:0,0:0:0:0:
228,124,61009,6,0,P|276:125|324:116,1,80.0000005960464,2|8,0:0|0:0,0:0:0:0:
372,60,61557,1,2,0:0:0:0:
434,122,61831,1,8,0:0:0:0:
371,180,62104,2,0,P|439:209|495:184,2,120.00000089407,2|2|8,0:0|0:0|0:0,0:0:0:0:
307,120,63200,5,6,0:0:0:0:
248,184,63474,2,0,P|250:222|248:272,2,80.0000005960464,8|2|8,0:0|0:0|0:0,0:0:0:0:
192,116,64296,2,0,P|140:68|82:66,2,120.00000089407,6|2|12,0:0|0:0|0:0,0:0:0:0:
112,148,65392,6,0,L|108:240,1,80.0000005960464,0|8,0:0|0:0,0:0:0:0:
148,308,65940,2,0,P|190:315|232:312,1,80.0000005960464,2|8,0:0|0:0,0:0:0:0:
284,244,66488,2,0,P|277:187|280:116,2,120.00000089407,2|2|6,0:0|0:0|0:0,0:0:0:0:
348,304,67584,5,6,0:0:0:0:
416,248,67858,2,0,P|422:191|420:120,1,120.00000089407,8|2,0:0|0:0,0:0:0:0:
364,60,68543,2,0,P|312:60|272:72,1,80.0000005960464,2|8,0:0|0:0,0:0:0:0:
220,128,69091,2,0,B|127:143|127:143|88:136,1,120.00000089407,2|8,0:0|0:0,0:0:0:0:
56,216,69776,6,0,L|94:226,1,40.0000002980232,6|0,0:0|0:0,0:0:0:0:
184,224,70187,2,0,L|262:210,2,80.0000005960464,6|6|6,0:0|0:0|0:0,0:0:0:0:
148,304,71009,2,0,B|176:332|176:332|225:324|276:344,1,120.00000089407,8|8,0:0|0:0,0:0:0:0:
340,364,71694,1,2,0:0:0:0:
392,292,71967,5,6,0:0:0:0:
464,340,72241,2,0,P|476:293|463:246,1,80.0000005960464,8|8,0:0|0:0,0:0:0:0:
416,196,72789,2,0,B|379:147|416:80|416:80|368:68,1,160.000001192093,2|0,0:0|0:0,0:0:0:0:
292,84,73611,2,0,B|274:97|274:97|228:100|212:120,1,80.0000005960464,8|0,0:0|0:0,0:0:0:0:
168,184,74159,6,0,L|160:240,1,40.0000002980232,2|0,0:0|0:0,0:0:0:0:
112,296,74570,2,0,P|68:292|24:272,2,80.0000005960464,2|2|8,0:0|0:0|0:0,0:0:0:0:
200,304,75392,2,0,P|253:297|316:264,1,120.00000089407,8|2,0:0|0:0,0:0:0:0:
380,212,76077,1,2,0:0:0:0:
448,268,76351,6,0,P|468:228|464:187,2,80.0000005960464,6|0|8,0:0|0:0|0:0,0:0:0:0:
384,328,77173,2,0,B|335:314|335:314|284:357|224:320,1,160.000001192093,8|2,0:0|0:0,0:0:0:0:
163,271,77995,2,0,P|156:232|155:192,1,80.0000005960464,8|0,0:0|0:0,0:0:0:0:
184,108,78543,6,0,P|123:108|95:129,2,80.0000005960464,2|0|8,0:0|0:0|0:0,0:0:0:0:
260,152,79365,2,0,B|313:166|313:166|367:134|418:160,1,160.000001192093,8|2,0:0|0:0,0:0:0:0:
456,236,80187,1,8,0:0:0:0:
372,260,80461,1,8,0:0:0:0:
316,328,80735,6,0,P|379:348|436:324,2,120.00000089407,4|8|8,0:0|0:0|0:0,0:0:0:0:
244,276,81831,2,0,B|176:252|112:304|112:304|88:280,1,160.000001192093,2|2,0:0|0:0,0:0:0:0:
36,228,82652,1,2,0:0:0:0:
72,148,82926,6,0,P|23:144|-19:162,2,80.0000005960464,8|8|8,0:0|0:0|0:0,0:0:0:0:
148,192,83748,2,0,P|224:211|302:195,1,160.000001192093,2|8,0:0|0:0,0:0:0:0:
368,136,84570,2,0,P|386:171|389:210,1,80.0000005960464,0|2,0:0|0:0,0:0:0:0:
376,300,85118,6,0,P|441:286|477:233,2,120.00000089407,6|6|6,0:0|0:0|0:0,0:0:0:0:
248,272,86351,1,6,0:0:0:0:
136,344,86762,2,0,P|114:286|123:222,1,120.00000089407,8|6,0:0|0:0,0:0:0:0:
256,192,87310,12,12,89365,0:0:0:0:
