osu file format v14

[General]
AudioFilename: audio.mp3
AudioLeadIn: 0
PreviewTime: 128877
Countdown: 0
SampleSet: Soft
StackLeniency: 0.7
Mode: 0
LetterboxInBreaks: 0
WidescreenStoryboard: 1

[Editor]
DistanceSpacing: 2.1
BeatDivisor: 4
GridSize: 8
TimelineZoom: 1.000005

[Metadata]
Title:Comet Lucifer ~The Seed and the Sower~
TitleUnicode:コメットルシファー ~The Seed and the Sower~
Artist:fhana
ArtistUnicode:fhána
Creator:Sotarks
Version:Garden's Hard
Source:コメット・ルシファー
Tags:opening op junichi sato yuxuki waga kevin mitsunaga towana toybot garden akitoshi corinn
BeatmapID:1389567
BeatmapSetID:651869

[Difficulty]
HPDrainRate:5
CircleSize:3.5
OverallDifficulty:6
ApproachRate:8
SliderMultiplier:1.3
SliderTickRate:1

[Events]
//Background and Video events
0,0,"bg.jpg",0,0
//Break Periods
2,108192,115113
//Storyboard Layer 0 (Background)
//Storyboard Layer 1 (Fail)
//Storyboard Layer 2 (Pass)
//Storyboard Layer 3 (Foreground)
//Storyboard Sound Samples

[TimingPoints]
1084,273.972602739726,4,2,22,42,1,0
1084,-133.333333333333,4,2,22,42,0,0
12042,-100,4,2,22,62,0,0
13139,272.66530334015,4,2,22,72,1,0
17501,274.473924977127,4,2,22,72,1,0
21892,273.972602739726,4,2,22,52,1,0
21892,-133.333333333333,4,2,22,52,0,0
29563,-100,4,2,22,62,0,0
38330,-133.333333333333,4,2,22,62,0,0
42713,-100,4,2,22,62,0,0
49289,-100,4,2,22,72,0,1
67919,266.666666666667,4,2,22,82,1,0
67919,-100,4,2,22,82,0,0
68719,277.777777777778,4,2,22,82,1,0
69830,283.018867924528,4,2,22,82,1,0
70396,270.27027027027,4,2,22,82,1,0
71477,274.599542334096,4,2,22,82,1,0
73124,273.972602739726,4,2,22,82,1,0
115863,-133.333333333333,4,2,22,62,0,0
123534,-100,4,2,22,72,0,0
129014,-133.333333333333,4,2,22,72,0,0
133397,-100,4,2,22,72,0,1
146411,-100,4,2,22,72,0,0
146548,-100,4,2,22,72,0,1
170521,-100,4,2,22,72,0,0

[Colours]
Combo1 : 159,167,174
Combo2 : 38,63,121
Combo3 : 215,101,9
Combo4 : 50,243,88
SliderBorder : 255,255,255
SliderTrackOverride : 0,0,0

[HitObjects]
243,220,1084,6,0,P|283:277|271:362,1,146.250005578995,0|2,1:0|3:0,0:0:0:0:
47,312,1905,2,0,L|192:301,1,146.250005578995,0|2,1:0|3:0,0:0:0:0:
293,122,2727,5,2,1:0:0:0:
293,122,3001,1,2,3:0:0:0:
293,122,3275,2,0,L|138:113,1,146.250005578995,0|2,1:0|3:0,0:0:0:0:
371,60,4097,2,0,P|390:126|355:203,1,146.250005578995,0|2,1:0|3:0,0:0:0:0:
240,39,4919,5,2,1:0:0:0:
240,39,5193,2,0,L|298:36,1,48.750001859665,2|2,3:0|1:0,0:0:0:0:
293,122,5467,6,0,L|177:130,1,97.50000371933,0|2,0:0|0:0,0:0:0:0:
110,138,5878,1,0,3:0:0:0:
110,138,6289,2,0,P|119:170|123:201,1,48.750001859665,2|2,0:0|1:0,0:0:0:0:
117,273,6563,6,0,L|231:263,1,97.50000371933,0|2,0:0|0:0,0:0:0:0:
306,259,6974,1,2,3:0:0:0:
306,259,7385,2,0,L|316:325,1,48.750001859665,2|2,0:0|1:0,0:0:0:0:
389,352,7659,6,0,P|432:343|470:289,1,97.50000371933,0|0,0:0|1:0,0:0:0:0:
434,221,8070,2,0,L|436:166,1,48.750001859665,0|0,3:0|0:0,0:0:0:0:
463,88,8344,2,0,L|345:67,1,97.50000371933,2|0,3:0|0:0,0:0:0:0:
295,122,8755,6,0,P|233:143|132:68,1,195.00000743866,2|0,1:0|3:0,0:0:0:0:
74,279,9577,5,2,3:0:0:0:
74,279,9851,2,0,L|82:220,1,48.750001859665,2|2,1:0|0:0,0:0:0:0:
3,187,10125,2,0,L|-1:135,1,48.750001859665,2|2,0:0|3:0,0:0:0:0:
37,58,10399,2,0,P|87:76|143:65,1,97.50000371933,2|0,0:0|0:0,0:0:0:0:
204,22,10810,6,0,L|321:32,2,97.50000371933,2|2|2,3:0|1:0|3:0,0:0:0:0:
134,74,11494,1,0,0:0:0:0:
134,74,11768,2,0,P|125:104|121:121,1,48.750001859665,0|8,1:0|0:0,0:0:0:0:
173,196,12042,6,0,L|261:189,2,65,8|8|6,0:0|3:0|3:0,0:0:0:0:
90,234,12453,1,6,3:0:0:0:
90,234,12727,2,0,P|62:299|80:362,1,130,6|0,2:0|0:0,0:0:0:0:
164,374,13138,6,0,L|307:360,2,130,6|8|0,1:0|0:0|0:0,0:0:0:0:
75,354,13820,2,0,P|65:321|64:282,1,65,8|8,0:0|0:0,0:0:0:0:
101,207,14093,2,0,L|249:194,1,130,6|8,1:0|0:0,0:0:0:0:
321,190,14502,1,4,3:0:0:0:
156,113,14774,1,10,0:0:0:0:
321,190,15047,1,10,0:0:0:0:
156,113,15320,6,0,L|11:125,1,130,6|8,1:0|0:0,0:0:0:0:
43,33,15729,2,0,L|185:23,1,130,6|10,1:0|0:0,0:0:0:0:
244,89,16138,1,8,0:0:0:0:
244,89,16274,2,0,P|338:95|377:62,2,130,6|8|4,1:0|0:0|3:0,0:0:0:0:
156,114,16956,2,0,P|139:148|132:193,1,65,10|2,0:0|1:0,0:0:0:0:
140,264,17228,2,0,P|165:291|193:304,1,65,10|2,0:0|1:0,0:0:0:0:
271,261,17501,6,0,L|424:250,1,130,6|8,1:0|0:0,0:0:0:0:
486,222,17912,2,0,P|433:279|427:348,1,130,6|10,3:0|0:0,0:0:0:0:
510,373,18324,1,8,0:0:0:0:
510,373,18461,2,0,L|365:364,1,130,6|8,1:0|0:0,0:0:0:0:
304,324,18873,1,10,0:0:0:0:
304,324,19010,1,8,0:0:0:0:
222,364,19147,2,0,P|157:368|93:317,1,130,4|4,3:0|3:0,0:0:0:0:
171,149,19696,6,0,L|181:279,1,130,14|4,0:0|3:0,0:0:0:0:
271,245,20108,1,14,0:0:0:0:
81,173,20382,1,6,3:0:0:0:
271,245,20657,2,0,P|344:246|405:191,1,130,14|8,0:0|3:0,0:0:0:0:
435,136,21069,2,0,L|428:68,1,65,0|0,1:0|1:0,0:0:0:0:
356,26,21343,1,14,0:0:0:0:
356,26,21480,1,10,0:0:0:0:
89,89,21892,6,0,L|203:78,1,97.50000371933,2|2,1:0|1:0,0:0:0:0:
260,125,22302,2,0,P|270:175|256:226,1,97.50000371933,2|0,0:0|0:0,0:0:0:0:
186,265,22713,1,2,1:0:0:0:
186,265,22850,2,0,L|74:259,1,97.50000371933,2|0,3:0|0:0,0:0:0:0:
1,261,23261,2,0,P|4:285|14:308,2,48.750001859665,2|2|0,1:0|0:0|1:0,0:0:0:0:
151,354,23809,5,2,1:0:0:0:
151,354,23946,2,0,P|205:356|253:336,1,97.50000371933,2|0,3:0|0:0,0:0:0:0:
316,289,24357,1,2,1:0:0:0:
316,289,24494,2,0,P|374:281|419:296,2,97.50000371933,2|2|0,0:0|0:0|3:0,0:0:0:0:
258,222,25179,2,0,L|268:109,2,97.50000371933,2|0|4,1:0|1:0|3:0,0:0:0:0:
189,277,25864,1,4,3:0:0:0:
189,277,26001,2,0,P|151:270|120:268,1,48.750001859665,10|8,0:0|0:0,0:0:0:0:
55,290,26275,6,0,P|47:254|38:182,1,97.50000371933,2|2,1:0|1:0,0:0:0:0:
91,122,26686,2,0,P|94:76|95:5,1,97.50000371933,2|2,0:0|0:0,0:0:0:0:
167,169,27234,2,0,P|221:154|277:154,1,97.50000371933,2|0,3:0|0:0,0:0:0:0:
347,175,27645,1,2,1:0:0:0:
213,61,27919,1,2,1:0:0:0:
347,175,28193,2,0,L|359:238,1,48.750001859665,2|0,1:0|3:0,0:0:0:0:
444,219,28467,6,0,L|423:111,1,97.50000371933,2|2,1:0|1:0,0:0:0:0:
425,34,28878,2,0,L|367:25,1,48.750001859665,2|0,3:0|1:0,0:0:0:0:
300,70,29152,2,0,L|242:81,1,48.750001859665,2|0,3:0|1:0,0:0:0:0:
252,79,29563,6,0,P|242:125|247:159,1,65,6|0,3:0|0:0,0:0:0:0:
311,203,29837,2,0,L|315:240,3,32.5,8|0|8|8,0:0|0:0|0:0|0:0,0:0:0:0:
357,250,30111,2,0,L|421:240,1,65,8|0,0:0|1:0,0:0:0:0:
457,324,30385,2,0,L|374:337,1,65,6|10,3:0|0:0,0:0:0:0:
304,358,30659,6,0,P|242:367|182:325,1,130,6|10,3:0|0:0,0:0:0:0:
137,255,31070,2,0,L|146:121,1,130,2|0,1:0|0:0,0:0:0:0:
198,50,31481,1,2,0:0:0:0:
198,50,31618,2,0,P|144:78|56:64,1,130,10|0,0:0|1:0,0:0:0:0:
4,127,32028,1,10,0:0:0:0:
4,127,32165,2,0,L|22:271,1,130,2|0,0:0|1:0,0:0:0:0:
34,346,32576,1,10,0:0:0:0:
193,258,32850,6,0,B|259:236|263:275|325:252,1,130,6|10,3:0|0:0,0:0:0:0:
393,198,33261,2,0,L|386:126,1,65,2|0,1:0|0:0,0:0:0:0:
303,95,33535,2,0,P|366:91|416:51,1,130,2|8,0:0|0:0,0:0:0:0:
334,8,33946,2,0,L|183:17,2,130,6|8|4,3:0|0:0|3:0,0:0:0:0:
125,81,34768,1,10,0:0:0:0:
125,81,35042,6,0,P|114:123|109:158,1,65,6|2,3:0|0:0,0:0:0:0:
135,232,35316,2,0,P|172:226|216:224,1,65,10|2,0:0|1:0,0:0:0:0:
294,238,35590,1,2,1:0:0:0:
294,238,35864,1,10,0:0:0:0:
369,289,36001,2,0,L|459:282,1,65,2|4,0:0|3:0,0:0:0:0:
449,374,36275,2,0,L|365:378,1,65,2|8,0:0|0:0,0:0:0:0:
298,344,36549,2,0,P|246:319|168:331,1,130,2|0,1:0|1:0,0:0:0:0:
98,376,36960,2,0,L|24:362,1,65,10|0,0:0|0:0,0:0:0:0:
10,275,37234,6,0,L|-3:191,2,65,10|8|6,0:0|0:0|3:0,0:0:0:0:
105,266,37645,1,2,1:0:0:0:
105,266,37919,1,10,0:0:0:0:
167,199,38056,2,0,L|174:123,1,65,4|0,3:0|1:0,0:0:0:0:
141,52,38330,6,0,L|32:58,1,97.50000371933,6|6,3:0|3:0,0:0:0:0:
214,1,38878,2,0,L|323:8,1,97.50000371933,2|2,1:0|1:0,0:0:0:0:
464,95,39426,2,0,P|411:77|328:108,2,146.250005578995,10|6|10,3:0|3:0|3:0,0:0:0:0:
410,262,40522,6,0,L|404:159,1,97.50000371933,2|2,1:0|1:0,0:0:0:0:
311,314,41070,2,0,L|305:210,1,97.50000371933,0|4,1:0|3:0,0:0:0:0:
254,150,41481,1,8,0:0:0:0:
254,150,41618,2,0,L|190:147,1,48.750001859665,0|8,1:0|0:0,0:0:0:0:
136,203,41892,2,0,L|76:207,1,48.750001859665,0|8,1:0|0:0,0:0:0:0:
5,173,42165,1,4,3:0:0:0:
58,339,42439,2,0,L|121:333,1,48.750001859665,2|0,1:0|1:0,0:0:0:0:
194,359,42713,6,0,P|236:359|274:343,1,65,6|2,1:0|0:0,0:0:0:0:
320,285,42987,2,0,P|326:256|323:215,1,65,8|2,0:0|0:0,0:0:0:0:
236,195,43261,2,0,L|230:59,1,130,2|2,1:0|0:0,0:0:0:0:
306,14,43672,2,0,P|378:6|441:49,1,130,10|0,0:0|0:0,0:0:0:0:
508,74,44083,2,0,P|403:84|430:208,1,260,10|10,0:0|0:0,0:0:0:0:
426,206,44905,6,0,L|411:365,1,130,6|8,1:0|0:0,0:0:0:0:
329,317,45316,1,0,1:0:0:0:
329,317,45590,1,0,1:0:0:0:
249,362,45727,2,0,L|167:358,1,65,2|8,0:0|0:0,0:0:0:0:
93,343,46001,2,0,P|161:321|201:254,1,130,2|8,1:0|0:0,0:0:0:0:
215,186,46412,2,0,L|128:178,1,65,2|8,1:0|0:0,0:0:0:0:
58,184,46686,2,0,P|54:156|51:107,1,65,2|4,1:0|3:0,0:0:0:0:
96,41,46960,1,4,3:0:0:0:
96,41,47097,6,0,P|163:60|233:36,1,130,6|8,1:0|0:0,0:0:0:0:
304,9,47508,2,0,P|266:73|276:141,1,130,4|8,1:0|0:0,0:0:0:0:
338,187,47919,2,0,L|486:181,1,130,4|8,1:0|0:0,0:0:0:0:
474,273,48330,2,0,L|337:278,1,130,12|0,0:0|0:0,0:0:0:0:
271,333,48741,2,0,L|190:318,1,65,12|0,0:0|0:0,0:0:0:0:
120,350,49015,2,4,L|85:287,1,65,12|0,0:0|0:0,0:0:0:0:
88,201,49289,5,4,3:0:0:0:
165,36,49563,2,8,L|158:105,1,65,10|0,0:0|0:0,0:0:0:0:
219,169,49837,2,0,P|289:177|343:139,1,130,2|10,1:2|0:2,0:0:0:0:
472,23,50385,2,0,B|398:8|409:43|341:31,1,130,6|8,3:0|0:0,0:0:0:0:
443,110,50796,2,0,P|447:157|451:244,1,130,2|0,1:0|1:0,0:0:0:0:
421,326,51207,2,0,L|337:321,1,65,10|2,0:0|3:0,0:0:0:0:
272,284,51481,5,6,3:0:0:0:
272,284,51755,2,0,P|206:277|147:327,2,130,10|2|10,0:0|0:0|0:0,0:0:0:0:
71,369,52576,2,0,L|60:232,1,130,6|8,3:0|0:0,0:0:0:0:
13,160,52987,2,0,P|70:195|147:173,1,130,6|0,3:0|1:0,0:0:0:0:
208,137,53398,2,0,L|213:64,1,65,8|0,0:0|0:0,0:0:0:0:
146,8,53672,5,4,3:0:0:0:
300,104,53946,2,8,L|383:96,1,65,10|0,0:0|0:0,0:0:0:0:
452,125,54220,2,0,P|477:185|456:267,1,130,2|10,1:0|0:0,0:0:0:0:
255,206,54768,2,0,L|387:195,1,130,6|10,3:0|0:0,0:0:0:0:
388,286,55179,2,0,L|238:296,1,130,6|0,3:0|1:0,0:0:0:0:
185,350,55590,1,10,0:0:0:0:
185,350,55864,6,0,P|111:361|52:325,2,130,6|10|2,3:0|0:0|0:0,0:0:0:0:
388,286,56686,1,10,0:0:0:0:
249,164,56960,2,0,L|258:294,1,130,6|8,3:0|0:0,0:0:0:0:
331,358,57371,1,2,1:0:0:0:
331,358,57508,2,0,P|405:372|469:331,1,130,6|8,3:0|0:0,1:1:0:0:
502,274,57919,1,8,0:0:0:0:
502,274,58056,5,4,3:0:0:0:
413,100,58330,2,0,L|480:102,1,65,10|0,0:0|0:0,0:0:0:0:
461,192,58604,2,0,L|304:186,1,130,2|10,1:0|0:0,0:0:0:0:
197,65,59152,2,0,P|260:61|313:97,1,130,6|10,3:0|0:0,0:0:0:0:
238,150,59563,2,0,B|215:225|264:207|232:303,1,130,6|0,3:0|1:0,0:0:0:0:
190,355,59974,1,10,0:0:0:0:
190,355,60248,6,0,L|41:348,1,130,6|10,3:0|0:0,0:0:0:0:
108,270,60659,1,0,0:0:0:0:
108,270,60796,2,0,P|120:201|91:131,1,130,2|10,1:0|0:0,0:0:0:0:
250,40,61344,2,0,P|211:101|218:182,1,130,6|8,3:0|0:0,0:0:0:0:
278,217,61755,2,0,L|432:199,1,130,6|0,3:0|1:0,0:0:0:0:
498,223,62165,1,8,0:0:0:0:
351,112,62439,5,4,3:0:0:0:
351,112,62713,2,0,L|344:43,1,65,10|0,0:0|0:0,0:0:0:0:
434,30,62987,2,0,L|445:116,1,65,2|0,1:0|1:0,0:0:0:0:
505,160,63261,2,0,P|507:196|484:240,1,65,10|0,0:0|0:0,0:0:0:0:
448,300,63535,2,0,P|393:272|322:281,1,130,6|8,3:0|0:0,0:0:0:0:
238,195,63946,2,0,B|251:261|211:252|249:336,1,130,6|0,3:0|1:0,0:0:0:0:
377,367,64357,6,0,B|269:410|269:301|100:369,1,260,14|8,0:0|0:0,0:0:0:0:
45,163,65179,1,8,0:0:0:0:
45,163,65453,2,0,L|36:239,1,65,2|2,1:0|1:0,0:0:0:0:
118,270,65727,5,14,0:0:0:0:
196,223,65864,2,0,P|232:217|273:214,1,65,8|6,3:0|3:0,0:0:0:0:
351,221,66138,2,0,P|415:245|499:219,2,130,2|10|2,3:0|0:0|1:0,0:0:0:0:
312,143,66823,5,14,0:0:0:0:
312,143,66960,1,8,0:0:0:0:
361,66,67097,1,8,0:0:0:0:
282,20,67234,2,0,P|220:15|150:47,1,130,6|0,3:0|0:0,0:0:0:0:
88,100,67645,2,0,L|79:164,1,65,4|8,3:0|0:0,0:0:0:0:
118,250,67919,6,0,L|199:241,1,65,8|8,0:0|0:0,0:0:0:0:
256,189,68185,1,8,0:0:0:0:
256,189,68319,1,8,0:0:0:0:
330,241,68452,2,0,L|342:327,1,65,8|8,0:0|0:0,0:0:0:0:
414,214,68719,6,0,L|429:19,1,195,6|6,1:0|1:0,0:0:0:0:
146,146,69552,2,0,P|256:142|313:78,1,197,6|6,1:0|1:0,0:0:0:0:
478,223,70254,5,12,3:0:0:0:
478,223,70396,2,0,L|400:212,2,65,8|8|10,0:0|0:0|0:0,0:0:0:0:
492,312,70801,2,0,P|396:321|289:337,1,195,6|8,1:0|0:0,0:0:0:0:
41,383,71477,1,8,0:0:0:0:
201,298,71751,5,6,3:0:0:0:
201,298,71888,2,0,P|228:237|210:173,1,130,6|8,1:0|0:0,0:0:0:0:
123,158,72300,2,0,L|52:152,1,65,10|6,0:0|3:0,0:0:0:0:
34,67,72575,1,8,3:0:0:0:
34,67,72712,2,0,L|171:54,1,130,2|0,3:0|3:0,3:3:0:0:
242,7,73124,6,0,P|196:65|228:193,1,195,6|6,1:0|1:0,0:0:0:0:
491,117,73945,2,0,L|275:105,1,195,6|6,1:0|1:0,0:0:0:0:
446,209,74630,5,6,3:0:0:0:
446,209,74767,2,0,L|456:296,1,65,8|10,0:0|0:0,0:0:0:0:
404,351,75041,1,8,0:0:0:0:
319,318,75178,2,0,P|259:297|173:317,1,130,4|0,1:0|0:0,0:0:0:0:
119,359,75589,2,0,P|106:328|103:291,1,65,8|0,0:0|0:0,0:0:0:0:
139,212,75863,1,8,0:0:0:0:
320,220,76137,5,4,3:0:0:0:
320,220,76274,2,0,P|397:206|443:163,1,130,4|8,1:0|0:0,0:0:0:0:
450,87,76685,1,8,0:0:0:0:
450,87,76822,1,8,0:0:0:0:
374,35,76959,2,0,B|266:7|293:65|177:37,1,195,4|0,3:0|1:0,0:0:0:0:
95,30,77507,5,4,3:0:0:0:
95,30,77644,2,0,P|102:95|107:165,1,130,8|0,0:0|1:0,0:0:0:0:
81,251,78055,1,8,0:0:0:0:
81,251,78329,2,0,L|6:246,1,65,0|8,1:0|0:0,0:0:0:0:
5,340,78603,1,8,0:0:0:0:
5,340,78740,2,0,L|158:348,1,130,0|8,1:0|0:0,0:0:0:0:
221,376,79151,2,0,L|299:348,1,65,8|0,0:0|3:0,0:0:0:0:
372,367,79425,2,0,L|404:301,1,65,4|0,3:0|1:0,0:0:0:0:
485,275,79699,6,0,P|385:276|315:202,1,195,4|0,1:0|0:0,0:0:0:0:
337,127,80247,1,8,0:0:0:0:
337,127,80521,2,0,L|416:132,1,65,0|8,1:0|0:0,0:0:0:0:
489,103,80795,2,0,P|495:78|493:38,1,65,8|8,0:0|0:0,0:0:0:0:
407,8,81069,2,0,L|330:13,1,65,4|4,3:0|3:0,0:0:0:0:
272,71,81343,1,0,1:0:0:0:
272,70,81480,2,0,P|212:96|143:74,1,130,0|8,3:0|0:0,0:0:0:0:
41,19,81891,6,0,L|60:82,1,65,4|8,3:0|0:0,0:0:0:0:
38,171,82165,2,0,L|88:231,1,65,8|8,0:0|0:0,0:0:0:0:
167,300,82439,2,0,L|103:309,2,65,8|8|8,0:0|0:0|0:0,0:0:0:0:
257,283,82850,1,8,0:0:0:0:
257,283,82987,6,0,L|241:205,1,65,8|8,0:0|0:0,0:0:0:0:
167,170,83260,2,0,L|196:106,1,65,8|8,0:0|0:0,0:0:0:0:
281,12,83534,2,0,L|217:22,2,65,8|8|8,0:0|0:0|0:0,0:0:0:0:
372,4,83945,1,8,0:0:0:0:
372,4,84082,6,0,L|393:88,1,65,4|8,1:0|0:0,0:0:0:0:
460,122,84356,2,0,L|448:192,1,65,8|8,0:0|0:0,0:0:0:0:
394,260,84630,2,0,L|402:332,2,65,8|8|8,0:0|0:0|0:0,0:0:0:0:
314,214,85041,6,0,B|249:203|249:203|186:226,1,130,4|8,1:0|0:0,0:0:0:0:
104,260,85452,1,8,0:0:0:0:
265,353,85726,1,8,0:0:0:0:
265,353,85863,1,8,0:0:0:0:
47,340,86137,6,0,P|16:287|29:197,1,130,6|0,3:0|0:0,0:0:0:0:
67,142,86548,2,0,P|105:146|143:142,1,65,10|0,0:0|0:0,0:0:0:0:
202,86,86822,2,0,L|195:9,2,65,2|0|10,1:0|0:0|0:0,0:0:0:0:
314,230,87370,6,0,L|308:155,1,65,0|0,0:0|0:0,0:0:0:0:
218,182,87644,2,0,L|225:260,1,65,10|0,0:0|0:0,0:0:0:0:
284,315,87918,2,0,B|350:327|352:296|420:311,1,130,2|10,1:0|0:0,0:0:0:0:
497,344,88329,6,0,P|460:298|464:207,1,130,6|0,3:0|0:0,0:0:0:0:
501,149,88740,2,0,P|505:117|499:85,1,65,10|0,0:0|0:0,0:0:0:0:
436,17,89014,2,0,P|403:26|372:36,1,65,2|0,1:0|1:0,0:0:0:0:
296,84,89288,1,10,0:0:0:0:
296,84,89562,6,0,P|228:107|151:90,2,130,6|10|6,3:0|0:0|3:0,0:0:0:0:
377,126,90247,2,0,L|383:202,1,65,6|10,3:0|0:0,0:0:0:0:
466,226,90521,2,0,L|450:377,1,130,6|0,3:0|1:0,0:0:0:0:
361,340,90932,2,0,P|290:338|231:377,2,130,8|0|10,0:0|1:0|0:0,0:0:0:0:
289,171,91754,6,0,P|280:210|274:257,1,65,6|0,3:0|0:0,0:0:0:0:
199,282,92028,2,0,L|184:211,1,65,10|2,0:0|0:0,0:0:0:0:
109,180,92302,1,8,3:0:0:0:
109,180,92439,2,0,L|119:115,1,65,2|8,0:0|0:0,0:0:0:0:
79,32,92713,6,0,B|143:11|150:45|212:28,1,130,6|0,3:0|1:0,0:0:0:0:
296,9,93124,2,0,P|371:39|388:111,1,130,10|2,0:0|1:0,0:0:0:0:
315,134,93534,2,0,L|239:133,2,65,2|10|0,1:0|0:0|0:0,0:0:0:0:
400,167,93945,6,0,L|414:235,1,65,2|2,1:0|1:0,0:0:0:0:
496,269,94219,2,0,L|489:340,1,65,10|0,0:0|0:0,0:0:0:0:
405,370,94493,2,0,P|372:378|330:376,2,65,10|0|10,0:0|0:0|0:0,0:0:0:0:
362,288,94904,6,0,B|297:276|295:314|220:296,1,130,6|0,3:0|0:0,0:0:0:0:
164,238,95315,2,0,L|167:144,1,65,10|0,0:0|0:0,0:0:0:0:
207,91,95589,2,0,L|288:105,2,65,2|0|10,1:0|0:0|0:0,0:0:0:0:
133,45,96000,1,0,1:0:0:0:
133,45,96137,6,0,L|52:56,1,65,2|0,1:0|0:0,0:0:0:0:
4,118,96411,2,0,P|12:149|15:191,1,65,10|2,0:0|0:0,0:0:0:0:
3,272,96685,1,4,3:0:0:0:
2,272,96822,2,0,P|36:280|76:294,1,65,6|8,3:0|0:0,0:0:0:0:
122,360,97096,6,0,P|191:361|247:324,1,130,6|0,3:0|1:0,0:0:0:0:
278,245,97507,2,0,L|264:105,2,130,8|0|8,0:0|1:0|0:0,0:0:0:0:
417,363,98329,6,0,L|433:221,1,130,6|10,3:0|0:0,0:0:0:0:
486,161,98740,1,0,0:0:0:0:
486,161,98877,2,0,P|487:132|472:86,2,65,10|10|10,0:0|0:0|0:0,0:0:0:0:
395,144,99288,6,0,P|340:121|254:136,1,130,6|0,3:0|1:0,0:0:0:0:
194,177,99699,2,0,P|119:181|62:150,1,130,10|2,0:0|1:0,0:0:0:0:
59,66,100110,2,0,L|48:0,2,65,2|10|6,1:0|0:0|3:0,0:0:0:0:
147,90,100521,6,0,L|131:227,1,130,4|10,3:0|0:0,0:0:0:0:
311,187,101069,2,0,L|216:191,1,65,6|6,3:0|3:0,0:0:0:0:
220,281,101343,1,10,0:0:0:0:
220,281,101480,6,0,L|372:272,1,130,6|0,3:0|1:0,0:0:0:0:
417,211,101891,2,0,P|430:176|433:138,1,65,10|0,0:0|0:0,0:0:0:0:
403,62,102165,1,10,0:0:0:0:
218,109,102439,5,2,0:0:0:0:
218,109,102576,2,0,P|150:121|87:69,1,130,6|8,3:0|0:0,0:0:0:0:
38,158,102987,1,10,0:0:0:0:
38,158,103124,1,8,3:0:0:0:
77,239,103260,2,0,L|76:316,2,65,10|2|2,3:0|1:0|1:0,0:0:0:0:
212,361,103808,6,0,P|268:329|341:331,1,130,6|8,1:0|0:0,0:0:0:0:
416,363,104219,2,0,P|445:372|490:367,2,65,6|0|8,1:0|0:0|0:0,0:0:0:0:
459,282,104630,2,0,L|469:131,1,130,6|8,1:0|0:0,0:0:0:0:
406,84,105041,2,0,L|402:4,2,65,6|0|8,1:0|0:0|0:0,0:0:0:0:
345,153,105452,2,0,P|314:160|272:156,1,65,10|8,0:0|0:0,0:0:0:0:
229,233,105726,2,0,P|204:206|185:169,1,65,10|8,0:0|0:0,0:0:0:0:
98,186,106000,6,0,P|89:143|79:35,1,130,10|0,0:0|1:0,0:0:0:0:
151,0,106411,2,0,L|222:0,2,65,10|0|0,0:0|1:0|1:0,0:0:0:0:
168,90,106822,2,0,P|236:89|303:87,1,130,10|0,0:0|1:0,0:0:0:0:
376,40,107233,2,0,L|373:3,2,32.5,10|8|10,0:0|0:0|0:0,0:0:0:0:
446,98,107507,2,0,L|443:162,2,65,10|10|10,0:0|0:0|0:0,0:0:0:0:
256,70,115863,6,0,B|219:184|293:159|255:277,1,195.00000743866,0|0,0:0|0:0,0:0:0:0:
89,303,116685,2,0,L|151:309,1,48.750001859665,0|0,0:0|0:0,0:0:0:0:
214,351,116959,6,0,P|266:358|319:342,1,97.50000371933,2|0,1:0|0:0,0:0:0:0:
378,292,117370,2,0,L|369:226,1,48.750001859665,2|0,0:0|3:0,0:0:0:0:
426,72,117781,1,2,0:0:0:0:
426,72,117918,2,0,P|435:127|415:177,1,97.50000371933,2|0,0:0|1:0,0:0:0:0:
338,159,118329,1,0,0:0:0:0:
338,159,118466,2,0,L|281:156,1,48.750001859665,2|0,0:0|3:0,0:0:0:0:
126,224,118877,1,2,0:0:0:0:
214,359,119151,6,0,P|220:313|202:257,1,97.50000371933,2|2,1:0|0:0,0:0:0:0:
126,224,119562,1,2,0:0:0:0:
29,370,119836,2,0,L|142:361,1,97.50000371933,2|0,0:0|0:0,0:0:0:0:
214,359,120247,2,0,B|314:375|309:320|407:348,1,195.00000743866,2|0,0:0|0:0,0:0:0:0:
252,259,121069,1,2,0:0:0:0:
252,259,121343,6,0,L|260:200,2,48.750001859665,2|2|2,1:0|0:0|0:0,0:0:0:0:
170,288,121754,1,2,0:0:0:0:
170,288,121891,2,0,P|109:289|58:262,1,97.50000371933,2|0,3:0|0:0,0:0:0:0:
17,216,122302,1,2,0:0:0:0:
17,216,122576,2,0,L|26:101,1,97.50000371933,2|2,1:0|0:0,0:0:0:0:
69,42,122987,1,0,3:0:0:0:
69,42,123260,2,0,P|100:44|129:50,1,48.750001859665,2|10,0:0|0:0,0:0:0:0:
129,53,123466,5,8,0:0:0:0:
139,61,123534,2,0,L|149:156,1,65,8|8,0:0|0:0,0:0:0:0:
189,212,123808,1,0,1:0:0:0:
189,212,123945,2,0,P|233:209|275:201,1,65,4|0,3:0|0:0,0:0:0:0:
325,148,124219,2,0,P|389:133|457:168,1,130,8|0,3:0|0:0,0:0:0:0:
380,221,124630,6,0,L|392:73,1,130,12|0,0:0|1:0,0:0:0:0:
337,16,125041,2,0,P|290:53|205:47,1,130,12|0,0:0|1:0,0:0:0:0:
76,104,125452,2,0,P|140:107|195:142,1,130,12|0,0:0|1:0,0:0:0:0:
257,209,125863,2,0,L|247:344,1,130,12|0,0:0|0:0,0:0:0:0:
164,378,126274,1,8,0:0:0:0:
124,200,126548,5,8,0:0:0:0:
194,141,126685,1,4,1:0:0:0:
256,192,126754,12,8,128603,0:0:0:0:
170,321,129014,6,0,B|225:316|225:316|255:286|255:286|323:336|391:320|424:246|364:196|364:196|314:235,1,390.00001487732,4|4,1:0|1:0,0:0:0:0:
324,227,130658,2,0,P|380:222|438:209,1,97.50000371933,0|0,0:0|0:0,0:0:0:0:
428,77,131206,6,0,B|241:40|259:163|41:123,1,390.00001487732,4|8,1:0|0:0,0:0:0:0:
40,261,132576,1,0,0:0:0:0:
40,261,132713,2,0,P|118:240|196:250,1,146.250005578995,8|8,0:0|0:0,0:0:0:0:
343,330,133397,5,4,3:0:0:0:
343,330,133671,2,8,L|337:194,1,130,10|2,0:0|1:0,0:0:0:0:
262,156,134082,1,0,1:0:0:0:
262,156,134219,2,0,P|265:114|272:72,1,65,10|0,0:0|0:0,0:0:0:0:
197,34,134493,2,0,P|271:46|324:19,1,130,6|10,3:0|0:0,0:0:0:0:
408,3,134904,2,0,P|477:37|495:98,1,130,6|0,3:0|1:0,0:0:0:0:
456,166,135315,2,0,P|419:167|384:172,1,65,10|0,0:0|0:0,0:0:0:0:
376,261,135589,6,0,P|454:268|530:281,2,130,6|10|2,3:0|0:0|0:0,0:0:0:0:
221,359,136411,2,0,P|256:346|293:329,1,65,10|0,0:0|3:0,0:0:0:0:
240,252,136685,2,0,P|173:238|109:223,1,130,6|8,3:0|0:0,0:0:0:0:
42,175,137096,1,2,1:0:0:0:
42,175,137233,2,0,L|38:93,1,65,6|0,3:0|1:0,1:1:0:0:
96,38,137507,1,8,0:0:0:0:
96,38,137644,1,8,0:0:0:0:
184,77,137781,5,4,3:0:0:0:
184,77,138055,2,0,P|251:81|321:34,2,130,10|2|10,0:0|1:0|0:0,0:0:0:0:
400,10,138877,2,0,L|395:151,1,130,6|10,3:0|0:0,0:0:0:0:
321,194,139288,2,0,L|337:332,1,130,6|0,3:0|1:0,0:0:0:0:
427,354,139699,1,10,0:0:0:0:
427,354,139973,6,0,L|433:267,1,65,6|0,3:0|0:0,0:0:0:0:
495,223,140247,2,0,P|499:183|495:145,1,65,10|0,0:0|0:0,0:0:0:0:
435,91,140521,2,0,L|302:111,1,130,2|10,1:0|0:0,0:0:0:0:
147,199,141069,2,0,L|281:210,1,130,6|8,3:0|0:0,0:0:0:0:
363,238,141480,2,0,P|378:274|346:372,1,130,6|0,3:0|1:0,0:0:0:0:
268,378,141891,1,8,0:0:0:0:
95,320,142165,5,4,3:0:0:0:
95,320,142439,2,0,L|174:314,1,65,10|0,0:0|0:0,0:0:0:0:
229,255,142713,2,0,P|245:186|217:118,1,130,2|10,1:0|0:0,0:0:0:0:
70,38,143260,2,0,P|134:55|199:35,1,130,6|8,3:0|0:0,0:0:0:0:
348,110,143671,2,0,P|287:103|213:145,1,130,6|0,3:0|1:0,0:0:0:0:
169,202,144082,6,0,P|228:162|245:289,1,260,14|8,0:0|0:0,0:0:0:0:
248,290,144904,2,0,P|248:343|260:377,1,65,4|8,3:0|0:0,0:0:0:0:
344,381,145178,1,8,0:0:0:0:
344,381,145315,1,8,0:0:0:0:
428,347,145452,2,0,L|434:207,1,130,4|0,3:0|1:0,0:0:0:0:
377,144,145863,2,0,L|370:11,2,130,4|4|4,3:0|3:0|3:0,3:3:0:0:
305,201,146548,5,4,1:0:0:0:
305,201,146822,2,0,L|227:194,1,65,10|2,0:0|0:0,0:0:0:0:
164,153,147096,1,8,0:0:0:0:
164,153,147233,2,0,P|93:150|34:200,2,130,2|6|10,0:0|3:0|0:0,0:0:0:0:
131,306,148055,2,0,L|126:229,1,65,2|8,1:0|0:0,0:0:0:0:
217,231,148329,2,0,L|224:308,2,65,2|8|0,0:0|0:0|0:0,0:0:0:0:
263,151,148740,6,0,P|266:115|261:86,1,65,6|8,1:0|0:0,0:0:0:0:
186,45,149014,1,2,1:0:0:0:
186,45,149151,2,0,L|324:27,1,130,6|6,3:0|3:0,0:0:0:0:
487,87,149699,2,0,P|419:86|376:131,1,130,6|10,1:0|0:0,0:0:0:0:
424,207,150110,2,0,L|415:284,1,65,0|0,0:0|1:0,0:0:0:0:
359,343,150384,2,0,P|320:334|288:322,1,65,10|0,0:0|3:0,0:0:0:0:
218,277,150658,1,6,3:0:0:0:
59,367,150932,5,4,1:0:0:0:
59,367,151206,2,0,L|51:302,1,65,10|2,0:0|0:0,0:0:0:0:
128,253,151480,2,0,L|136:117,1,130,8|0,0:0|1:0,0:0:0:0:
129,31,151891,2,0,P|156:87|216:103,1,130,10|8,0:0|0:0,0:0:0:0:
299,64,152302,2,0,P|338:54|379:50,1,65,2|0,1:0|1:0,0:0:0:0:
418,138,152576,1,8,0:0:0:0:
418,138,152713,2,0,P|353:147|265:170,1,130,2|0,0:0|0:0,0:0:0:0:
219,220,153124,6,0,L|213:370,1,130,6|10,1:0|0:0,0:0:0:0:
300,377,153534,1,6,3:0:0:0:
126,322,153808,1,6,3:0:0:0:
309,249,154082,2,0,L|443:237,1,130,14|8,0:0|0:0,0:0:0:0:
482,156,154493,1,10,0:0:0:0:
410,333,154767,1,6,3:0:0:0:
410,333,154904,2,0,L|259:346,1,130,2|0,1:0|1:0,0:0:0:0:
193,362,155315,5,2,1:0:0:0:
193,362,155452,2,0,P|114:361|80:300,1,130,8|0,0:0|1:0,0:0:0:0:
12,269,155863,2,0,P|80:279|138:240,1,130,8|0,0:0|1:0,0:0:0:0:
191,180,156274,1,0,1:0:0:0:
120,12,156548,1,10,0:0:0:0:
120,11,156685,2,0,L|122:87,1,65,0|0,0:0|1:0,0:0:0:0:
212,89,156959,2,0,P|272:71|348:91,1,130,10|10,0:0|0:0,0:0:0:0:
484,191,157507,5,2,1:0:0:0:
484,191,157644,2,0,L|348:181,1,130,8|2,0:0|1:0,0:0:0:0:
266,207,158055,2,0,P|256:246|261:286,1,65,8|0,0:0|0:0,0:0:0:0:
294,354,158329,2,0,L|358:350,1,65,0|8,1:0|0:0,0:0:0:0:
454,368,158603,1,8,0:0:0:0:
454,368,158740,1,4,3:0:0:0:
512,304,158877,2,0,P|510:264|503:239,1,65,4|4,3:0|3:0,3:3:0:0:
466,156,159151,1,8,0:0:0:0:
324,41,159425,2,0,L|388:44,1,65,10|2,0:0|0:0,0:0:0:0:
363,132,159699,6,0,L|209:121,1,130,10|2,0:0|1:0,0:0:0:0:
141,120,160110,2,0,P|136:86|134:50,1,65,10|0,0:0|1:0,0:0:0:0:
44,73,160384,2,0,P|47:114|54:153,1,65,2|8,1:0|0:0,0:0:0:0:
96,216,160658,2,0,P|160:203|220:244,1,130,6|8,1:0|0:0,0:0:0:0:
253,316,161069,2,0,L|261:390,1,65,8|8,0:0|0:0,0:0:0:0:
351,384,161343,2,0,L|353:244,1,130,12|2,3:0|1:0,0:0:0:0:
421,193,161754,1,2,1:0:0:0:
421,193,161891,6,0,P|364:210|291:174,1,130,10|2,0:0|1:0,0:0:0:0:
307,93,162302,2,0,P|367:72|431:100,1,130,14|10,0:0|0:0,0:0:0:0:
502,157,162713,1,8,0:0:0:0:
502,157,162850,2,0,L|492:303,1,130,6|8,1:0|0:0,0:0:0:0:
485,377,163260,1,10,0:0:0:0:
275,290,163534,2,0,P|338:265|411:282,1,130,14|6,3:0|3:0,0:0:0:0:
203,360,164082,6,0,P|125:369|66:329,1,130,6|8,1:0|0:0,0:0:0:0:
57,257,164493,2,0,L|67:118,1,130,6|8,1:0|0:0,0:0:0:0:
20,48,164904,2,0,P|83:81|147:73,1,130,6|8,1:0|0:0,0:0:0:0:
216,25,165315,2,0,L|364:28,1,130,2|8,1:0|0:0,0:0:0:0:
432,56,165726,2,0,P|422:90|417:127,1,65,8|8,0:0|0:0,0:0:0:0:
368,196,166000,2,0,P|377:231|383:273,1,65,8|8,0:0|0:0,0:0:0:0:
368,350,166274,6,0,L|447:358,2,65,10|10|8,0:0|0:0|0:0,0:0:0:0:
295,294,166685,2,0,L|217:299,2,65,6|8|8,1:0|0:0|0:0,0:0:0:0:
381,259,167096,2,0,L|464:268,2,65,6|8|8,1:0|0:0|0:0,0:0:0:0:
308,202,167507,2,0,P|301:176|303:127,1,65,6|0,1:0|0:0,0:0:0:0:
345,59,167781,1,8,0:0:0:0:
345,59,167918,2,0,P|399:69|477:43,1,130,2|2,1:0|1:0,0:0:0:0:
257,14,168466,6,0,L|177:16,2,65,14|0|4,0:0|3:0|1:0,0:0:0:0:
231,102,168877,2,0,L|152:104,2,65,14|0|4,0:0|3:0|3:0,0:0:0:0:
206,190,169288,2,0,L|139:191,1,65,14|0,0:0|3:0,0:0:0:0:
63,237,169562,1,4,3:0:0:0:
63,237,169699,2,0,P|34:293|58:368,1,130,14|4,0:0|3:0,0:0:0:0:
123,303,170110,2,0,L|253:296,1,130,10|10,0:0|0:0,0:0:0:0:
328,244,170521,1,6,1:0:0:0:
256,192,170589,12,10,172713,0:0:0:0:
