osu file format v14

[General]
AudioFilename: audio.mp3
AudioLeadIn: 0
PreviewTime: 125514
Countdown: 0
SampleSet: Normal
StackLeniency: 0.7
Mode: 1
LetterboxInBreaks: 0
WidescreenStoryboard: 0

[Editor]
Bookmarks: 75369,149322,163276,196764,233043,277695
DistanceSpacing: 1.8
BeatDivisor: 4
GridSize: 32
TimelineZoom: 2.4

[Metadata]
Title:Aozora no Rhapsody (maji yabakune Remix)
TitleUnicode:青空のラプソディ (maji yabakune Remix)
Artist:fhana
ArtistUnicode:fhána
Creator:komasy
Version:butter & komasy's Rhapsody
Source:小林さんちのメイドラゴン
Tags:Miss Kobayashi's Kobayashi-san Chi no Maid Dragon 林 英樹 Hayashi Hideki 佐藤純一 Satou Junichi yuxuki waga kevin mitsunaga towana butter0414
BeatmapID:1464530
BeatmapSetID:692109

[Difficulty]
HPDrainRate:4
CircleSize:5
OverallDifficulty:6
ApproachRate:5
SliderMultiplier:1.4
SliderTickRate:1

[Events]
//Background and Video events
0,0,"bg.jpg",0,125
//Break Periods
//Storyboard Layer 0 (Background)
//Storyboard Layer 1 (Fail)
//Storyboard Layer 2 (Pass)
//Storyboard Layer 3 (Foreground)
//Storyboard Sound Samples

[TimingPoints]
1418,348.837209302326,4,1,0,90,1,0
50255,-100,4,1,0,100,0,1
75371,-100,4,1,0,90,0,0
125604,-100,4,1,0,100,0,1
136766,-100,4,1,0,100,0,0
137115,-100,4,1,0,100,0,1
149324,-100,4,1,0,90,0,0
210720,-100,4,1,0,100,0,1
231650,-100,4,1,0,100,0,0
233045,-100,4,1,0,100,0,1
255371,-100,4,1,0,90,0,0
300197,-100,4,1,0,50,0,0

[HitObjects]
256,192,1418,5,4,0:0:0:0:
256,192,1766,1,2,0:0:0:0:
256,192,2115,1,0,0:0:0:0:
256,192,2290,1,2,0:0:0:0:
256,192,2638,1,2,0:0:0:0:
256,192,2813,1,0,0:0:0:0:
256,192,3162,1,2,0:0:0:0:
256,192,3511,1,0,0:0:0:0:
256,192,3685,1,0,0:0:0:0:
256,192,3859,1,2,0:0:0:0:
256,192,4208,1,0,0:0:0:0:
256,192,4557,1,2,0:0:0:0:
256,192,4906,1,0,0:0:0:0:
256,192,5080,1,2,0:0:0:0:
256,192,5255,1,0,0:0:0:0:
256,192,5429,1,2,0:0:0:0:
256,192,5604,1,0,0:0:0:0:
256,192,5952,1,2,0:0:0:0:
256,192,6301,1,0,0:0:0:0:
256,192,6476,1,0,0:0:0:0:
256,192,6650,1,2,0:0:0:0:
256,192,6824,1,2,0:0:0:0:
256,192,6999,1,0,0:0:0:0:
256,192,7348,1,2,0:0:0:0:
256,192,7609,1,2,0:0:0:0:
256,192,7697,1,0,0:0:0:0:
256,192,7871,1,2,0:0:0:0:
256,192,8045,1,0,0:0:0:0:
256,192,8220,1,2,0:0:0:0:
256,192,8394,1,0,0:0:0:0:
256,192,8743,1,2,0:0:0:0:
256,192,9092,1,0,0:0:0:0:
256,192,9266,1,2,0:0:0:0:
256,192,9441,1,0,0:0:0:0:
256,192,9528,1,2,0:0:0:0:
256,192,9790,1,0,0:0:0:0:
256,192,10138,1,2,0:0:0:0:
256,192,10400,1,2,0:0:0:0:
256,192,10487,1,0,0:0:0:0:
256,192,10662,1,2,0:0:0:0:
256,192,10836,1,0,0:0:0:0:
256,192,11011,1,2,0:0:0:0:
256,192,11534,1,2,0:0:0:0:
256,192,12057,1,2,0:0:0:0:
256,192,12231,1,0,0:0:0:0:
256,192,12406,1,2,0:0:0:0:
256,192,12580,1,4,0:0:0:0:
256,192,12929,1,2,0:0:0:0:
256,192,13191,1,2,0:0:0:0:
256,192,13278,1,0,0:0:0:0:
256,192,13452,1,2,0:0:0:0:
256,192,13627,1,0,0:0:0:0:
256,192,13801,1,2,0:0:0:0:
256,192,13888,1,2,0:0:0:0:
256,224,13976,1,0,0:0:0:0:
256,192,14237,1,0,0:0:0:0:
256,192,14324,1,2,0:0:0:0:
256,192,14499,1,0,0:0:0:0:
256,192,14586,1,2,0:0:0:0:
256,192,14673,1,0,0:0:0:0:
256,192,14848,1,2,0:0:0:0:
256,192,15022,1,0,0:0:0:0:
256,192,15197,1,2,0:0:0:0:
256,192,15284,1,2,0:0:0:0:
256,192,15371,1,0,0:0:0:0:
256,192,15720,1,2,0:0:0:0:
256,192,15981,1,2,0:0:0:0:
256,192,16069,1,0,0:0:0:0:
256,192,16243,1,2,0:0:0:0:
256,192,16418,1,0,0:0:0:0:
256,192,16592,1,2,0:0:0:0:
256,192,16679,1,2,0:0:0:0:
256,192,16766,1,0,0:0:0:0:
256,192,17028,1,0,0:0:0:0:
256,192,17115,1,2,0:0:0:0:
256,192,17290,1,0,0:0:0:0:
256,192,17377,1,2,0:0:0:0:
256,192,17464,1,0,0:0:0:0:
256,192,17551,1,0,0:0:0:0:
256,192,17638,1,2,0:0:0:0:
256,192,17813,1,0,0:0:0:0:
256,192,17987,1,2,0:0:0:0:
256,192,18074,1,2,0:0:0:0:
256,192,18162,1,0,0:0:0:0:
256,192,18336,1,2,0:0:0:0:
256,192,18423,1,0,0:0:0:0:
256,192,18511,1,2,0:0:0:0:
256,192,18685,1,0,0:0:0:0:
256,192,18859,1,0,0:0:0:0:
256,192,19034,1,2,0:0:0:0:
256,192,19208,1,0,0:0:0:0:
256,192,19295,1,0,0:0:0:0:
256,192,19383,1,2,0:0:0:0:
256,192,19557,1,0,0:0:0:0:
256,192,19731,1,2,0:0:0:0:
256,192,19819,1,0,0:0:0:0:
256,192,19906,1,2,0:0:0:0:
256,192,20080,1,0,0:0:0:0:
256,192,20168,1,2,0:0:0:0:
256,192,20255,1,0,0:0:0:0:
256,192,20429,1,2,0:0:0:0:
256,192,20604,1,0,0:0:0:0:
256,192,20691,1,0,0:0:0:0:
256,192,20778,1,2,0:0:0:0:
256,192,20865,1,2,0:0:0:0:
256,192,20952,1,0,0:0:0:0:
256,192,21040,1,0,0:0:0:0:
256,192,21127,1,2,0:0:0:0:
256,192,21214,1,0,0:0:0:0:
256,192,21301,1,2,0:0:0:0:
256,192,21388,1,2,0:0:0:0:
256,192,21476,1,0,0:0:0:0:
256,192,21563,1,0,0:0:0:0:
256,192,21650,1,2,0:0:0:0:
256,192,21737,1,0,0:0:0:0:
256,192,21824,1,2,0:0:0:0:
256,192,21912,1,2,0:0:0:0:
256,192,21999,1,0,0:0:0:0:
256,192,22086,1,0,0:0:0:0:
256,192,22173,1,2,0:0:0:0:
256,192,22261,1,2,0:0:0:0:
256,192,22348,1,0,0:0:0:0:
256,192,22697,1,2,0:0:0:0:
256,192,23220,1,2,0:0:0:0:
256,192,23569,1,2,0:0:0:0:
256,192,23743,1,4,0:0:0:0:
256,192,24092,1,2,0:0:0:0:
256,192,24266,1,0,0:0:0:0:
256,192,24354,1,2,0:0:0:0:
256,192,24528,1,2,0:0:0:0:
256,192,24615,1,0,0:0:0:0:
256,192,24790,1,2,0:0:0:0:
256,192,24964,1,0,0:0:0:0:
256,192,25051,1,0,0:0:0:0:
256,192,25138,1,2,0:0:0:0:
256,192,25313,1,0,0:0:0:0:
256,192,25400,1,2,0:0:0:0:
256,192,25487,1,2,0:0:0:0:
256,192,25574,1,0,0:0:0:0:
256,192,25749,1,2,0:0:0:0:
256,192,25836,1,0,0:0:0:0:
256,192,25923,1,0,0:0:0:0:
256,192,26098,1,0,0:0:0:0:
256,192,26185,1,2,0:0:0:0:
256,192,26359,1,2,0:0:0:0:
256,192,26534,1,0,0:0:0:0:
256,192,26883,1,2,0:0:0:0:
256,192,27057,1,0,0:0:0:0:
256,192,27144,1,0,0:0:0:0:
256,192,27319,1,2,0:0:0:0:
256,192,27406,1,0,0:0:0:0:
256,192,27580,1,2,0:0:0:0:
256,192,27755,1,2,0:0:0:0:
256,192,27842,1,2,0:0:0:0:
256,192,27929,1,0,0:0:0:0:
256,192,28104,1,2,0:0:0:0:
256,192,28191,1,0,0:0:0:0:
256,192,28278,1,2,0:0:0:0:
256,192,28365,1,2,0:0:0:0:
256,192,28540,1,0,0:0:0:0:
256,192,28714,1,2,0:0:0:0:
256,192,28801,1,0,0:0:0:0:
256,192,28976,1,2,0:0:0:0:
256,192,29150,1,0,0:0:0:0:
256,192,29237,1,2,0:0:0:0:
256,192,29324,1,0,0:0:0:0:
256,192,29673,1,2,0:0:0:0:
256,192,29761,1,0,0:0:0:0:
256,192,29848,1,0,0:0:0:0:
256,192,29935,1,2,0:0:0:0:
256,192,30109,1,2,0:0:0:0:
256,192,30197,1,0,0:0:0:0:
256,192,30371,1,2,0:0:0:0:
256,192,30545,1,0,0:0:0:0:
256,192,30633,1,2,0:0:0:0:
256,192,30720,1,0,0:0:0:0:
256,192,30894,1,2,0:0:0:0:
256,192,30981,1,0,0:0:0:0:
256,192,31069,1,2,0:0:0:0:
256,192,31156,1,2,0:0:0:0:
256,192,31330,1,0,0:0:0:0:
256,192,31418,1,2,0:0:0:0:
256,192,31505,1,0,0:0:0:0:
256,192,31679,1,0,0:0:0:0:
256,192,31766,1,2,0:0:0:0:
256,192,31941,1,2,0:0:0:0:
256,192,32115,1,0,0:0:0:0:
256,192,32464,1,2,0:0:0:0:
256,192,32638,1,0,0:0:0:0:
256,192,32726,1,0,0:0:0:0:
256,192,32900,1,2,0:0:0:0:
256,192,32987,1,0,0:0:0:0:
256,192,33162,1,2,0:0:0:0:
256,192,33336,1,2,0:0:0:0:
256,192,33423,1,2,0:0:0:0:
256,192,33511,1,0,0:0:0:0:
256,192,33685,1,2,0:0:0:0:
256,192,33772,1,0,0:0:0:0:
256,192,33859,1,0,0:0:0:0:
256,192,33947,1,2,0:0:0:0:
256,192,34121,1,0,0:0:0:0:
256,192,34295,1,2,0:0:0:0:
256,192,34383,1,0,0:0:0:0:
256,192,34557,1,2,0:0:0:0:
256,192,34731,1,0,0:0:0:0:
256,192,34819,1,2,0:0:0:0:
256,192,34906,1,0,0:0:0:0:
256,192,35255,1,2,0:0:0:0:
256,192,35604,1,0,0:0:0:0:
256,192,35952,1,2,0:0:0:0:
256,192,36040,1,2,0:0:0:0:
256,192,36127,1,2,0:0:0:0:
256,192,36301,1,4,0:0:0:0:
256,192,36476,1,2,0:0:0:0:
256,192,36650,1,0,0:0:0:0:
256,192,36737,1,2,0:0:0:0:
256,192,36912,1,2,0:0:0:0:
256,192,36999,1,0,0:0:0:0:
256,192,37173,1,2,0:0:0:0:
256,192,37348,1,0,0:0:0:0:
256,192,37435,1,0,0:0:0:0:
256,192,37522,1,2,0:0:0:0:
256,192,37697,1,0,0:0:0:0:
256,192,37871,1,2,0:0:0:0:
256,192,37958,1,2,0:0:0:0:
256,192,38045,1,0,0:0:0:0:
256,192,38220,1,2,0:0:0:0:
256,192,38394,1,0,0:0:0:0:
256,192,38481,1,2,0:0:0:0:
256,192,38569,1,0,0:0:0:0:
256,192,38743,1,2,0:0:0:0:
256,192,38918,1,2,0:0:0:0:
256,192,39005,1,2,0:0:0:0:
256,192,39092,1,0,0:0:0:0:
256,192,39266,1,2,0:0:0:0:
256,192,39441,1,0,0:0:0:0:
256,192,39528,1,2,0:0:0:0:
256,192,39702,1,2,0:0:0:0:
256,192,39789,1,0,0:0:0:0:
256,192,39876,1,0,0:0:0:0:
256,192,39964,1,2,0:0:0:0:
256,192,40138,1,0,0:0:0:0:
256,192,40313,1,2,0:0:0:0:
256,192,40400,1,2,0:0:0:0:
256,192,40487,1,0,0:0:0:0:
256,192,40662,1,2,0:0:0:0:
256,192,40749,1,0,0:0:0:0:
256,192,40836,1,2,0:0:0:0:
256,192,41011,1,0,0:0:0:0:
256,192,41185,1,2,0:0:0:0:
256,192,41272,1,2,0:0:0:0:
256,192,41359,1,0,0:0:0:0:
256,192,41534,1,2,0:0:0:0:
256,192,41621,1,2,0:0:0:0:
256,192,41708,1,0,0:0:0:0:
256,192,41795,1,0,0:0:0:0:
256,192,41883,1,2,0:0:0:0:
256,192,42057,1,0,0:0:0:0:
256,192,42231,1,2,0:0:0:0:
256,192,42319,1,0,0:0:0:0:
256,192,42493,1,0,0:0:0:0:
256,192,42580,1,2,0:0:0:0:
256,192,42668,1,2,0:0:0:0:
256,192,42755,1,0,0:0:0:0:
256,192,42929,1,2,0:0:0:0:
256,192,43104,1,0,0:0:0:0:
256,192,43191,1,0,0:0:0:0:
256,192,43278,1,2,0:0:0:0:
256,192,43540,1,0,0:0:0:0:
256,192,43627,1,2,0:0:0:0:
256,192,43801,1,0,0:0:0:0:
256,192,43976,1,2,0:0:0:0:
256,192,44063,1,2,0:0:0:0:
256,192,44150,1,0,0:0:0:0:
256,192,44324,1,2,0:0:0:0:
256,192,44499,1,0,0:0:0:0:
256,192,44586,1,2,0:0:0:0:
256,192,44673,1,0,0:0:0:0:
256,192,44848,1,2,0:0:0:0:
256,192,44935,1,0,0:0:0:0:
256,192,45022,1,2,0:0:0:0:
256,192,45197,1,0,0:0:0:0:
256,192,45284,1,0,0:0:0:0:
256,192,45371,1,2,0:0:0:0:
256,192,45458,1,2,0:0:0:0:
256,192,45545,1,0,0:0:0:0:
256,192,45720,1,2,0:0:0:0:
256,192,45894,1,0,0:0:0:0:
256,192,45981,1,0,0:0:0:0:
256,192,46069,1,2,0:0:0:0:
256,192,46156,1,0,0:0:0:0:
256,192,46243,1,2,0:0:0:0:
256,192,46418,1,0,0:0:0:0:
256,192,46592,1,2,0:0:0:0:
256,192,46679,1,2,0:0:0:0:
256,192,46766,1,0,0:0:0:0:
256,192,46854,1,0,0:0:0:0:
256,192,46941,1,2,0:0:0:0:
256,192,47115,1,0,0:0:0:0:
256,192,47290,1,2,0:0:0:0:
256,192,47377,1,2,0:0:0:0:
256,192,47464,1,0,0:0:0:0:
256,192,47551,1,0,0:0:0:0:
256,192,47638,1,2,0:0:0:0:
256,192,47726,1,0,0:0:0:0:
256,192,47813,1,2,0:0:0:0:
256,192,47900,1,2,0:0:0:0:
256,192,47987,1,0,0:0:0:0:
256,192,48074,1,2,0:0:0:0:
256,192,48162,1,0,0:0:0:0:
256,192,48249,1,0,0:0:0:0:
256,192,48336,1,2,0:0:0:0:
256,192,48423,1,0,0:0:0:0:
256,192,48511,1,2,0:0:0:0:
256,192,48598,1,2,0:0:0:0:
256,192,48685,1,0,0:0:0:0:
256,192,48772,1,0,0:0:0:0:
256,192,48859,1,2,0:0:0:0:
256,192,49034,1,0,0:0:0:0:
256,192,49121,1,2,0:0:0:0:
256,192,49295,1,2,0:0:0:0:
256,192,49383,1,0,0:0:0:0:
256,192,49557,1,2,0:0:0:0:
256,192,49644,1,2,0:0:0:0:
256,192,49731,1,0,0:0:0:0:
256,192,49819,1,0,0:0:0:0:
256,192,49906,1,2,0:0:0:0:
256,192,50255,1,4,0:0:0:0:
256,192,50516,1,0,0:0:0:0:
256,192,50604,1,2,0:0:0:0:
256,192,50778,1,2,0:0:0:0:
256,192,50865,1,2,0:0:0:0:
256,192,50952,1,0,0:0:0:0:
256,192,51127,1,2,0:0:0:0:
256,192,51214,1,0,0:0:0:0:
256,192,51301,1,2,0:0:0:0:
256,192,51476,1,2,0:0:0:0:
256,192,51650,1,0,0:0:0:0:
256,192,51912,1,0,0:0:0:0:
256,192,51999,1,2,0:0:0:0:
256,192,52173,1,0,0:0:0:0:
256,192,52348,1,2,0:0:0:0:
256,192,52435,1,2,0:0:0:0:
256,192,52522,1,0,0:0:0:0:
256,192,52697,1,2,0:0:0:0:
256,192,52871,1,0,0:0:0:0:
256,192,52958,1,2,0:0:0:0:
256,192,53045,1,0,0:0:0:0:
256,192,53220,1,2,0:0:0:0:
256,192,53307,1,0,0:0:0:0:
256,192,53394,1,2,0:0:0:0:
256,192,53569,1,0,0:0:0:0:
224,192,53656,1,2,0:0:0:0:
256,192,53743,1,2,0:0:0:0:
256,192,53830,1,0,0:0:0:0:
256,192,54005,1,0,0:0:0:0:
256,192,54092,1,2,0:0:0:0:
256,192,54266,1,2,0:0:0:0:
256,192,54441,1,0,0:0:0:0:
256,192,54790,1,2,0:0:0:0:
256,192,54964,1,0,0:0:0:0:
256,192,55051,1,0,0:0:0:0:
256,192,55138,1,2,0:0:0:0:
256,192,55226,1,2,0:0:0:0:
256,192,55313,1,0,0:0:0:0:
256,192,55487,1,2,0:0:0:0:
256,192,55662,1,0,0:0:0:0:
256,192,55749,1,2,0:0:0:0:
256,192,55836,1,0,0:0:0:0:
256,192,56098,1,0,0:0:0:0:
256,192,56185,1,2,0:0:0:0:
256,192,56359,1,0,0:0:0:0:
256,192,56447,1,2,0:0:0:0:
256,192,56534,1,0,0:0:0:0:
256,192,56708,1,2,0:0:0:0:
256,192,56795,1,0,0:0:0:0:
256,192,56883,1,2,0:0:0:0:
256,192,57057,1,2,0:0:0:0:
256,192,57231,1,0,0:0:0:0:
256,192,57493,1,0,0:0:0:0:
256,192,57580,1,2,0:0:0:0:
256,192,57755,1,0,0:0:0:0:
256,192,57842,1,0,0:0:0:0:
256,192,57929,1,2,0:0:0:0:
256,192,58104,1,0,0:0:0:0:
256,192,58278,1,2,0:0:0:0:
256,192,58365,1,0,0:0:0:0:
256,192,58452,1,2,0:0:0:0:
256,192,58540,1,2,0:0:0:0:
256,192,58627,1,0,0:0:0:0:
256,192,58801,1,2,0:0:0:0:
256,192,58888,1,0,0:0:0:0:
256,192,58976,1,2,0:0:0:0:
256,192,59150,1,0,0:0:0:0:
256,192,59237,1,0,0:0:0:0:
256,192,59324,1,2,0:0:0:0:
256,192,59412,1,0,0:0:0:0:
256,192,59586,1,0,0:0:0:0:
256,192,59673,1,2,0:0:0:0:
256,192,59848,1,2,0:0:0:0:
256,192,60022,1,0,0:0:0:0:
256,192,60197,1,2,0:0:0:0:
256,192,60284,1,0,0:0:0:0:
256,192,60458,1,2,0:0:0:0:
256,192,60545,1,0,0:0:0:0:
256,192,60633,1,0,0:0:0:0:
256,192,60720,1,2,0:0:0:0:
256,192,60807,1,0,0:0:0:0:
256,192,60981,1,2,0:0:0:0:
256,192,61069,1,0,0:0:0:0:
256,192,61127,1,0,0:0:0:0:
256,192,61185,1,0,0:0:0:0:
256,192,61243,1,2,0:0:0:0:
256,192,61418,1,4,0:0:0:0:
256,192,61679,1,0,0:0:0:0:
256,192,61766,1,2,0:0:0:0:
256,192,61941,1,0,0:0:0:0:
256,192,62028,1,0,0:0:0:0:
256,192,62115,1,2,0:0:0:0:
256,192,62202,1,2,0:0:0:0:
256,192,62290,1,0,0:0:0:0:
256,192,62464,1,2,0:0:0:0:
256,192,62638,1,0,0:0:0:0:
256,192,62726,1,2,0:0:0:0:
256,192,62813,1,0,0:0:0:0:
256,192,62987,1,2,0:0:0:0:
256,192,63074,1,0,0:0:0:0:
256,192,63162,1,2,0:0:0:0:
256,192,63336,1,0,0:0:0:0:
256,192,63511,1,2,0:0:0:0:
256,192,63598,1,2,0:0:0:0:
256,192,63685,1,0,0:0:0:0:
256,192,63772,1,0,0:0:0:0:
256,192,63859,1,2,0:0:0:0:
256,192,64034,1,0,0:0:0:0:
256,192,64121,1,2,0:0:0:0:
256,192,64208,1,0,0:0:0:0:
256,192,64470,1,0,0:0:0:0:
256,192,64557,1,2,0:0:0:0:
256,192,64731,1,0,0:0:0:0:
256,192,64819,1,2,0:0:0:0:
256,192,64906,1,2,0:0:0:0:
256,192,64993,1,0,0:0:0:0:
256,192,65168,1,0,0:0:0:0:
256,192,65255,1,2,0:0:0:0:
256,192,65429,1,2,0:0:0:0:
256,192,65604,1,0,0:0:0:0:
256,192,65778,1,2,0:0:0:0:
256,192,65865,1,0,0:0:0:0:
256,192,65952,1,2,0:0:0:0:
256,192,66127,1,0,0:0:0:0:
256,192,66214,1,0,0:0:0:0:
256,192,66301,1,2,0:0:0:0:
256,192,66388,1,2,0:0:0:0:
256,192,66476,1,0,0:0:0:0:
256,192,66650,1,2,0:0:0:0:
256,192,66824,1,0,0:0:0:0:
256,192,66912,1,2,0:0:0:0:
256,192,66999,1,0,0:0:0:0:
256,192,67261,1,0,0:0:0:0:
256,192,67348,1,2,0:0:0:0:
256,192,67522,1,0,0:0:0:0:
256,192,67697,1,2,0:0:0:0:
256,192,67871,1,0,0:0:0:0:
256,192,67958,1,0,0:0:0:0:
256,192,68045,1,2,0:0:0:0:
256,192,68104,1,2,0:0:0:0:
256,192,68162,1,2,0:0:0:0:
256,192,68220,1,0,0:0:0:0:
256,192,68307,1,2,0:0:0:0:
256,192,68394,1,0,0:0:0:0:
256,192,68569,1,2,0:0:0:0:
256,192,68656,1,0,0:0:0:0:
256,192,68830,1,2,0:0:0:0:
256,192,68918,1,0,0:0:0:0:
256,192,69005,1,0,0:0:0:0:
256,192,69092,1,2,0:0:0:0:
256,192,69179,1,0,0:0:0:0:
256,192,69354,1,2,0:0:0:0:
256,192,69441,1,0,0:0:0:0:
256,192,69499,1,0,0:0:0:0:
256,192,69557,1,0,0:0:0:0:
256,192,69615,1,2,0:0:0:0:
256,192,69790,1,4,0:0:0:0:
256,192,69964,1,2,0:0:0:0:
256,192,70138,1,0,0:0:0:0:
256,192,70226,1,0,0:0:0:0:
256,192,70313,1,2,0:0:0:0:
256,192,70400,1,0,0:0:0:0:
256,192,70487,1,2,0:0:0:0:
256,192,70574,1,2,0:0:0:0:
256,192,70662,1,0,0:0:0:0:
256,192,70836,1,2,0:0:0:0:
256,192,71011,1,0,0:0:0:0:
256,192,71098,1,0,0:0:0:0:
256,192,71185,1,2,0:0:0:0:
256,192,71359,1,0,0:0:0:0:
256,192,71534,1,2,0:0:0:0:
256,192,71621,1,0,0:0:0:0:
256,192,71708,1,2,0:0:0:0:
256,192,71795,1,2,0:0:0:0:
256,192,71883,1,0,0:0:0:0:
256,192,71970,1,0,0:0:0:0:
256,192,72057,1,2,0:0:0:0:
256,192,72231,1,0,0:0:0:0:
256,192,72406,1,2,0:0:0:0:
256,192,72493,1,2,0:0:0:0:
256,192,72580,1,0,0:0:0:0:
256,192,72755,1,2,0:0:0:0:
256,192,72929,1,0,0:0:0:0:
256,192,73016,1,2,0:0:0:0:
256,192,73104,1,0,0:0:0:0:
256,192,73191,1,0,0:0:0:0:
256,192,73278,1,2,0:0:0:0:
256,192,73365,1,2,0:0:0:0:
256,192,73452,1,0,0:0:0:0:
256,192,73627,1,2,0:0:0:0:
256,192,73801,1,2,0:0:0:0:
256,192,73976,1,0,0:0:0:0:
256,192,74237,1,0,0:0:0:0:
256,192,74324,5,2,0:0:0:0:
256,192,74499,1,2,0:0:0:0:
256,192,74673,1,0,0:0:0:0:
256,224,74848,1,2,0:0:0:0:
256,192,75197,1,2,0:0:0:0:
352,192,75371,5,0,0:0:0:0:
346,219,76418,5,8,0:0:0:0:
346,219,76592,1,8,0:0:0:0:
320,160,76766,5,4,0:0:0:0:
352,160,77114,1,8,0:0:0:0:
352,160,77463,1,0,0:0:0:0:
352,160,77638,1,8,0:0:0:0:
352,160,77986,1,8,0:0:0:0:
352,160,78161,1,0,0:0:0:0:
352,160,78510,1,8,0:0:0:0:
352,160,78859,1,0,0:0:0:0:
352,160,79033,1,8,0:0:0:0:
224,160,79207,1,0,0:0:0:0:
352,160,79382,1,8,0:0:0:0:
384,288,79556,1,0,0:0:0:0:
384,32,79905,1,8,0:0:0:0:
384,288,80254,1,0,0:0:0:0:
384,160,80428,1,8,0:0:0:0:
384,384,80777,1,8,0:0:0:0:
384,256,80952,1,0,0:0:0:0:
384,256,81300,1,8,0:0:0:0:
416,224,81649,1,0,0:0:0:0:
416,224,81824,1,8,0:0:0:0:
320,224,81998,1,0,0:0:0:0:
320,224,82085,1,0,0:0:0:0:
288,160,82172,1,8,0:0:0:0:
416,256,82347,1,0,0:0:0:0:
256,64,82696,1,8,0:0:0:0:
416,256,83045,1,0,0:0:0:0:
352,160,83219,1,8,0:0:0:0:
96,192,83568,1,8,0:0:0:0:
224,160,83742,1,0,0:0:0:0:
448,192,84091,1,8,0:0:0:0:
192,160,84440,1,0,0:0:0:0:
320,160,84614,1,8,0:0:0:0:
192,192,84789,1,0,0:0:0:0:
192,160,84876,1,8,0:0:0:0:
288,160,84963,1,8,0:0:0:0:
192,192,85138,1,0,0:0:0:0:
384,64,85486,1,8,0:0:0:0:
192,192,85835,1,0,0:0:0:0:
192,192,86010,1,8,0:0:0:0:
320,256,86184,1,0,0:0:0:0:
128,224,86359,1,8,0:0:0:0:
244,224,86534,1,0,0:0:0:0:
480,320,86882,1,8,0:0:0:0:
96,192,87405,1,8,0:0:0:0:
192,224,87579,1,0,0:0:0:0:
224,256,87667,1,0,0:0:0:0:
320,256,87754,1,8,0:0:0:0:
192,224,87928,1,4,0:0:0:0:
416,256,88277,1,8,0:0:0:0:
256,288,88626,1,0,0:0:0:0:
256,288,88800,1,8,0:0:0:0:
256,288,88975,1,0,0:0:0:0:
224,384,89149,1,8,0:0:0:0:
224,384,89236,1,8,0:0:0:0:
224,384,89324,1,0,0:0:0:0:
256,288,89672,1,8,0:0:0:0:
288,32,90021,1,0,0:0:0:0:
256,160,90196,1,8,0:0:0:0:
288,288,90370,1,0,0:0:0:0:
320,288,90457,1,0,0:0:0:0:
384,288,90545,1,8,0:0:0:0:
416,288,90632,1,8,0:0:0:0:
416,288,90719,1,0,0:0:0:0:
224,128,91068,1,8,0:0:0:0:
416,288,91417,1,0,0:0:0:0:
320,192,91591,1,8,0:0:0:0:
384,256,91766,1,0,0:0:0:0:
384,256,91940,1,8,0:0:0:0:
384,256,92027,1,8,0:0:0:0:
384,256,92114,1,0,0:0:0:0:
384,256,92463,1,8,0:0:0:0:
288,192,92726,1,8,0:0:0:0:
160,352,92812,1,0,0:0:0:0:
288,320,92986,1,8,0:0:0:0:
288,320,93161,1,0,0:0:0:0:
288,320,93248,1,8,0:0:0:0:
288,320,93335,1,8,0:0:0:0:
288,320,93422,1,8,0:0:0:0:
320,352,93510,1,0,0:0:0:0:
416,352,93684,1,0,0:0:0:0:
320,384,93859,1,8,0:0:0:0:
416,352,94033,1,0,0:0:0:0:
288,352,94207,1,0,0:0:0:0:
416,352,94382,1,8,0:0:0:0:
448,352,94556,1,0,0:0:0:0:
416,320,94644,1,0,0:0:0:0:
384,256,94731,1,8,0:0:0:0:
320,160,94905,1,0,0:0:0:0:
320,160,95079,1,0,0:0:0:0:
320,160,95254,1,8,0:0:0:0:
288,32,95428,1,0,0:0:0:0:
320,128,95603,1,0,0:0:0:0:
320,128,95777,1,8,0:0:0:0:
320,128,95952,1,0,0:0:0:0:
320,128,96039,1,8,0:0:0:0:
320,128,96126,1,8,0:0:0:0:
384,224,96300,1,0,0:0:0:0:
416,256,96388,1,0,0:0:0:0:
416,256,96475,1,8,0:0:0:0:
416,256,96562,1,0,0:0:0:0:
416,256,96649,1,8,0:0:0:0:
416,256,96736,1,8,0:0:0:0:
416,256,96824,1,0,0:0:0:0:
384,256,96911,1,8,0:0:0:0:
384,256,96998,1,0,0:0:0:0:
384,256,97085,1,0,0:0:0:0:
384,256,97172,1,8,0:0:0:0:
384,256,97260,1,8,0:0:0:0:
384,256,97348,1,0,0:0:0:0:
384,256,97434,1,8,0:0:0:0:
384,256,97521,1,8,0:0:0:0:
384,256,97609,1,8,0:0:0:0:
384,256,97696,1,0,0:0:0:0:
256,192,97870,12,0,98742,0:0:0:0:
320,192,99091,5,4,0:0:0:0:
352,192,99441,1,8,0:0:0:0:
352,192,99615,1,0,0:0:0:0:
352,192,99702,1,8,0:0:0:0:
352,192,99877,1,8,0:0:0:0:
352,192,99964,1,0,0:0:0:0:
224,224,100138,1,8,0:0:0:0:
384,192,100313,1,0,0:0:0:0:
320,224,100400,1,0,0:0:0:0:
352,192,100487,1,8,0:0:0:0:
384,192,100662,1,0,0:0:0:0:
384,192,100836,1,8,0:0:0:0:
384,192,100923,1,8,0:0:0:0:
384,192,101098,1,8,0:0:0:0:
352,256,101185,1,0,0:0:0:0:
352,256,101272,1,0,0:0:0:0:
352,256,101447,1,0,0:0:0:0:
352,256,101534,1,8,0:0:0:0:
439,188,101883,1,0,0:0:0:0:
352,192,102231,1,8,0:0:0:0:
352,192,102405,1,0,0:0:0:0:
352,192,102492,1,0,0:0:0:0:
352,192,102667,1,8,0:0:0:0:
352,192,102754,1,0,0:0:0:0:
224,224,102928,1,8,0:0:0:0:
352,192,103103,1,0,0:0:0:0:
320,224,103190,1,8,0:0:0:0:
384,192,103277,1,0,0:0:0:0:
384,192,103452,1,8,0:0:0:0:
416,128,103540,1,0,0:0:0:0:
384,192,103626,1,8,0:0:0:0:
384,192,103713,1,8,0:0:0:0:
384,192,103888,1,0,0:0:0:0:
384,192,104063,1,8,0:0:0:0:
384,192,104150,1,0,0:0:0:0:
352,256,104324,1,8,0:0:0:0:
288,128,104499,1,0,0:0:0:0:
439,188,104673,1,0,0:0:0:0:
352,192,105022,1,8,0:0:0:0:
352,192,105196,1,0,0:0:0:0:
352,192,105283,1,8,0:0:0:0:
352,192,105458,1,8,0:0:0:0:
352,192,105545,1,0,0:0:0:0:
224,224,105719,1,8,0:0:0:0:
352,192,105894,1,0,0:0:0:0:
320,224,105981,1,0,0:0:0:0:
384,192,106068,1,8,0:0:0:0:
384,192,106243,1,0,0:0:0:0:
384,192,106417,1,8,0:0:0:0:
384,192,106504,1,8,0:0:0:0:
384,192,106679,1,8,0:0:0:0:
320,160,106766,1,0,0:0:0:0:
384,192,106853,1,0,0:0:0:0:
384,192,107028,1,0,0:0:0:0:
352,256,107115,1,8,0:0:0:0:
439,188,107464,1,0,0:0:0:0:
352,192,107812,1,8,0:0:0:0:
288,160,107900,1,8,0:0:0:0:
352,192,107986,1,0,0:0:0:0:
352,192,108073,1,0,0:0:0:0:
352,192,108249,1,8,0:0:0:0:
352,192,108335,1,0,0:0:0:0:
224,224,108511,1,8,0:0:0:0:
352,192,108684,1,0,0:0:0:0:
320,224,108771,1,8,0:0:0:0:
384,192,108858,1,0,0:0:0:0:
384,192,109033,1,8,0:0:0:0:
416,128,109121,1,0,0:0:0:0:
384,192,109207,1,8,0:0:0:0:
384,192,109294,1,8,0:0:0:0:
384,192,109469,1,0,0:0:0:0:
384,192,109644,1,8,0:0:0:0:
384,192,109731,1,0,0:0:0:0:
352,256,109905,1,8,0:0:0:0:
256,192,110080,1,8,0:0:0:0:
224,160,110168,1,8,0:0:0:0:
471,215,110255,5,0,0:0:0:0:
320,160,110604,1,8,0:0:0:0:
448,192,110865,1,8,0:0:0:0:
416,160,110952,1,0,0:0:0:0:
384,64,111127,1,8,0:0:0:0:
416,160,111301,1,0,0:0:0:0:
416,128,111388,1,0,0:0:0:0:
416,128,111476,1,8,0:0:0:0:
384,288,111649,5,4,0:0:0:0:
480,384,111824,1,8,0:0:0:0:
384,288,111998,1,0,0:0:0:0:
448,352,112085,1,8,0:0:0:0:
384,256,112260,1,8,0:0:0:0:
416,288,112347,1,0,0:0:0:0:
416,320,112521,1,8,0:0:0:0:
416,320,112696,1,0,0:0:0:0:
416,320,112783,1,0,0:0:0:0:
416,320,112870,1,8,0:0:0:0:
416,320,113045,1,0,0:0:0:0:
416,320,113219,1,8,0:0:0:0:
384,288,113307,1,8,0:0:0:0:
352,256,113394,1,0,0:0:0:0:
416,320,113568,1,8,0:0:0:0:
480,320,113743,1,0,0:0:0:0:
416,288,113830,1,8,0:0:0:0:
416,224,113918,1,0,0:0:0:0:
416,192,114004,1,0,0:0:0:0:
448,320,114091,1,8,0:0:0:0:
320,192,114266,1,8,0:0:0:0:
320,192,114354,1,8,0:0:0:0:
416,224,114440,1,0,0:0:0:0:
320,192,114614,1,8,0:0:0:0:
448,192,114789,1,0,0:0:0:0:
384,192,114876,1,0,0:0:0:0:
320,192,115050,1,8,0:0:0:0:
288,192,115138,1,0,0:0:0:0:
384,288,115312,1,8,0:0:0:0:
288,192,115486,1,0,0:0:0:0:
320,224,115574,1,0,0:0:0:0:
288,192,115661,1,8,0:0:0:0:
384,288,115835,1,0,0:0:0:0:
320,192,116010,1,8,0:0:0:0:
320,192,116097,1,8,0:0:0:0:
288,192,116185,1,0,0:0:0:0:
320,192,116272,1,0,0:0:0:0:
320,192,116359,1,8,0:0:0:0:
416,256,116533,1,0,0:0:0:0:
320,192,116707,1,8,0:0:0:0:
384,224,116795,1,0,0:0:0:0:
384,224,116882,1,8,0:0:0:0:
384,224,116969,1,8,0:0:0:0:
384,224,117056,1,0,0:0:0:0:
384,224,117143,1,0,0:0:0:0:
384,224,117231,1,8,0:0:0:0:
288,192,117405,1,0,0:0:0:0:
384,288,117579,1,8,0:0:0:0:
352,256,117667,1,0,0:0:0:0:
384,288,117841,1,0,0:0:0:0:
384,288,117928,1,8,0:0:0:0:
384,288,118016,1,8,0:0:0:0:
384,288,118103,1,0,0:0:0:0:
384,288,118277,1,8,0:0:0:0:
384,288,118452,1,0,0:0:0:0:
384,288,118539,1,0,0:0:0:0:
384,288,118626,1,8,0:0:0:0:
384,288,118888,1,0,0:0:0:0:
384,288,118975,1,8,0:0:0:0:
384,288,119149,1,0,0:0:0:0:
384,288,119324,1,8,0:0:0:0:
384,288,119411,1,8,0:0:0:0:
384,288,119498,1,0,0:0:0:0:
384,288,119585,1,0,0:0:0:0:
384,288,119672,1,8,0:0:0:0:
384,288,119847,1,0,0:0:0:0:
384,192,120021,1,8,0:0:0:0:
384,288,120196,1,8,0:0:0:0:
384,224,120283,1,0,0:0:0:0:
384,224,120370,1,8,0:0:0:0:
384,224,120545,1,0,0:0:0:0:
352,192,120632,1,0,0:0:0:0:
384,224,120719,1,8,0:0:0:0:
384,224,120806,1,8,0:0:0:0:
384,224,120893,1,0,0:0:0:0:
384,224,121068,1,8,0:0:0:0:
288,160,121242,1,0,0:0:0:0:
320,128,121329,1,8,0:0:0:0:
352,96,121417,1,8,0:0:0:0:
352,96,121591,1,0,0:0:0:0:
352,96,121766,1,8,0:0:0:0:
320,128,121853,1,8,0:0:0:0:
288,192,121940,1,0,0:0:0:0:
288,192,122114,1,8,0:0:0:0:
288,192,122202,1,0,0:0:0:0:
288,192,122376,1,0,0:0:0:0:
288,192,122463,1,8,0:0:0:0:
256,128,122551,1,8,0:0:0:0:
416,192,122638,1,0,0:0:0:0:
416,192,122812,1,8,0:0:0:0:
416,192,122899,1,0,0:0:0:0:
352,160,122986,1,8,0:0:0:0:
416,192,123074,1,0,0:0:0:0:
352,160,123161,1,8,0:0:0:0:
352,160,123248,1,8,0:0:0:0:
352,160,123335,1,0,0:0:0:0:
352,160,123422,1,0,0:0:0:0:
352,160,123510,1,8,0:0:0:0:
352,160,123597,1,0,0:0:0:0:
352,160,123684,1,8,0:0:0:0:
352,160,123771,1,0,0:0:0:0:
352,160,123859,1,8,0:0:0:0:
352,160,123946,1,8,0:0:0:0:
352,160,124033,1,8,0:0:0:0:
352,160,124120,1,8,0:0:0:0:
352,160,124207,1,0,0:0:0:0:
416,256,124905,1,0,0:0:0:0:
416,256,124992,1,0,0:0:0:0:
416,256,125079,1,0,0:0:0:0:
416,256,125254,1,12,0:0:0:0:
448,256,125603,5,4,0:0:0:0:
480,256,125865,1,0,0:0:0:0:
210,165,125952,1,8,0:0:0:0:
320,192,126127,1,0,0:0:0:0:
416,256,126301,1,8,0:0:0:0:
416,224,126388,1,8,0:0:0:0:
321,211,126476,1,0,0:0:0:0:
321,211,126650,1,8,0:0:0:0:
352,96,126824,1,0,0:0:0:0:
321,211,126999,1,0,0:0:0:0:
256,192,127086,1,0,0:0:0:0:
321,211,127261,1,0,0:0:0:0:
512,128,127348,1,8,0:0:0:0:
448,192,127522,1,0,0:0:0:0:
320,224,127697,1,8,0:0:0:0:
320,160,127784,1,8,0:0:0:0:
276,83,127871,1,0,0:0:0:0:
320,96,127958,1,0,0:0:0:0:
276,83,128045,1,8,0:0:0:0:
256,128,128220,1,0,0:0:0:0:
288,32,128307,1,8,0:0:0:0:
321,211,128394,1,0,0:0:0:0:
128,160,128656,1,0,0:0:0:0:
321,211,128743,1,8,0:0:0:0:
416,256,128918,1,0,0:0:0:0:
320,224,129092,1,8,0:0:0:0:
384,256,129266,1,0,0:0:0:0:
276,83,129354,1,0,0:0:0:0:
276,83,129440,1,8,0:0:0:0:
276,83,129615,1,8,0:0:0:0:
321,211,129790,1,0,0:0:0:0:
288,160,129877,1,8,0:0:0:0:
384,128,129964,1,0,0:0:0:0:
320,128,130051,1,0,0:0:0:0:
321,211,130139,1,8,0:0:0:0:
321,113,130313,1,0,0:0:0:0:
384,128,130400,1,0,0:0:0:0:
384,128,130574,1,8,0:0:0:0:
276,83,130662,1,0,0:0:0:0:
276,83,130836,1,8,0:0:0:0:
352,192,131011,1,8,0:0:0:0:
288,160,131098,1,8,0:0:0:0:
321,211,131185,1,0,0:0:0:0:
288,32,131447,1,0,0:0:0:0:
321,211,131534,1,8,0:0:0:0:
320,96,131708,1,0,0:0:0:0:
320,224,131883,1,8,0:0:0:0:
288,192,131970,1,8,0:0:0:0:
276,83,132057,1,0,0:0:0:0:
320,96,132144,1,0,0:0:0:0:
276,83,132231,1,8,0:0:0:0:
384,160,132406,1,0,0:0:0:0:
384,224,132493,1,8,0:0:0:0:
321,211,132580,1,0,0:0:0:0:
384,160,132668,1,0,0:0:0:0:
321,211,132842,1,0,0:0:0:0:
384,160,132929,1,8,0:0:0:0:
384,160,133104,1,0,0:0:0:0:
384,160,133278,1,8,0:0:0:0:
384,160,133365,1,8,0:0:0:0:
384,160,133452,1,0,0:0:0:0:
276,83,133626,1,8,0:0:0:0:
384,160,133801,1,0,0:0:0:0:
384,160,133888,1,8,0:0:0:0:
321,211,133976,1,0,0:0:0:0:
384,32,134237,1,0,0:0:0:0:
321,211,134325,1,8,0:0:0:0:
384,96,134499,1,0,0:0:0:0:
320,192,134673,1,8,0:0:0:0:
352,160,134761,1,8,0:0:0:0:
320,96,134848,1,0,0:0:0:0:
352,160,134935,1,8,0:0:0:0:
276,83,135022,1,8,0:0:0:0:
320,96,135197,1,0,0:0:0:0:
288,128,135284,1,8,0:0:0:0:
213,190,135371,5,0,0:0:0:0:
333,223,135545,5,8,0:0:0:0:
333,223,135632,1,0,0:0:0:0:
333,223,135806,1,8,0:0:0:0:
333,223,135893,1,0,0:0:0:0:
333,223,135981,1,0,0:0:0:0:
333,223,136068,1,8,0:0:0:0:
333,223,136155,1,0,0:0:0:0:
268,133,136329,1,8,0:0:0:0:
333,223,136417,1,0,0:0:0:0:
213,190,136475,1,0,0:0:0:0:
213,190,136533,1,0,0:0:0:0:
213,190,136591,1,8,0:0:0:0:
448,256,136766,1,0,0:0:0:0:
385,248,136854,1,0,0:0:0:0:
331,241,136941,1,0,0:0:0:0:
320,224,137115,1,12,0:0:0:0:
416,288,137289,1,0,0:0:0:0:
320,224,137463,1,8,0:0:0:0:
384,256,137551,1,0,0:0:0:0:
288,224,137725,1,0,0:0:0:0:
320,224,137812,1,8,0:0:0:0:
416,192,137987,1,8,0:0:0:0:
352,160,138074,1,8,0:0:0:0:
320,224,138161,1,0,0:0:0:0:
305,170,138248,1,8,0:0:0:0:
352,256,138423,1,8,0:0:0:0:
352,256,138510,1,0,0:0:0:0:
448,288,138684,1,8,0:0:0:0:
352,288,138859,1,0,0:0:0:0:
480,288,139033,1,8,0:0:0:0:
416,288,139120,1,0,0:0:0:0:
416,288,139208,1,8,0:0:0:0:
416,288,139382,1,8,0:0:0:0:
352,224,139470,1,8,0:0:0:0:
416,288,139556,1,0,0:0:0:0:
260,212,139818,1,8,0:0:0:0:
209,187,139905,1,0,0:0:0:0:
90,131,140080,1,8,0:0:0:0:
128,128,140168,1,0,0:0:0:0:
167,206,140254,1,0,0:0:0:0:
206,245,140341,1,8,0:0:0:0:
126,165,140516,1,8,0:0:0:0:
158,197,140603,1,0,0:0:0:0:
240,279,140777,1,8,0:0:0:0:
157,196,140952,1,0,0:0:0:0:
192,192,141040,1,0,0:0:0:0:
265,245,141126,1,8,0:0:0:0:
327,274,141213,1,0,0:0:0:0:
327,274,141301,1,8,0:0:0:0:
338,155,141475,1,8,0:0:0:0:
320,192,141563,1,8,0:0:0:0:
303,272,141649,1,0,0:0:0:0:
315,225,141737,1,8,0:0:0:0:
315,225,141824,1,0,0:0:0:0:
315,225,141911,1,0,0:0:0:0:
316,217,141998,1,8,0:0:0:0:
315,225,142173,1,8,0:0:0:0:
338,155,142260,1,8,0:0:0:0:
315,225,142347,1,0,0:0:0:0:
497,228,142609,1,0,0:0:0:0:
446,215,142696,1,8,0:0:0:0:
325,159,142870,1,0,0:0:0:0:
406,262,143045,1,8,0:0:0:0:
282,290,143219,1,0,0:0:0:0:
233,302,143306,1,0,0:0:0:0:
278,256,143393,1,8,0:0:0:0:
321,232,143452,1,0,0:0:0:0:
369,206,143510,1,0,0:0:0:0:
393,193,143568,1,8,0:0:0:0:
406,262,143655,1,8,0:0:0:0:
406,262,143742,1,0,0:0:0:0:
393,193,143917,1,8,0:0:0:0:
393,193,144004,1,0,0:0:0:0:
393,193,144178,1,0,0:0:0:0:
393,193,144266,1,8,0:0:0:0:
393,193,144440,1,0,0:0:0:0:
393,193,144527,1,8,0:0:0:0:
393,193,144614,1,0,0:0:0:0:
393,193,144702,1,0,0:0:0:0:
393,193,144789,1,8,0:0:0:0:
394,174,144847,1,8,0:0:0:0:
394,174,144905,1,8,0:0:0:0:
394,174,144963,1,0,0:0:0:0:
319,256,145138,1,4,0:0:0:0:
269,137,145312,1,8,0:0:0:0:
362,221,145486,1,0,0:0:0:0:
362,221,145574,1,0,0:0:0:0:
362,221,145661,1,8,0:0:0:0:
320,192,145749,1,0,0:0:0:0:
288,128,145836,1,0,0:0:0:0:
253,174,146010,1,8,0:0:0:0:
253,174,146184,1,0,0:0:0:0:
288,192,146272,1,0,0:0:0:0:
253,174,146359,1,8,0:0:0:0:
333,75,146533,1,0,0:0:0:0:
263,161,146707,1,8,0:0:0:0:
263,161,146882,1,0,0:0:0:0:
263,161,146969,1,0,0:0:0:0:
263,161,147056,1,8,0:0:0:0:
263,161,147143,1,8,0:0:0:0:
320,128,147231,1,0,0:0:0:0:
384,109,147318,1,8,0:0:0:0:
384,109,147405,1,8,0:0:0:0:
267,109,147579,1,0,0:0:0:0:
383,128,147754,1,8,0:0:0:0:
363,156,147841,1,8,0:0:0:0:
269,110,147928,1,0,0:0:0:0:
377,127,148103,1,8,0:0:0:0:
261,109,148277,1,0,0:0:0:0:
304,115,148364,1,0,0:0:0:0:
383,128,148452,1,8,0:0:0:0:
383,128,148539,1,0,0:0:0:0:
383,128,148627,1,8,0:0:0:0:
383,128,148714,1,8,0:0:0:0:
352,128,148801,1,0,0:0:0:0:
383,128,148976,1,8,0:0:0:0:
320,160,149063,1,0,0:0:0:0:
383,128,149149,1,8,0:0:0:0:
383,128,149237,1,8,0:0:0:0:
383,128,149324,1,0,0:0:0:0:
256,192,150022,1,2,0:0:0:0:
256,192,150720,1,0,0:0:0:0:
256,192,151243,1,0,0:0:0:0:
256,192,151418,1,2,0:0:0:0:
256,192,152115,1,0,0:0:0:0:
256,192,152813,1,2,0:0:0:0:
256,192,153162,1,2,0:0:0:0:
256,192,153336,1,2,0:0:0:0:
256,192,153511,1,0,0:0:0:0:
256,192,153772,1,0,0:0:0:0:
256,192,154034,1,0,0:0:0:0:
256,192,154208,1,2,0:0:0:0:
256,192,154906,1,0,0:0:0:0:
256,192,155604,1,2,0:0:0:0:
256,192,155952,1,2,0:0:0:0:
256,192,156301,1,0,0:0:0:0:
256,192,156824,1,0,0:0:0:0:
256,192,156999,1,2,0:0:0:0:
256,192,157522,1,2,0:0:0:0:
256,192,157697,1,0,0:0:0:0:
256,192,158394,1,2,0:0:0:0:
256,192,158743,1,2,0:0:0:0:
256,192,158918,1,2,0:0:0:0:
256,192,159092,1,0,0:0:0:0:
256,192,159354,1,0,0:0:0:0:
256,192,159615,1,0,0:0:0:0:
256,192,159790,1,2,0:0:0:0:
256,192,160138,1,2,0:0:0:0:
256,192,160487,1,0,0:0:0:0:
256,192,161185,1,2,0:0:0:0:
256,192,161883,1,0,0:0:0:0:
256,192,162929,1,2,0:0:0:0:
256,192,163104,1,2,0:0:0:0:
360,213,163278,5,4,0:0:0:0:
320,192,163627,1,0,0:0:0:0:
384,224,163976,1,0,0:0:0:0:
128,256,164324,1,0,0:0:0:0:
384,224,164673,1,0,0:0:0:0:
320,192,164761,1,8,0:0:0:0:
416,256,164935,1,8,0:0:0:0:
352,224,165022,1,0,0:0:0:0:
416,224,165284,1,8,0:0:0:0:
416,224,165371,1,0,0:0:0:0:
384,96,165545,1,8,0:0:0:0:
448,224,165720,1,0,0:0:0:0:
416,192,165807,1,0,0:0:0:0:
416,192,165894,1,8,0:0:0:0:
416,192,166069,1,0,0:0:0:0:
256,288,166330,1,8,0:0:0:0:
288,256,166418,1,0,0:0:0:0:
352,224,166766,1,0,0:0:0:0:
128,192,167115,1,0,0:0:0:0:
352,224,167464,1,0,0:0:0:0:
480,256,167638,1,8,0:0:0:0:
360,213,167813,1,0,0:0:0:0:
448,256,167987,1,8,0:0:0:0:
320,224,168162,1,0,0:0:0:0:
512,256,168423,1,8,0:0:0:0:
416,256,168511,1,0,0:0:0:0:
352,160,168685,1,8,0:0:0:0:
352,160,168772,1,8,0:0:0:0:
352,160,168859,1,0,0:0:0:0:
192,320,169208,1,8,0:0:0:0:
384,128,169557,1,0,0:0:0:0:
224,288,169906,1,8,0:0:0:0:
360,213,170255,1,0,0:0:0:0:
320,192,170342,1,8,0:0:0:0:
192,160,170516,1,0,0:0:0:0:
320,192,170604,1,8,0:0:0:0:
256,192,170691,1,8,0:0:0:0:
416,224,170865,1,8,0:0:0:0:
416,224,170952,1,0,0:0:0:0:
320,320,171127,1,0,0:0:0:0:
416,224,171301,1,8,0:0:0:0:
320,320,171476,1,8,0:0:0:0:
320,256,171563,1,8,0:0:0:0:
352,224,171650,1,0,0:0:0:0:
416,64,171912,1,0,0:0:0:0:
192,64,171999,1,8,0:0:0:0:
352,224,172348,1,0,0:0:0:0:
192,32,172697,1,8,0:0:0:0:
352,224,173045,1,0,0:0:0:0:
256,128,173220,1,0,0:0:0:0:
352,192,173394,1,8,0:0:0:0:
256,192,173569,1,8,0:0:0:0:
386,203,173743,1,0,0:0:0:0:
352,192,174005,1,0,0:0:0:0:
352,192,174092,1,8,0:0:0:0:
352,192,174266,1,8,0:0:0:0:
288,160,174354,1,8,0:0:0:0:
352,192,174441,1,0,0:0:0:0:
448,192,174615,1,8,0:0:0:0:
352,160,174790,1,0,0:0:0:0:
384,192,174877,1,0,0:0:0:0:
416,224,174964,1,8,0:0:0:0:
416,224,175138,1,0,0:0:0:0:
384,128,175313,1,8,0:0:0:0:
416,192,175400,1,8,0:0:0:0:
416,192,175487,1,0,0:0:0:0:
416,192,175662,1,8,0:0:0:0:
320,128,175836,1,0,0:0:0:0:
224,160,175923,1,8,0:0:0:0:
320,128,176098,1,8,0:0:0:0:
256,160,176185,1,0,0:0:0:0:
320,128,176359,1,8,0:0:0:0:
288,96,176447,1,8,0:0:0:0:
320,128,176534,1,0,0:0:0:0:
384,96,176708,1,0,0:0:0:0:
320,128,176883,1,8,0:0:0:0:
320,128,177057,1,8,0:0:0:0:
320,128,177231,1,0,0:0:0:0:
320,128,177493,1,8,0:0:0:0:
288,160,177580,1,0,0:0:0:0:
384,160,177755,1,8,0:0:0:0:
384,160,177929,1,0,0:0:0:0:
384,192,178016,1,0,0:0:0:0:
352,256,178104,1,8,0:0:0:0:
352,256,178278,1,0,0:0:0:0:
448,288,178452,1,8,0:0:0:0:
448,288,178627,1,0,0:0:0:0:
448,288,178801,1,8,0:0:0:0:
416,256,178888,1,8,0:0:0:0:
448,288,178976,1,0,0:0:0:0:
448,288,179150,1,8,0:0:0:0:
448,288,179324,1,0,0:0:0:0:
448,288,179586,1,8,0:0:0:0:
448,288,179673,1,0,0:0:0:0:
386,203,179761,1,0,0:0:0:0:
352,160,179848,1,8,0:0:0:0:
256,128,180022,1,0,0:0:0:0:
288,256,180197,1,8,0:0:0:0:
288,128,180371,1,0,0:0:0:0:
320,160,180458,1,0,0:0:0:0:
352,192,180545,1,8,0:0:0:0:
320,64,180720,1,0,0:0:0:0:
352,192,180894,1,8,0:0:0:0:
352,128,180981,1,8,0:0:0:0:
320,64,181069,1,0,0:0:0:0:
352,192,181243,1,8,0:0:0:0:
320,64,181418,1,0,0:0:0:0:
352,128,181505,1,8,0:0:0:0:
288,32,181679,1,8,0:0:0:0:
320,96,181766,1,0,0:0:0:0:
320,96,181854,1,8,0:0:0:0:
320,96,182028,1,8,0:0:0:0:
320,96,182115,1,0,0:0:0:0:
320,96,182290,1,8,0:0:0:0:
320,96,182464,1,0,0:0:0:0:
320,96,182638,1,8,0:0:0:0:
386,203,182726,1,8,0:0:0:0:
320,192,182813,1,0,0:0:0:0:
192,128,182987,1,8,0:0:0:0:
320,192,183162,1,0,0:0:0:0:
320,192,183336,1,8,0:0:0:0:
320,128,183423,1,8,0:0:0:0:
256,128,183511,1,0,0:0:0:0:
352,192,183598,1,8,0:0:0:0:
320,128,183685,1,0,0:0:0:0:
288,160,183859,1,8,0:0:0:0:
384,96,184034,1,0,0:0:0:0:
352,128,184121,1,0,0:0:0:0:
288,160,184208,1,0,0:0:0:0:
256,160,185255,1,8,0:0:0:0:
256,160,185342,1,8,0:0:0:0:
256,160,185429,1,8,0:0:0:0:
256,160,185516,1,8,0:0:0:0:
256,160,185604,1,0,0:0:0:0:
352,128,185778,1,0,0:0:0:0:
256,192,185952,1,8,0:0:0:0:
352,192,186127,1,8,0:0:0:0:
352,192,186214,1,8,0:0:0:0:
352,192,186301,1,0,0:0:0:0:
288,288,186476,1,8,0:0:0:0:
352,192,186650,1,0,0:0:0:0:
352,192,186737,1,0,0:0:0:0:
352,192,186824,1,8,0:0:0:0:
352,192,186912,1,8,0:0:0:0:
352,192,186999,1,0,0:0:0:0:
256,160,187173,1,8,0:0:0:0:
384,160,187348,1,0,0:0:0:0:
320,224,187522,1,8,0:0:0:0:
352,192,187609,1,8,0:0:0:0:
352,192,187697,1,0,0:0:0:0:
352,192,187784,1,8,0:0:0:0:
352,192,187958,1,8,0:0:0:0:
352,192,188045,1,0,0:0:0:0:
352,192,188220,1,8,0:0:0:0:
320,192,188394,1,0,0:0:0:0:
256,160,188481,1,0,0:0:0:0:
416,256,188569,1,8,0:0:0:0:
448,384,188743,1,0,0:0:0:0:
416,256,188918,1,0,0:0:0:0:
384,256,189005,1,8,0:0:0:0:
352,224,189092,1,0,0:0:0:0:
320,192,189179,1,0,0:0:0:0:
352,224,189266,1,8,0:0:0:0:
448,224,189441,1,0,0:0:0:0:
416,224,189615,1,8,0:0:0:0:
416,224,189790,1,0,0:0:0:0:
416,224,189877,1,8,0:0:0:0:
384,192,190051,1,8,0:0:0:0:
480,96,190138,1,0,0:0:0:0:
384,192,190313,1,8,0:0:0:0:
352,224,190400,1,8,0:0:0:0:
386,203,190487,1,0,0:0:0:0:
352,224,190574,1,8,0:0:0:0:
352,224,190662,1,0,0:0:0:0:
352,224,190749,1,0,0:0:0:0:
352,224,190836,1,8,0:0:0:0:
288,128,191011,1,8,0:0:0:0:
256,160,191185,1,0,0:0:0:0:
352,128,191359,1,0,0:0:0:0:
256,192,191533,1,8,0:0:0:0:
352,192,191708,1,8,0:0:0:0:
352,192,191795,1,8,0:0:0:0:
352,192,191882,1,0,0:0:0:0:
288,288,192057,1,8,0:0:0:0:
352,192,192231,1,0,0:0:0:0:
352,192,192318,1,0,0:0:0:0:
352,192,192405,1,8,0:0:0:0:
352,192,192580,1,0,0:0:0:0:
256,160,192754,1,0,0:0:0:0:
224,192,192842,1,8,0:0:0:0:
384,160,192929,1,0,0:0:0:0:
320,160,193016,1,0,0:0:0:0:
320,224,193103,1,8,0:0:0:0:
352,192,193190,1,8,0:0:0:0:
352,192,193278,1,0,0:0:0:0:
352,192,193365,1,8,0:0:0:0:
352,192,193539,1,8,0:0:0:0:
352,192,193626,1,0,0:0:0:0:
352,192,193801,1,8,0:0:0:0:
320,192,193975,1,0,0:0:0:0:
256,160,194062,1,0,0:0:0:0:
416,224,194150,1,8,0:0:0:0:
448,384,194324,1,0,0:0:0:0:
416,256,194499,1,0,0:0:0:0:
384,256,194586,1,8,0:0:0:0:
352,224,194673,1,0,0:0:0:0:
320,192,194760,1,8,0:0:0:0:
352,224,194847,1,8,0:0:0:0:
352,192,194935,1,0,0:0:0:0:
448,224,195022,1,8,0:0:0:0:
416,224,195196,1,8,0:0:0:0:
352,256,195284,1,8,0:0:0:0:
416,224,195371,1,0,0:0:0:0:
384,192,195545,1,8,0:0:0:0:
352,96,195894,1,8,0:0:0:0:
352,224,196069,1,0,0:0:0:0:
352,96,196243,1,8,0:0:0:0:
352,96,196592,1,8,0:0:0:0:
256,192,196766,1,0,0:0:0:0:
256,192,196941,1,0,0:0:0:0:
256,192,197115,1,2,0:0:0:0:
256,192,197290,1,0,0:0:0:0:
256,192,197377,1,0,0:0:0:0:
256,192,197464,1,2,0:0:0:0:
256,192,197638,1,0,0:0:0:0:
256,192,197813,1,2,0:0:0:0:
256,192,197987,1,2,0:0:0:0:
256,192,198074,1,2,0:0:0:0:
256,192,198162,1,0,0:0:0:0:
256,192,198336,1,2,0:0:0:0:
256,192,198423,1,0,0:0:0:0:
256,192,198511,1,2,0:0:0:0:
256,192,198685,1,0,0:0:0:0:
256,192,198859,1,2,0:0:0:0:
256,192,199034,1,0,0:0:0:0:
256,192,199121,1,2,0:0:0:0:
256,192,199208,1,0,0:0:0:0:
256,192,199295,1,0,0:0:0:0:
256,192,199383,1,2,0:0:0:0:
256,192,199557,1,0,0:0:0:0:
256,192,199731,1,2,0:0:0:0:
256,192,199819,1,0,0:0:0:0:
256,192,199906,1,2,0:0:0:0:
256,192,199993,1,2,0:0:0:0:
256,192,200080,1,0,0:0:0:0:
256,192,200168,1,0,0:0:0:0:
256,192,200255,1,2,0:0:0:0:
256,192,200429,1,0,0:0:0:0:
256,192,200516,1,2,0:0:0:0:
256,192,200604,1,0,0:0:0:0:
256,192,200778,1,2,0:0:0:0:
256,192,200865,1,2,0:0:0:0:
256,192,200952,1,0,0:0:0:0:
256,192,201040,1,2,0:0:0:0:
256,192,201127,1,0,0:0:0:0:
256,192,201214,5,0,0:0:0:0:
256,192,201301,1,2,0:0:0:0:
256,192,201476,1,0,0:0:0:0:
256,192,201650,1,2,0:0:0:0:
256,192,201737,1,0,0:0:0:0:
256,192,201824,1,0,0:0:0:0:
256,192,201912,1,2,0:0:0:0:
256,192,201999,1,0,0:0:0:0:
256,192,202173,1,2,0:0:0:0:
256,192,202261,1,2,0:0:0:0:
256,192,202348,5,0,0:0:0:0:
256,192,202522,1,0,0:0:0:0:
256,192,202697,1,2,0:0:0:0:
256,192,202784,1,0,0:0:0:0:
256,192,202871,1,2,0:0:0:0:
256,192,202958,1,2,0:0:0:0:
256,192,203045,1,0,0:0:0:0:
256,192,203220,1,2,0:0:0:0:
256,192,203307,1,0,0:0:0:0:
256,192,203394,1,2,0:0:0:0:
256,192,203569,1,0,0:0:0:0:
256,192,203656,1,0,0:0:0:0:
256,192,203743,1,2,0:0:0:0:
256,192,203830,1,2,0:0:0:0:
256,192,203918,1,0,0:0:0:0:
256,192,204092,1,2,0:0:0:0:
256,192,204266,1,0,0:0:0:0:
256,192,204354,1,0,0:0:0:0:
256,192,204441,1,2,0:0:0:0:
256,192,204528,1,0,0:0:0:0:
256,192,204615,1,2,0:0:0:0:
256,192,204702,1,2,0:0:0:0:
256,192,204790,1,2,0:0:0:0:
256,192,204964,1,0,0:0:0:0:
256,192,205051,1,0,0:0:0:0:
256,192,205138,5,2,0:0:0:0:
256,192,205226,1,0,0:0:0:0:
256,192,205313,1,2,0:0:0:0:
256,192,205400,1,0,0:0:0:0:
256,192,205487,1,2,0:0:0:0:
256,192,205574,1,2,0:0:0:0:
256,192,205662,1,0,0:0:0:0:
256,192,205749,1,2,0:0:0:0:
256,192,205836,1,0,0:0:0:0:
256,192,205923,1,0,0:0:0:0:
256,192,206011,1,2,0:0:0:0:
256,192,206098,1,0,0:0:0:0:
256,192,206185,1,2,0:0:0:0:
256,192,206272,1,2,0:0:0:0:
256,192,206359,1,2,0:0:0:0:
256,192,206447,1,2,0:0:0:0:
256,192,206534,5,0,0:0:0:0:
256,192,206708,1,0,0:0:0:0:
256,192,206795,1,2,0:0:0:0:
256,192,206970,1,2,0:0:0:0:
256,192,207057,1,0,0:0:0:0:
256,192,207231,1,2,0:0:0:0:
256,192,207319,1,2,0:0:0:0:
256,192,207406,1,0,0:0:0:0:
256,192,207493,1,0,0:0:0:0:
256,192,207580,1,2,0:0:0:0:
256,192,207929,1,4,0:0:0:0:
256,192,209324,1,2,0:0:0:0:
256,192,210371,1,2,0:0:0:0:
256,192,210458,1,2,0:0:0:0:
256,192,210545,1,2,0:0:0:0:
256,192,210633,1,2,0:0:0:0:
256,192,210720,1,0,0:0:0:0:
256,192,210982,1,0,0:0:0:0:
256,192,211069,1,2,0:0:0:0:
256,192,211244,1,0,0:0:0:0:
224,192,211331,1,2,0:0:0:0:
256,192,211418,1,2,0:0:0:0:
256,192,211505,1,0,0:0:0:0:
256,192,211680,1,0,0:0:0:0:
256,192,211767,1,2,0:0:0:0:
256,192,211941,1,2,0:0:0:0:
256,192,212116,1,0,0:0:0:0:
256,192,212290,1,2,0:0:0:0:
256,192,212377,1,0,0:0:0:0:
256,192,212465,1,2,0:0:0:0:
256,192,212639,1,0,0:0:0:0:
256,192,212726,1,0,0:0:0:0:
256,192,212813,1,2,0:0:0:0:
256,192,212900,1,2,0:0:0:0:
256,192,212987,1,0,0:0:0:0:
256,192,213162,1,2,0:0:0:0:
256,192,213249,1,0,0:0:0:0:
256,192,213336,1,2,0:0:0:0:
256,192,213423,1,2,0:0:0:0:
256,192,213511,1,0,0:0:0:0:
256,192,213773,1,0,0:0:0:0:
256,192,213860,1,2,0:0:0:0:
256,192,214034,1,0,0:0:0:0:
256,192,214122,1,2,0:0:0:0:
256,192,214209,1,0,0:0:0:0:
256,192,214295,1,0,0:0:0:0:
256,192,214383,1,2,0:0:0:0:
256,192,214470,1,0,0:0:0:0:
256,192,214558,1,2,0:0:0:0:
256,192,214731,1,2,0:0:0:0:
256,192,214906,1,0,0:0:0:0:
256,192,215080,1,2,0:0:0:0:
256,192,215168,1,0,0:0:0:0:
256,192,215255,1,2,0:0:0:0:
256,192,215430,1,0,0:0:0:0:
256,192,215604,1,2,0:0:0:0:
256,192,215691,1,2,0:0:0:0:
256,192,215779,1,0,0:0:0:0:
256,192,215953,1,2,0:0:0:0:
256,192,216040,1,0,0:0:0:0:
256,192,216127,1,0,0:0:0:0:
256,192,216215,1,2,0:0:0:0:
256,192,216302,1,0,0:0:0:0:
256,192,216563,1,0,0:0:0:0:
256,192,216650,1,2,0:0:0:0:
256,192,216825,1,0,0:0:0:0:
256,192,216912,1,0,0:0:0:0:
256,192,216999,1,2,0:0:0:0:
256,192,217087,1,0,0:0:0:0:
256,192,217261,1,0,0:0:0:0:
256,192,217348,1,2,0:0:0:0:
256,192,217523,1,2,0:0:0:0:
256,192,217609,1,2,0:0:0:0:
256,192,217697,1,0,0:0:0:0:
256,192,217872,1,2,0:0:0:0:
256,192,217959,1,0,0:0:0:0:
256,192,218133,1,2,0:0:0:0:
256,192,218220,1,0,0:0:0:0:
256,192,218308,1,0,0:0:0:0:
256,192,218395,1,2,0:0:0:0:
256,192,218482,1,0,0:0:0:0:
256,192,218656,1,2,0:0:0:0:
256,192,218744,1,0,0:0:0:0:
256,192,218802,1,0,0:0:0:0:
256,192,218860,1,0,0:0:0:0:
256,192,218918,1,2,0:0:0:0:
256,192,219093,1,4,0:0:0:0:
256,192,219354,1,0,0:0:0:0:
256,192,219441,1,2,0:0:0:0:
256,192,219616,1,0,0:0:0:0:
256,192,219703,1,0,0:0:0:0:
256,192,219790,1,2,0:0:0:0:
256,192,219877,1,2,0:0:0:0:
256,192,219965,1,0,0:0:0:0:
256,192,220139,1,2,0:0:0:0:
256,192,220313,1,0,0:0:0:0:
256,192,220401,1,2,0:0:0:0:
256,192,220488,1,0,0:0:0:0:
256,192,220574,1,0,0:0:0:0:
256,192,220662,1,2,0:0:0:0:
256,192,220749,1,0,0:0:0:0:
256,192,220837,1,2,0:0:0:0:
256,192,221011,1,0,0:0:0:0:
256,192,221186,1,2,0:0:0:0:
256,192,221360,1,0,0:0:0:0:
256,192,221447,1,0,0:0:0:0:
256,192,221534,1,2,0:0:0:0:
256,192,221621,1,2,0:0:0:0:
256,192,221709,1,0,0:0:0:0:
256,192,221796,1,2,0:0:0:0:
256,192,221883,1,0,0:0:0:0:
256,192,222145,1,0,0:0:0:0:
256,192,222232,1,2,0:0:0:0:
256,192,222406,1,0,0:0:0:0:
256,192,222493,1,0,0:0:0:0:
256,192,222581,1,2,0:0:0:0:
256,192,222668,1,0,0:0:0:0:
256,192,222755,1,0,0:0:0:0:
256,192,222842,1,0,0:0:0:0:
256,192,222930,1,2,0:0:0:0:
256,192,223104,1,2,0:0:0:0:
256,192,223191,1,2,0:0:0:0:
256,192,223279,1,0,0:0:0:0:
256,192,223453,1,2,0:0:0:0:
256,192,223540,1,0,0:0:0:0:
256,192,223627,1,2,0:0:0:0:
256,192,223802,1,0,0:0:0:0:
256,192,223889,1,0,0:0:0:0:
256,192,223976,1,2,0:0:0:0:
256,192,224063,1,2,0:0:0:0:
256,192,224151,1,0,0:0:0:0:
256,192,224325,1,2,0:0:0:0:
256,192,224499,1,0,0:0:0:0:
256,192,224587,1,2,0:0:0:0:
256,192,224674,1,0,0:0:0:0:
256,192,224936,1,0,0:0:0:0:
256,192,225023,1,2,0:0:0:0:
256,192,225197,1,0,0:0:0:0:
256,192,225372,1,2,0:0:0:0:
256,192,225458,1,2,0:0:0:0:
256,192,225546,1,0,0:0:0:0:
256,192,225633,1,0,0:0:0:0:
256,192,225720,1,2,0:0:0:0:
256,192,225779,1,2,0:0:0:0:
256,192,225837,1,2,0:0:0:0:
256,192,225895,1,0,0:0:0:0:
256,192,225982,1,2,0:0:0:0:
256,192,226069,1,0,0:0:0:0:
256,192,226244,1,2,0:0:0:0:
256,192,226331,1,0,0:0:0:0:
256,192,226505,1,2,0:0:0:0:
256,192,226593,1,0,0:0:0:0:
256,192,226680,1,0,0:0:0:0:
256,192,226767,1,2,0:0:0:0:
256,192,226854,1,0,0:0:0:0:
256,192,227029,1,2,0:0:0:0:
256,192,227116,1,0,0:0:0:0:
256,192,227174,1,0,0:0:0:0:
256,192,227232,1,0,0:0:0:0:
256,192,227290,1,2,0:0:0:0:
256,192,227465,1,4,0:0:0:0:
256,192,227639,1,2,0:0:0:0:
256,192,227813,1,0,0:0:0:0:
256,192,227901,1,0,0:0:0:0:
256,192,227988,1,2,0:0:0:0:
256,192,228075,1,0,0:0:0:0:
256,192,228162,1,2,0:0:0:0:
256,192,228249,1,2,0:0:0:0:
256,192,228337,1,0,0:0:0:0:
256,192,228423,1,0,0:0:0:0:
256,192,228511,1,2,0:0:0:0:
256,192,228686,1,0,0:0:0:0:
256,192,228772,1,0,0:0:0:0:
256,192,228860,1,2,0:0:0:0:
256,192,229034,1,0,0:0:0:0:
256,192,229209,1,2,0:0:0:0:
256,192,229296,1,0,0:0:0:0:
256,192,229383,1,2,0:0:0:0:
256,192,229470,1,2,0:0:0:0:
256,192,229558,1,0,0:0:0:0:
256,192,229645,1,0,0:0:0:0:
256,192,229732,1,2,0:0:0:0:
256,192,229819,1,2,0:0:0:0:
256,192,229906,1,0,0:0:0:0:
256,192,230081,1,2,0:0:0:0:
256,192,230168,1,2,0:0:0:0:
256,192,230255,1,0,0:0:0:0:
256,192,230430,1,2,0:0:0:0:
256,192,230604,1,0,0:0:0:0:
256,192,230691,1,2,0:0:0:0:
256,192,230779,1,0,0:0:0:0:
256,192,230866,1,0,0:0:0:0:
256,192,230953,1,2,0:0:0:0:
256,192,231040,1,2,0:0:0:0:
256,192,231127,1,0,0:0:0:0:
256,192,231214,1,0,0:0:0:0:
256,192,231302,1,2,0:0:0:0:
256,192,231476,1,0,0:0:0:0:
256,192,231650,1,2,0:0:0:0:
256,192,231824,1,0,0:0:0:0:
256,192,232173,1,0,0:0:0:0:
256,192,232348,1,2,0:0:0:0:
256,192,232435,1,2,0:0:0:0:
256,192,232522,1,0,0:0:0:0:
256,192,232609,1,0,0:0:0:0:
256,192,232697,1,2,0:0:0:0:
325,171,233045,5,4,0:0:0:0:
416,352,233307,1,8,0:0:0:0:
384,288,233394,1,0,0:0:0:0:
320,192,233569,1,8,0:0:0:0:
416,288,233743,1,0,0:0:0:0:
352,288,233830,1,0,0:0:0:0:
224,256,234005,1,8,0:0:0:0:
320,288,234092,1,0,0:0:0:0:
320,224,234179,1,0,0:0:0:0:
320,256,234266,1,8,0:0:0:0:
320,192,234441,1,0,0:0:0:0:
320,192,234702,1,8,0:0:0:0:
320,192,234790,1,0,0:0:0:0:
448,224,234964,1,8,0:0:0:0:
320,192,235138,1,0,0:0:0:0:
384,192,235226,1,8,0:0:0:0:
352,288,235400,1,8,0:0:0:0:
352,224,235487,1,0,0:0:0:0:
352,224,235574,1,8,0:0:0:0:
352,224,235662,1,8,0:0:0:0:
416,224,235749,1,0,0:0:0:0:
416,224,235836,1,8,0:0:0:0:
352,224,236098,1,8,0:0:0:0:
352,224,236185,1,0,0:0:0:0:
352,224,236359,1,8,0:0:0:0:
256,128,236534,1,0,0:0:0:0:
256,128,236708,1,0,0:0:0:0:
256,128,236795,1,8,0:0:0:0:
320,160,236883,1,0,0:0:0:0:
352,192,236970,1,0,0:0:0:0:
384,224,237057,1,8,0:0:0:0:
256,192,237231,1,0,0:0:0:0:
224,128,237406,1,8,0:0:0:0:
288,224,237493,1,8,0:0:0:0:
256,160,237580,1,0,0:0:0:0:
384,219,237755,1,8,0:0:0:0:
256,224,237929,1,0,0:0:0:0:
256,224,238016,1,0,0:0:0:0:
256,224,238104,1,8,0:0:0:0:
256,224,238191,1,0,0:0:0:0:
256,224,238278,1,8,0:0:0:0:
256,224,238365,1,8,0:0:0:0:
256,224,238452,1,0,0:0:0:0:
325,171,238627,5,0,0:0:0:0:
416,352,238889,1,8,0:0:0:0:
384,288,238976,1,0,0:0:0:0:
320,192,239151,1,8,0:0:0:0:
416,288,239325,1,0,0:0:0:0:
352,288,239412,1,0,0:0:0:0:
224,256,239587,1,8,0:0:0:0:
320,288,239674,1,0,0:0:0:0:
320,224,239761,1,0,0:0:0:0:
320,256,239848,1,8,0:0:0:0:
320,192,240023,1,0,0:0:0:0:
288,160,240109,1,8,0:0:0:0:
320,192,240284,1,8,0:0:0:0:
320,192,240372,1,0,0:0:0:0:
448,224,240546,1,8,0:0:0:0:
320,192,240720,1,0,0:0:0:0:
384,192,240894,1,8,0:0:0:0:
352,288,240982,1,8,0:0:0:0:
352,224,241069,1,0,0:0:0:0:
352,224,241156,1,8,0:0:0:0:
352,224,241244,1,0,0:0:0:0:
416,224,241331,1,0,0:0:0:0:
416,224,241418,1,8,0:0:0:0:
352,224,241680,1,8,0:0:0:0:
352,224,241767,1,0,0:0:0:0:
352,224,241941,1,8,0:0:0:0:
256,128,242116,1,0,0:0:0:0:
256,128,242290,1,0,0:0:0:0:
256,128,242377,1,8,0:0:0:0:
320,160,242465,1,0,0:0:0:0:
352,192,242552,1,0,0:0:0:0:
384,224,242639,1,8,0:0:0:0:
256,192,242813,1,0,0:0:0:0:
224,128,242987,1,8,0:0:0:0:
288,224,243075,1,8,0:0:0:0:
256,160,243162,1,0,0:0:0:0:
352,192,243250,1,0,0:0:0:0:
384,219,243337,1,8,0:0:0:0:
256,224,243511,1,0,0:0:0:0:
384,219,243598,1,0,0:0:0:0:
256,224,243686,1,8,0:0:0:0:
256,224,243773,1,0,0:0:0:0:
256,224,243860,1,8,0:0:0:0:
256,192,243947,1,8,0:0:0:0:
160,160,244034,1,0,0:0:0:0:
192,128,244121,1,0,0:0:0:0:
256,224,244209,1,8,0:0:0:0:
288,64,244470,1,0,0:0:0:0:
288,128,244557,1,8,0:0:0:0:
320,0,244731,1,0,0:0:0:0:
288,128,244906,1,8,0:0:0:0:
288,128,245080,1,0,0:0:0:0:
288,128,245168,1,0,0:0:0:0:
224,160,245255,1,8,0:0:0:0:
288,128,245342,1,0,0:0:0:0:
320,224,245429,1,0,0:0:0:0:
288,96,245604,1,8,0:0:0:0:
352,192,245778,1,0,0:0:0:0:
320,160,245865,1,0,0:0:0:0:
320,160,245952,1,8,0:0:0:0:
448,128,246127,1,0,0:0:0:0:
320,160,246301,1,8,0:0:0:0:
320,160,246476,1,0,0:0:0:0:
320,160,246563,1,0,0:0:0:0:
256,128,246650,1,8,0:0:0:0:
352,224,246737,1,8,0:0:0:0:
320,160,246824,1,0,0:0:0:0:
256,128,246999,1,8,0:0:0:0:
320,160,247261,1,0,0:0:0:0:
352,224,247348,1,8,0:0:0:0:
352,160,247522,1,0,0:0:0:0:
352,160,247697,1,8,0:0:0:0:
448,160,247871,1,0,0:0:0:0:
416,160,247958,1,0,0:0:0:0:
384,160,248045,1,8,0:0:0:0:
384,160,248133,1,0,0:0:0:0:
384,160,248220,1,0,0:0:0:0:
384,160,248394,1,8,0:0:0:0:
384,160,248569,1,0,0:0:0:0:
384,160,248656,1,0,0:0:0:0:
384,160,248743,1,8,0:0:0:0:
416,160,248918,1,0,0:0:0:0:
416,160,249092,1,8,0:0:0:0:
352,128,249179,1,8,0:0:0:0:
416,160,249266,1,0,0:0:0:0:
384,128,249354,1,0,0:0:0:0:
416,160,249441,1,8,0:0:0:0:
416,160,249615,1,0,0:0:0:0:
384,128,249790,1,8,0:0:0:0:
384,256,249964,1,8,0:0:0:0:
384,256,250051,1,0,0:0:0:0:
384,256,250138,1,8,0:0:0:0:
384,256,250313,1,0,0:0:0:0:
384,256,250487,1,8,0:0:0:0:
384,219,250574,1,0,0:0:0:0:
352,320,250749,1,0,0:0:0:0:
352,256,250836,1,8,0:0:0:0:
288,224,250923,1,0,0:0:0:0:
224,256,251011,1,0,0:0:0:0:
320,256,251185,1,8,0:0:0:0:
320,256,251359,1,0,0:0:0:0:
320,224,251447,1,0,0:0:0:0:
448,320,251534,1,8,0:0:0:0:
384,288,251708,1,0,0:0:0:0:
256,256,251883,1,8,0:0:0:0:
320,256,251970,1,0,0:0:0:0:
448,256,252144,1,0,0:0:0:0:
384,256,252231,1,8,0:0:0:0:
352,192,252319,1,8,0:0:0:0:
448,384,252406,1,0,0:0:0:0:
384,256,252580,1,8,0:0:0:0:
448,224,252668,1,0,0:0:0:0:
448,224,252755,1,8,0:0:0:0:
448,224,252842,1,0,0:0:0:0:
448,224,252929,1,8,0:0:0:0:
448,224,253016,1,8,0:0:0:0:
448,224,253104,1,0,0:0:0:0:
448,224,253191,1,0,0:0:0:0:
448,224,253278,1,8,0:0:0:0:
448,224,253365,1,0,0:0:0:0:
448,224,253452,1,8,0:0:0:0:
448,224,253540,1,0,0:0:0:0:
384,219,253627,1,8,0:0:0:0:
448,224,253714,1,8,0:0:0:0:
448,224,253801,1,0,0:0:0:0:
448,224,253888,1,8,0:0:0:0:
416,224,253976,1,0,0:0:0:0:
384,224,254063,1,0,0:0:0:0:
320,192,254150,1,0,0:0:0:0:
288,160,254237,1,0,0:0:0:0:
256,160,254324,1,8,0:0:0:0:
224,160,254412,1,0,0:0:0:0:
224,160,254499,1,0,0:0:0:0:
224,160,254586,1,0,0:0:0:0:
224,160,254673,1,8,0:0:0:0:
224,160,254761,1,8,0:0:0:0:
224,160,254848,1,0,0:0:0:0:
224,160,254935,1,0,0:0:0:0:
224,160,255022,1,8,0:0:0:0:
224,160,255109,1,8,0:0:0:0:
224,160,255197,1,8,0:0:0:0:
224,160,255284,1,8,0:0:0:0:
352,160,255371,5,0,0:0:0:0:
256,352,255720,1,8,0:0:0:0:
384,128,256069,1,0,0:0:0:0:
320,224,256243,1,8,0:0:0:0:
320,224,256418,1,0,0:0:0:0:
384,128,256592,1,8,0:0:0:0:
352,160,256766,1,0,0:0:0:0:
256,352,257115,1,8,0:0:0:0:
384,128,257464,1,0,0:0:0:0:
320,224,257638,1,8,0:0:0:0:
320,224,257813,1,0,0:0:0:0:
384,128,257987,1,8,0:0:0:0:
320,160,258074,1,8,0:0:0:0:
352,160,258162,1,0,0:0:0:0:
256,352,258511,1,8,0:0:0:0:
384,128,258860,1,0,0:0:0:0:
320,224,259034,1,8,0:0:0:0:
320,224,259209,1,0,0:0:0:0:
384,128,259383,1,8,0:0:0:0:
352,160,259557,1,0,0:0:0:0:
256,352,259906,1,8,0:0:0:0:
320,288,260080,1,8,0:0:0:0:
384,128,260255,1,0,0:0:0:0:
320,224,260429,1,8,0:0:0:0:
320,288,260516,1,8,0:0:0:0:
320,224,260604,1,0,0:0:0:0:
320,160,260691,1,0,0:0:0:0:
384,128,260778,1,8,0:0:0:0:
352,160,260952,5,0,0:0:0:0:
256,352,261301,1,8,0:0:0:0:
384,128,261650,1,0,0:0:0:0:
320,224,261824,1,8,0:0:0:0:
320,224,261999,1,0,0:0:0:0:
384,128,262173,1,8,0:0:0:0:
352,160,262347,1,0,0:0:0:0:
256,352,262696,1,8,0:0:0:0:
384,128,263045,1,0,0:0:0:0:
320,224,263219,1,8,0:0:0:0:
320,224,263394,1,0,0:0:0:0:
384,128,263568,1,8,0:0:0:0:
384,219,263656,1,8,0:0:0:0:
352,160,263743,1,0,0:0:0:0:
256,352,264092,1,8,0:0:0:0:
384,128,264441,1,0,0:0:0:0:
320,224,264615,1,8,0:0:0:0:
320,224,264790,1,0,0:0:0:0:
384,128,264964,1,8,0:0:0:0:
352,160,265138,1,0,0:0:0:0:
384,160,265400,1,0,0:0:0:0:
256,352,265487,1,8,0:0:0:0:
320,288,265661,1,8,0:0:0:0:
384,128,265836,1,0,0:0:0:0:
320,224,266010,1,8,0:0:0:0:
320,288,266097,1,8,0:0:0:0:
320,224,266185,1,0,0:0:0:0:
256,192,266272,1,0,0:0:0:0:
384,128,266359,1,8,0:0:0:0:
352,160,266534,5,4,0:0:0:0:
256,352,266883,1,8,0:0:0:0:
384,128,267232,1,0,0:0:0:0:
320,224,267406,1,8,0:0:0:0:
320,224,267581,1,0,0:0:0:0:
384,128,267755,1,8,0:0:0:0:
352,160,267929,1,0,0:0:0:0:
288,64,268104,1,0,0:0:0:0:
256,352,268278,1,8,0:0:0:0:
384,128,268627,1,0,0:0:0:0:
320,224,268801,1,8,0:0:0:0:
320,224,268976,1,0,0:0:0:0:
384,128,269150,1,8,0:0:0:0:
320,160,269237,1,8,0:0:0:0:
352,160,269325,1,0,0:0:0:0:
352,160,269499,1,0,0:0:0:0:
256,352,269674,1,8,0:0:0:0:
384,128,270023,1,0,0:0:0:0:
320,224,270197,1,8,0:0:0:0:
384,219,270371,1,0,0:0:0:0:
384,128,270546,1,8,0:0:0:0:
352,160,270720,1,0,0:0:0:0:
384,160,270894,1,0,0:0:0:0:
224,224,270982,1,0,0:0:0:0:
256,352,271069,1,8,0:0:0:0:
320,288,271243,1,8,0:0:0:0:
384,128,271418,1,0,0:0:0:0:
320,224,271592,1,8,0:0:0:0:
320,288,271679,1,8,0:0:0:0:
320,224,271767,1,0,0:0:0:0:
384,128,271941,1,8,0:0:0:0:
352,160,272116,5,0,0:0:0:0:
256,352,272465,1,8,0:0:0:0:
384,128,272814,1,0,0:0:0:0:
320,224,272988,1,8,0:0:0:0:
320,224,273163,1,0,0:0:0:0:
384,128,273337,1,8,0:0:0:0:
352,160,273511,1,0,0:0:0:0:
288,64,273686,1,0,0:0:0:0:
256,352,273860,1,8,0:0:0:0:
384,128,274209,1,0,0:0:0:0:
320,224,274383,1,8,0:0:0:0:
320,224,274558,1,0,0:0:0:0:
384,128,274732,1,8,0:0:0:0:
320,160,274819,1,8,0:0:0:0:
352,160,274907,1,0,0:0:0:0:
352,160,275081,1,0,0:0:0:0:
256,352,275256,1,8,0:0:0:0:
384,128,275605,1,0,0:0:0:0:
320,224,275779,1,8,0:0:0:0:
384,219,275953,1,0,0:0:0:0:
320,160,276040,1,0,0:0:0:0:
384,128,276128,1,8,0:0:0:0:
352,128,276214,1,8,0:0:0:0:
352,160,276302,1,0,0:0:0:0:
256,160,276476,1,0,0:0:0:0:
320,288,276650,1,8,0:0:0:0:
224,96,277173,1,8,0:0:0:0:
384,256,277522,1,8,0:0:0:0:
256,192,277697,1,4,0:0:0:0:
256,192,278045,1,2,0:0:0:0:
256,192,278394,1,0,0:0:0:0:
256,192,278569,1,2,0:0:0:0:
256,192,278918,1,2,0:0:0:0:
256,192,279092,1,0,0:0:0:0:
256,192,279441,1,2,0:0:0:0:
256,192,279790,1,0,0:0:0:0:
256,192,279964,1,2,0:0:0:0:
256,192,280138,1,0,0:0:0:0:
256,192,280313,1,2,0:0:0:0:
256,192,280487,1,0,0:0:0:0:
256,192,280836,1,2,0:0:0:0:
256,192,281185,1,0,0:0:0:0:
256,192,281359,1,2,0:0:0:0:
256,192,281708,1,2,0:0:0:0:
256,192,281883,1,0,0:0:0:0:
256,192,282231,1,2,0:0:0:0:
256,192,282493,1,2,0:0:0:0:
256,192,282580,1,0,0:0:0:0:
256,192,282755,1,2,0:0:0:0:
256,192,282929,1,0,0:0:0:0:
256,192,283104,1,2,0:0:0:0:
256,192,283278,1,0,0:0:0:0:
256,192,283627,1,2,0:0:0:0:
256,192,283976,1,0,0:0:0:0:
256,192,284150,1,2,0:0:0:0:
256,192,284499,1,2,0:0:0:0:
256,192,284673,1,0,0:0:0:0:
256,192,285022,1,2,0:0:0:0:
256,192,285371,1,0,0:0:0:0:
256,192,285545,1,2,0:0:0:0:
256,192,285720,1,0,0:0:0:0:
256,192,285894,1,2,0:0:0:0:
256,192,286069,1,0,0:0:0:0:
256,192,286418,1,2,0:0:0:0:
256,192,286766,1,0,0:0:0:0:
256,192,286941,1,2,0:0:0:0:
256,192,287290,1,2,0:0:0:0:
256,192,287464,1,0,0:0:0:0:
256,192,287813,1,2,0:0:0:0:
256,192,288074,1,2,0:0:0:0:
256,192,288162,5,0,0:0:0:0:
256,192,288336,1,2,0:0:0:0:
256,192,288423,1,2,0:0:0:0:
256,192,288511,1,0,0:0:0:0:
256,192,288685,1,2,0:0:0:0:
256,192,288859,1,4,0:0:0:0:
256,192,289208,5,2,0:0:0:0:
256,192,289557,1,2,0:0:0:0:
256,192,289906,1,2,0:0:0:0:
256,192,290080,1,0,0:0:0:0:
256,192,290168,1,0,0:0:0:0:
256,192,290255,1,2,0:0:0:0:
256,192,290604,1,2,0:0:0:0:
256,192,290952,1,2,0:0:0:0:
256,192,291127,1,0,0:0:0:0:
256,192,291301,1,2,0:0:0:0:
256,192,291476,1,0,0:0:0:0:
256,192,291563,1,0,0:0:0:0:
256,192,291650,1,2,0:0:0:0:
256,192,291999,1,2,0:0:0:0:
256,192,292173,1,0,0:0:0:0:
256,192,292348,1,2,0:0:0:0:
256,192,292522,1,0,0:0:0:0:
256,192,292697,1,2,0:0:0:0:
256,192,292871,1,0,0:0:0:0:
256,192,292958,1,0,0:0:0:0:
256,192,293045,1,2,0:0:0:0:
256,192,293220,1,0,0:0:0:0:
256,192,293394,1,2,0:0:0:0:
256,192,293481,1,0,0:0:0:0:
256,192,293656,1,0,0:0:0:0:
256,192,293743,1,2,0:0:0:0:
256,192,293830,1,2,0:0:0:0:
256,192,293918,1,0,0:0:0:0:
256,192,294092,1,2,0:0:0:0:
256,192,294266,1,0,0:0:0:0:
256,192,294354,1,0,0:0:0:0:
256,192,294441,1,2,0:0:0:0:
256,192,294615,1,2,0:0:0:0:
256,192,294702,1,0,0:0:0:0:
256,192,294790,1,2,0:0:0:0:
256,192,294964,1,0,0:0:0:0:
256,192,295051,1,0,0:0:0:0:
256,192,295138,1,2,0:0:0:0:
256,192,295226,1,2,0:0:0:0:
256,192,295313,1,0,0:0:0:0:
256,192,295487,1,2,0:0:0:0:
256,192,295662,1,0,0:0:0:0:
256,192,295749,1,2,0:0:0:0:
256,192,295836,1,0,0:0:0:0:
256,192,296011,1,2,0:0:0:0:
256,192,296098,1,0,0:0:0:0:
256,192,296185,1,2,0:0:0:0:
256,192,296359,1,0,0:0:0:0:
256,192,296447,1,0,0:0:0:0:
256,192,296534,1,2,0:0:0:0:
256,192,296621,1,0,0:0:0:0:
256,192,296708,1,2,0:0:0:0:
256,192,296795,1,2,0:0:0:0:
256,192,296883,1,0,0:0:0:0:
256,192,297057,1,2,0:0:0:0:
256,192,297144,1,2,0:0:0:0:
256,192,297231,1,0,0:0:0:0:
256,192,297319,1,0,0:0:0:0:
256,192,297406,1,2,0:0:0:0:
256,192,297493,5,0,0:0:0:0:
256,192,297580,1,2,0:0:0:0:
256,192,297668,1,2,0:0:0:0:
256,192,297755,1,0,0:0:0:0:
256,192,297842,1,2,0:0:0:0:
256,192,297929,1,0,0:0:0:0:
256,192,298016,1,0,0:0:0:0:
256,192,298104,1,2,0:0:0:0:
256,192,298191,1,0,0:0:0:0:
256,192,298278,1,2,0:0:0:0:
256,192,298365,1,2,0:0:0:0:
256,192,298452,1,2,0:0:0:0:
256,192,298540,1,2,0:0:0:0:
256,192,298627,5,0,0:0:0:0:
256,192,298801,1,2,0:0:0:0:
256,192,298888,1,0,0:0:0:0:
256,192,298976,1,2,0:0:0:0:
256,192,299150,1,0,0:0:0:0:
256,192,299499,1,0,0:0:0:0:
256,192,299586,1,0,0:0:0:0:
256,192,299673,1,2,0:0:0:0:
256,192,300022,1,4,0:0:0:0:
256,192,300197,12,0,301418,0:0:0:0:
