osu file format v14

[General]
AudioFilename: audio.mp3
AudioLeadIn: 0
PreviewTime: 50255
Countdown: 0
SampleSet: Soft
StackLeniency: 0.7
Mode: 0
LetterboxInBreaks: 0
WidescreenStoryboard: 0

[Editor]
Bookmarks: 23743,34731,55487,61418,75371,75415,75458,75502,75545,75589,75633,75676,75720,75763,75807,75851,75894,75938,75981,76025,76069,76112,76156,76199,76243,76287,76330,76374,87929,99092,111650,125604,149324,163278,174441,177929,184208,184295,184383,184470,184557,184644,184731,184819,184906,184993,185080,185168,185604,195371,196069,207929,209324,230604,246476,249790,265836,270022,276301,277697,288859
DistanceSpacing: 0.6
BeatDivisor: 4
GridSize: 32
TimelineZoom: 3.899999

[Metadata]
Title:Aozora no Rhapsody (maji yabakune Remix)
TitleUnicode:青空のラプソディ (maji yabakune Remix)
Artist:fhana
ArtistUnicode:fhána
Creator:Ultima Fox
Version:Rhapsody
Source:小林さんちのメイドラゴン
Tags:Miss Kobayashi's Kobayashi-san Chi no Maid Dragon
BeatmapID:1755642
BeatmapSetID:838602

[Difficulty]
HPDrainRate:5.9
CircleSize:4.2
OverallDifficulty:8.3
ApproachRate:9.3
SliderMultiplier:2.2
SliderTickRate:1

[Events]
//Background and Video events
0,0,"tohru is better.jpg",0,0
//Break Periods
//Storyboard Layer 0 (Background)
//Storyboard Layer 1 (Fail)
//Storyboard Layer 2 (Pass)
//Storyboard Layer 3 (Foreground)
//Storyboard Layer 4 (Overlay)
//Storyboard Sound Samples

[TimingPoints]
1418,348.837209302326,4,2,99,49,1,0
1418,-111.111111111111,4,2,99,49,0,0
12842,-111.111111111111,4,2,99,5,0,0
12929,-111.111111111111,4,2,99,49,0,0
13191,-111.111111111111,4,2,99,5,0,0
13278,-111.111111111111,4,2,99,49,0,0
14237,-111.111111111111,4,2,99,5,0,0
14324,-111.111111111111,4,2,99,49,0,0
14586,-111.111111111111,4,2,99,5,0,0
14673,-111.111111111111,4,2,99,49,0,0
15633,-111.111111111111,4,2,99,5,0,0
15720,-111.111111111111,4,2,99,49,0,0
15981,-111.111111111111,4,2,99,5,0,0
16069,-111.111111111111,4,2,99,49,0,0
17028,-111.111111111111,4,2,99,5,0,0
17115,-111.111111111111,4,2,99,49,0,0
17377,-111.111111111111,4,2,99,5,0,0
17464,-111.111111111111,4,2,99,49,0,0
23743,-100,4,2,99,49,0,0
34906,-133.333333333333,4,2,99,49,0,0
36301,-100,4,2,99,49,0,0
41883,-125,4,2,99,49,0,0
43278,-111.111111111111,4,2,99,49,0,0
44673,-100,4,2,99,49,0,0
46069,-90.9090909090909,4,2,99,49,0,0
48859,-142.857142857143,4,2,99,49,0,0
50255,-90.9090909090908,4,2,99,49,0,1
60022,-71.4285714285714,4,2,99,49,0,1
60284,-83.3333333333333,4,2,99,49,0,1
60545,-100,4,2,99,49,0,1
60807,-125,4,2,99,49,0,1
61243,-90.9090909090908,4,2,99,49,0,0
61418,-90.9090909090908,4,2,99,49,0,1
68394,-76.9230769230769,4,2,99,49,0,1
69790,-90.9090909090909,4,2,99,49,0,1
75371,-90.9090909090908,4,2,99,49,0,0
76418,-111.111111111111,4,2,99,49,0,0
88191,-111.111111111111,4,2,99,5,0,0
88278,-111.111111111111,4,2,99,49,0,0
88540,-111.111111111111,4,2,99,5,0,0
88627,-111.111111111111,4,2,99,49,0,0
89586,-111.111111111111,4,2,99,5,0,0
89673,-111.111111111111,4,2,99,49,0,0
89935,-111.111111111111,4,2,99,5,0,0
90022,-111.111111111111,4,2,99,49,0,0
90981,-111.111111111111,4,2,99,5,0,0
91069,-111.111111111111,4,2,99,49,0,0
91330,-111.111111111111,4,2,99,5,0,0
91418,-111.111111111111,4,2,99,49,0,0
92377,-111.111111111111,4,2,99,5,0,0
92464,-111.111111111111,4,2,99,49,0,0
92726,-111.111111111111,4,2,99,5,0,0
92813,-111.111111111111,4,2,99,49,0,0
99092,-100,4,2,99,49,0,0
110255,-125,4,2,99,49,0,0
111650,-100,4,2,99,49,0,0
117231,-125,4,2,99,49,0,0
118627,-111.111111111111,4,2,99,49,0,0
120022,-100,4,2,99,49,0,0
121418,-90.9090909090909,4,2,99,49,0,0
124208,-142.857142857143,4,2,99,49,0,0
125604,-90.9090909090909,4,2,99,49,0,1
135371,-71.4285714285714,4,2,99,49,0,1
135633,-83.3333333333333,4,2,99,49,0,1
135894,-100,4,2,99,49,0,1
136156,-125,4,2,99,49,0,1
136766,-90.9090909090909,4,2,99,49,0,0
137115,-90.9090909090909,4,2,99,49,0,1
143656,-76.9230769230769,4,2,99,49,0,1
145138,-90.9090909090909,4,2,99,49,0,1
149324,-142.857142857143,4,2,99,36,0,0
163278,-111.111111111111,4,2,99,49,0,0
174441,-100,4,2,99,49,0,0
195371,-166.666666666667,4,2,99,49,0,0
197115,-125,4,2,99,49,0,0
198162,-111.111111111111,4,2,99,49,0,0
199557,-100,4,2,99,49,0,0
200952,-90.9090909090909,4,2,99,49,0,0
206534,-142.857142857143,4,2,99,49,0,0
210720,-90.9090909090909,4,2,99,49,0,1
217697,-71.4285714285714,4,2,99,49,0,1
217958,-83.3333333333333,4,2,99,49,0,1
218220,-100,4,2,99,49,0,1
218481,-125,4,2,99,49,0,1
218918,-90.9090909090909,4,2,99,49,0,0
219092,-90.9090909090909,4,2,99,49,0,1
226069,-76.9230769230769,4,2,99,49,0,1
227464,-90.9090909090909,4,2,99,49,0,1
231650,-125,4,2,99,49,0,0
233045,-90.9090909090909,4,2,99,49,0,1
253976,-90.9090909090909,4,2,99,49,0,0
254673,-111.111111111111,4,2,99,49,0,0
255371,-111.111111111111,4,2,99,35,0,0
276301,-142.857142857143,4,2,99,49,0,0
277697,-125,4,2,99,49,0,0
288859,-111.111111111111,4,2,99,49,0,0
289121,-111.111111111111,4,2,99,5,0,0
289208,-111.111111111111,4,2,99,49,0,0
289470,-111.111111111111,4,2,99,49,0,0
290516,-111.111111111111,4,2,99,5,0,0
290604,-111.111111111111,4,2,99,49,0,0
290865,-111.111111111111,4,2,99,5,0,0
290952,-111.111111111111,4,2,99,49,0,0
291912,-111.111111111111,4,2,99,5,0,0
291999,-111.111111111111,4,2,99,49,0,0
292261,-111.111111111111,4,2,99,5,0,0
292348,-111.111111111111,4,2,99,49,0,0
293307,-111.111111111111,4,2,99,5,0,0
293394,-111.111111111111,4,2,99,49,0,0
293656,-111.111111111111,4,2,99,5,0,0
293743,-111.111111111111,4,2,99,49,0,0
298627,-166.666666666666,4,2,99,49,0,0
300022,-208.333333333333,4,2,99,49,0,0
301766,-166.666666666666,4,2,99,5,0,0

[Colours]
Combo1 : 228,228,228
Combo2 : 191,109,151
Combo3 : 113,165,120
Combo4 : 245,229,161
Combo5 : 234,179,191
Combo6 : 244,195,98
Combo7 : 232,93,93
Combo8 : 168,212,225

[HitObjects]
40,230,1069,5,0,0:0:0:0:
107,131,1243,1,0,0:0:0:0:
205,287,1418,6,0,L|99:296,1,98.9999969787599,4|0,3:2|0:0,0:0:0:0:
198,86,1766,2,0,L|296:94,1,98.9999969787599,0|0,3:0|0:0,0:0:0:0:
441,276,2115,5,0,3:0:0:0:
480,118,2290,1,0,0:0:0:0:
441,276,2464,1,0,3:0:0:0:
480,118,2638,1,0,0:0:0:0:
321,264,2813,6,0,L|347:376,1,98.9999969787599,0|0,3:0|0:0,0:0:0:0:
456,384,3074,1,0,0:0:0:0:
463,372,3162,2,0,L|440:275,1,98.9999969787599,0|0,3:0|0:0,0:0:0:0:
212,187,3511,5,0,3:0:0:0:
394,144,3685,1,0,0:0:0:0:
212,187,3859,2,0,L|260:176,1,49.4999984893799,0|0,3:0|0:0,0:0:0:0:
394,144,4034,2,0,L|346:155,1,49.4999984893799
143,269,4208,6,0,L|250:286,1,98.9999969787599,0|0,3:0|0:0,0:0:0:0:
483,138,4557,2,0,L|504:244,1,98.9999969787599,0|0,3:0|0:0,0:0:0:0:
295,366,4906,5,0,3:0:0:0:
337,209,5080,1,0,0:0:0:0:
295,366,5255,1,0,3:0:0:0:
337,209,5429,1,0,0:0:0:0:
149,341,5604,6,0,L|129:229,1,98.9999969787599,0|0,3:0|0:0,0:0:0:0:
27,205,5865,1,0,0:0:0:0:
23,191,5952,2,0,L|43:79,1,98.9999969787599,0|0,3:0|0:0,0:0:0:0:
317,97,6301,5,0,3:0:0:0:
141,136,6476,1,0,0:0:0:0:
317,97,6650,2,0,L|239:113,1,49.4999984893799,0|0,3:0|0:0,0:0:0:0:
141,136,6824,2,0,L|189:125,1,49.4999984893799
421,59,6999,6,0,P|413:108|409:168,1,98.9999969787599,0|0,3:0|0:0,0:0:0:0:
283,323,7348,2,0,P|267:266|252:223,1,98.9999969787599,0|0,3:0|0:0,0:0:0:0:
508,130,7697,5,0,3:0:0:0:
485,294,7871,1,0,0:0:0:0:
508,130,8045,1,0,3:0:0:0:
485,294,8219,1,0,0:0:0:0:
220,157,8394,6,0,L|336:139,1,98.9999969787599,0|0,3:0|0:0,0:0:0:0:
438,223,8656,1,0,0:0:0:0:
427,233,8743,2,0,L|329:248,1,98.9999969787599,0|0,3:0|0:0,0:0:0:0:
118,314,9092,5,0,3:0:0:0:
297,368,9266,1,0,0:0:0:0:
118,314,9441,1,0,3:0:0:0:
118,314,9528,2,0,L|211:299,1,49.4999984893799
223,223,9702,1,0,0:0:0:0:
210,219,9790,6,0,L|107:203,1,98.9999969787599,0|0,3:0|0:0,0:0:0:0:
322,62,10138,2,0,L|219:78,1,98.9999969787599,0|0,3:0|0:0,0:0:0:0:
386,273,10487,5,0,3:0:0:0:
225,299,10662,1,0,0:0:0:0:
386,273,10836,1,0,3:0:0:0:
225,299,11011,1,0,0:0:0:0:
351,204,11185,5,0,0:0:0:0:
369,197,11272,1,0,0:0:0:0:
388,197,11359,1,0,0:0:0:0:
407,201,11447,1,0,0:0:0:0:
425,208,11534,1,0,0:0:0:0:
418,351,11708,5,0,0:0:0:0:
400,358,11795,1,0,0:0:0:0:
381,358,11882,1,0,0:0:0:0:
362,354,11970,1,0,0:0:0:0:
344,347,12057,1,0,0:0:0:0:
279,228,12231,5,0,0:0:0:0:
461,165,12406,2,0,L|451:217,1,49.4999984893799
223,340,12580,6,0,L|195:182,1,148.49999546814,8|0,3:2|0:0,0:0:0:0:
333,130,12929,2,0,L|358:276,1,148.49999546814,8|0,3:2|0:0,0:0:0:0:
207,352,13278,2,0,L|181:209,1,98.9999969787599,8|0,3:2|0:0,0:0:0:0:
345,118,13627,1,8,3:2:0:0:
66,32,13801,5,8,0:0:0:0:
66,32,13888,1,8,0:0:0:0:
66,32,13976,2,0,P|126:18|206:73,1,148.49999546814,8|0,3:2|0:0,0:0:0:0:
170,177,14324,2,0,P|110:191|30:136,1,148.49999546814,8|0,3:2|0:0,0:0:0:0:
69,11,14673,2,0,P|129:-3|197:42,1,98.9999969787599,8|0,3:2|0:0,0:0:0:0:
165,200,15022,1,8,3:2:0:0:
399,75,15197,5,8,0:0:0:0:
399,75,15284,1,8,0:0:0:0:
399,75,15371,2,0,B|414:161|414:161|419:203|379:220,1,148.49999546814,8|0,3:2|0:0,0:0:0:0:
269,258,15720,2,0,B|254:172|254:172|249:130|289:113,1,148.49999546814,8|0,3:2|0:0,0:0:0:0:
423,62,16069,2,0,B|438:148|438:148|440:160,1,98.9999969787599,8|0,3:2|0:0,0:0:0:0:
248,273,16418,1,8,3:2:0:0:
480,352,16592,5,8,0:0:0:0:
480,352,16679,1,8,0:0:0:0:
480,352,16766,2,0,B|411:382|411:382|328:355,1,148.49999546814,8|0,3:2|0:0,0:0:0:0:
338,225,17115,2,0,B|407:195|407:195|490:222,1,148.49999546814,8|0,3:2|0:0,0:0:0:0:
505,341,17464,2,0,B|436:371|436:371|410:381,1,98.9999969787599,8|0,3:2|0:0,0:0:0:0:
314,237,17813,1,8,3:2:0:0:
160,368,17987,5,0,0:0:0:0:
160,368,18074,1,0,0:0:0:0:
160,368,18162,2,0,L|145:305,1,49.4999984893799,8|0,3:2|0:0,0:0:0:0:
218,226,18336,2,0,L|203:163,1,49.4999984893799,8|0,0:0|0:0,0:0:0:0:
168,351,18511,6,0,L|153:288,1,49.4999984893799,8|0,3:2|0:0,0:0:0:0:
226,209,18685,2,0,L|211:146,1,49.4999984893799,8|0,0:0|0:0,0:0:0:0:
177,333,18859,6,0,L|162:270,1,49.4999984893799,8|0,3:2|0:0,0:0:0:0:
235,191,19034,2,0,L|220:128,1,49.4999984893799,8|0,0:0|0:0,0:0:0:0:
189,315,19208,6,0,L|174:252,1,49.4999984893799,8|0,3:2|0:0,0:0:0:0:
247,173,19383,2,0,L|232:110,1,49.4999984893799,8|0,0:0|0:0,0:0:0:0:
325,297,19557,6,0,L|374:303,1,49.4999984893799,8|0,3:2|0:0,0:0:0:0:
392,190,19731,2,0,L|342:183,1,49.4999984893799,8|0,0:0|0:0,0:0:0:0:
335,311,19906,6,0,L|384:317,1,49.4999984893799,8|0,3:2|0:0,0:0:0:0:
402,204,20080,2,0,L|352:197,1,49.4999984893799,8|0,0:0|0:0,0:0:0:0:
344,325,20255,6,0,L|393:331,1,49.4999984893799,8|0,3:2|0:0,0:0:0:0:
411,218,20429,2,0,L|361:211,1,49.4999984893799,8|0,0:0|0:0,0:0:0:0:
350,341,20604,6,0,L|399:347,1,49.4999984893799,8|0,3:2|0:0,0:0:0:0:
417,234,20778,2,0,L|367:227,1,49.4999984893799,8|0,0:0|0:0,0:0:0:0:
231,362,20952,5,8,3:2:0:0:
258,320,21040,1,8,0:0:0:0:
259,270,21127,1,8,0:0:0:0:
232,228,21214,1,8,0:0:0:0:
187,206,21301,2,8,L|117:219,1,49.4999984893799,8|8,3:2|0:0,0:0:0:0:
36,334,21476,5,8,0:0:0:0:
80,339,21563,1,8,0:0:0:0:
124,344,21650,1,8,3:2:0:0:
124,344,21737,1,8,0:0:0:0:
124,344,21824,2,8,L|133:286,1,49.4999984893799
304,196,21999,1,8,0:0:0:0:
304,196,22086,1,8,0:0:0:0:
304,196,22173,2,8,L|295:138,1,49.4999984893799
124,61,22348,5,0,3:0:0:0:
214,100,22522,1,0,0:0:0:0:
224,76,22609,1,0,0:0:0:0:
221,50,22697,1,0,0:0:0:0:
41,95,22871,1,0,0:0:0:0:
46,120,22958,1,0,0:0:0:0:
52,146,23045,1,0,0:0:0:0:
57,173,23133,1,0,0:0:0:0:
63,198,23220,1,0,0:0:0:0:
199,248,23394,5,0,0:0:0:0:
0,251,23569,2,0,L|11:305,1,49.4999984893799
134,382,23743,6,0,L|268:366,1,110,4|0,3:2|0:0,0:0:0:0:
376,229,24092,2,0,L|388:285,1,55,8|0,3:2|0:0,0:0:0:0:
452,377,24266,1,0,0:0:0:0:
464,366,24354,2,0,L|486:248,1,110
499,188,24615,1,0,0:0:0:0:
306,263,24790,1,8,3:2:0:0:
402,94,24964,5,0,0:0:0:0:
411,125,25051,1,0,0:0:0:0:
420,156,25139,1,0,3:0:0:0:
267,54,25313,1,0,0:0:0:0:
208,194,25487,1,8,3:2:0:0:
203,205,25574,2,0,P|145:203|101:165,1,110
40,130,25836,2,0,P|50:74|52:4,1,110,0|0,3:0|0:0,0:0:0:0:
33,10,26098,1,0,0:0:0:0:
13,0,26185,1,8,3:2:0:0:
180,120,26359,1,0,0:0:0:0:
3,237,26534,6,0,P|65:238|112:284,1,110,0|0,3:0|0:0,0:0:0:0:
243,384,26883,2,0,L|299:372,1,55,8|0,3:2|0:0,0:0:0:0:
391,308,27057,1,0,0:0:0:0:
380,296,27145,2,0,L|262:274,1,110
202,315,27406,1,0,0:0:0:0:
351,211,27580,1,8,3:2:0:0:
505,365,27755,5,0,0:0:0:0:
491,377,27842,1,0,0:0:0:0:
470,375,27929,2,0,P|483:292|495:249,1,110,0|0,3:0|0:0,0:0:0:0:
442,206,28191,2,0,P|435:167|427:144,1,55,0|8,0:0|3:2,0:0:0:0:
495,107,28365,1,0,0:0:0:0:
357,191,28540,1,0,0:0:0:0:
352,201,28627,2,0,L|262:190,2,55,0|0|0,3:2|0:0|0:0,0:0:0:0:
460,23,28976,2,0,L|351:32,1,110,8|0,3:2|0:0,0:0:0:0:
201,162,29324,6,0,P|192:224|212:276,1,110,0|0,3:0|0:0,0:0:0:0:
363,360,29673,2,0,P|394:368|423:358,1,55,8|0,3:2|0:0,0:0:0:0:
469,250,29848,1,0,0:0:0:0:
462,240,29935,2,0,L|345:228,1,110
301,285,30197,1,0,0:0:0:0:
415,153,30371,1,8,3:2:0:0:
222,61,30545,5,0,0:0:0:0:
211,69,30633,1,0,0:0:0:0:
201,77,30720,2,0,L|186:190,1,110,0|0,3:0|0:0,0:0:0:0:
43,314,31069,1,8,3:2:0:0:
52,304,31156,2,0,P|112:298|158:335,1,110
205,383,31418,2,0,L|326:370,1,110,0|0,3:0|0:0,0:0:0:0:
328,360,31679,1,0,0:0:0:0:
339,350,31766,1,8,3:2:0:0:
198,218,31941,1,0,0:0:0:0:
421,99,32115,6,0,P|432:162|438:231,1,110,0|0,3:0|0:0,0:0:0:0:
276,280,32464,2,0,L|284:216,1,55,8|0,3:2|0:0,0:0:0:0:
293,155,32638,1,0,0:0:0:0:
182,313,32813,2,0,L|174:249,1,55,0|0,3:2|0:0,0:0:0:0:
165,188,32987,1,0,0:0:0:0:
296,364,33162,1,8,3:2:0:0:
87,144,33336,5,0,0:0:0:0:
76,152,33423,1,0,0:0:0:0:
63,161,33511,2,0,L|52:276,1,110,0|0,3:0|0:0,0:0:0:0:
91,338,33772,2,0,P|112:348|150:348,1,55,0|8,0:0|3:2,0:0:0:0:
202,294,33947,1,0,0:0:0:0:
333,374,34121,1,0,0:0:0:0:
321,379,34208,2,0,P|335:306|355:261,1,110,0|0,3:0|0:0,0:0:0:0:
446,139,34557,1,8,3:2:0:0:
239,195,34731,5,0,0:0:0:0:
359,32,34906,2,0,P|314:28|265:61,1,82.5000031471254,0|0,3:0|0:0,0:0:0:0:
254,113,35168,2,0,L|147:102,1,82.5000031471254
73,229,35516,1,0,0:0:0:0:
80,238,35604,2,0,L|162:246,1,82.5000031471254,0|0,3:0|0:0,0:0:0:0:
395,333,35952,6,0,L|382:270,1,41.2500015735627,8|0,3:2|3:0,0:0:0:0:
248,236,36127,2,0,L|261:173,1,41.2500015735627,8|0,3:2|3:0,0:0:0:0:
427,156,36301,6,0,L|401:28,1,110,4|0,3:2|0:0,0:0:0:0:
175,86,36650,1,8,3:2:0:0:
177,96,36737,2,0,P|227:121|298:108,1,110
302,20,36999,2,0,P|252:-5|181:8,1,110,0|0,3:0|0:0,0:0:0:0:
118,188,37348,1,8,3:2:0:0:
74,75,37522,1,0,0:0:0:0:
227,258,37697,5,0,3:0:0:0:
27,206,37871,1,0,0:0:0:0:
173,79,38045,1,8,3:2:0:0:
298,307,38220,6,0,P|254:343|199:345,1,110,0|0,0:0|3:0,0:0:0:0:
182,157,38569,1,0,0:0:0:0:
392,207,38743,2,0,L|409:331,1,110,8|0,3:2|0:0,0:0:0:0:
116,384,39092,6,0,L|101:275,1,110,0|0,3:2|0:0,0:0:0:0:
253,109,39441,1,8,3:2:0:0:
253,109,39528,2,0,L|367:130,1,110
383,51,39790,2,0,L|274:31,1,110,0|0,3:0|0:0,0:0:0:0:
128,187,40138,1,8,0:0:0:0:
317,234,40313,1,0,0:0:0:0:
112,93,40487,6,0,P|60:115|32:175,1,110,0|0,3:0|0:0,0:0:0:0:
18,234,40749,1,0,0:0:0:0:
25,243,40836,2,0,L|40:305,1,55,8|0,3:2|0:0,0:0:0:0:
138,384,41011,1,0,0:0:0:0:
161,177,41185,2,0,L|138:294,1,110,0|0,3:0|0:0,0:0:0:0:
344,381,41534,1,8,0:0:0:0:
393,375,41621,1,8,0:0:0:0:
429,341,41708,1,8,0:0:0:0:
435,292,41795,1,8,0:0:0:0:
413,248,41883,5,4,3:2:0:0:
251,288,42057,2,0,L|245:237,1,44
337,155,42231,1,8,3:2:0:0:
345,167,42319,2,0,L|339:210,1,44
285,359,42493,5,0,0:0:0:0:
272,370,42580,2,0,P|223:369|185:343,1,88,0|0,3:0|0:0,0:0:0:0:
111,199,42929,1,8,3:2:0:0:
260,163,43104,1,0,0:0:0:0:
65,384,43278,6,0,L|43:277,1,98.9999969787599,4|0,3:2|0:0,0:0:0:0:
54,271,43540,1,0,0:0:0:0:
63,259,43627,1,8,3:2:0:0:
251,288,43801,1,0,0:0:0:0:
188,110,43976,5,0,3:2:0:0:
142,326,44150,2,0,L|205:332,1,49.4999984893799
276,207,44324,2,0,L|226:211,1,49.4999984893799,8|0,3:2|0:0,0:0:0:0:
312,339,44499,2,0,L|375:345,1,49.4999984893799
429,197,44673,5,4,3:2:0:0:
306,57,44848,1,0,0:0:0:0:
296,65,44935,1,0,0:0:0:0:
286,73,45022,2,0,L|271:140,1,55,8|0,3:2|0:0,0:0:0:0:
351,291,45197,5,0,0:0:0:0:
360,280,45284,1,0,0:0:0:0:
368,268,45371,2,0,L|355:214,1,55,4|0,0:2|0:0,0:0:0:0:
237,0,45545,1,0,0:0:0:0:
439,66,45720,2,0,L|370:55,1,55,8|0,3:2|0:0,0:0:0:0:
212,218,45894,2,0,L|281:229,1,55,0|0,0:2|0:0,0:0:0:0:
146,0,46069,6,0,L|162:84,1,60.5000018463135,4|0,3:2|0:0,0:0:0:0:
69,239,46243,2,0,L|57:179,1,60.5000018463135
174,14,46418,6,0,L|167:99,1,60.5000018463135,12|0,3:2|0:0,0:0:0:0:
40,228,46592,2,0,L|44:167,1,60.5000018463135
201,27,46766,6,0,L|172:107,1,60.5000018463135,4|0,3:2|0:0,0:0:0:0:
20,203,46940,2,0,L|39:145,1,60.5000018463135
218,53,47115,6,0,L|169:123,1,60.5000018463135,12|0,3:2|0:0,0:0:0:0:
0,179,47289,2,0,L|34:128,1,60.5000018463135
308,188,47464,5,0,3:0:0:0:
320,200,47551,1,0,0:0:0:0:
327,222,47638,1,0,0:0:0:0:
313,249,47726,1,0,0:0:0:0:
277,256,47813,1,8,3:2:0:0:
242,231,47900,1,0,0:0:0:0:
227,185,47987,1,0,0:0:0:0:
250,136,48074,1,0,0:0:0:0:
306,113,48162,5,0,3:0:0:0:
367,137,48249,1,0,0:0:0:0:
398,195,48336,1,0,0:0:0:0:
394,267,48423,1,0,0:0:0:0:
339,324,48511,2,0,L|269:332,1,60.5000018463135,8|0,3:2|0:0,0:0:0:0:
181,224,48685,2,0,L|241:230,1,60.5000018463135,0|0,3:2|0:0,0:0:0:0:
105,377,48859,6,0,L|96:276,1,76.9999976501466,0|0,3:0|0:0,0:0:0:0:
83,280,49121,2,0,L|74:179,1,76.9999976501466
67,183,49383,1,0,0:0:0:0:
161,67,49557,1,4,0:3:0:0:
193,46,49644,1,4,0:3:0:0:
231,42,49731,1,8,0:3:0:0:
262,64,49819,1,8,0:3:0:0:
280,97,49906,1,8,3:2:0:0:
280,97,50255,6,0,L|268:248,1,121.000003692627,4|2,3:2|0:0,0:0:0:0:
385,288,50516,1,0,0:0:0:0:
393,276,50604,2,0,L|402:167,1,60.5000018463135,8|0,3:2|0:0,0:0:0:0:
408,123,50778,1,2,0:0:0:0:
159,302,50952,6,0,P|239:301|290:354,1,121.000003692627,0|2,3:0|0:0,0:0:0:0:
381,372,51214,1,0,0:0:0:0:
374,384,51301,2,0,L|449:376,1,60.5000018463135,8|0,3:2|0:0,0:0:0:0:
512,322,51476,1,2,0:0:0:0:
408,146,51650,6,0,L|287:132,1,121.000003692627,0|2,3:0|0:0,0:0:0:0:
221,182,51912,1,0,0:0:0:0:
225,200,51999,2,0,L|235:267,1,60.5000018463135,8|0,3:2|0:0,0:0:0:0:
345,56,52173,1,2,0:0:0:0:
125,156,52348,6,0,L|140:276,1,121.000003692627,0|2,3:0|0:0,0:0:0:0:
303,384,52697,1,8,3:2:0:0:
394,233,52871,2,0,L|317:224,1,60.5000018463135,2|0,0:0|0:0,0:0:0:0:
94,342,53045,6,0,P|154:355|209:315,1,121.000003692627,0|2,3:0|0:0,0:0:0:0:
226,226,53307,1,0,0:0:0:0:
219,241,53394,1,8,3:2:0:0:
383,345,53569,1,2,0:0:0:0:
461,140,53743,6,0,L|306:125,1,121.000003692627,0|2,3:0|0:0,0:0:0:0:
267,34,54005,1,0,0:0:0:0:
253,42,54092,2,0,L|181:51,1,60.5000018463135,8|0,3:2|0:0,0:0:0:0:
115,131,54266,1,2,0:0:0:0:
194,344,54441,6,0,P|267:327|314:289,1,121.000003692627,0|2,3:0|0:0,0:0:0:0:
342,67,54790,2,0,P|319:139|328:198,1,121.000003692627,8|2,3:2|0:0,0:0:0:0:
512,332,55138,2,0,P|460:276|404:254,1,121.000003692627,0|2,3:0|0:0,0:0:0:0:
403,262,55400,1,0,0:0:0:0:
390,273,55487,1,8,3:2:0:0:
487,90,55662,1,2,0:0:0:0:
242,166,55836,6,0,L|223:298,1,121.000003692627,0|2,3:0|0:0,0:0:0:0:
299,358,56098,1,0,0:0:0:0:
294,338,56185,1,8,3:2:0:0:
125,206,56359,1,2,0:0:0:0:
358,77,56534,6,0,L|377:209,1,121.000003692627,0|2,3:0|0:0,0:0:0:0:
301,269,56796,1,0,0:0:0:0:
306,249,56883,1,8,3:2:0:0:
475,117,57057,1,2,0:0:0:0:
283,14,57231,6,0,P|227:15|175:66,1,121.000003692627,0|2,3:0|0:0,0:0:0:0:
105,136,57493,1,0,0:0:0:0:
116,146,57580,2,0,L|126:220,1,60.5000018463135,8|0,3:2|0:0,0:0:0:0:
207,291,57755,1,2,0:0:0:0:
377,113,57929,6,0,L|243:105,1,121.000003692627,0|2,3:0|0:0,0:0:0:0:
123,285,58278,1,8,3:2:0:0:
373,380,58452,2,0,L|380:307,1,60.5000018463135,2|0,0:0|0:0,0:0:0:0:
280,183,58627,6,0,L|294:310,1,121.000003692627,0|2,3:2|0:0,0:0:0:0:
212,380,58888,1,0,0:0:0:0:
200,384,58976,2,0,P|164:378|139:356,1,60.5000018463135,8|0,3:2|0:0,0:0:0:0:
164,198,59150,1,2,0:0:0:0:
376,380,59324,6,0,P|386:283|401:219,1,121.000003692627,0|2,3:0|0:0,0:0:0:0:
499,178,59586,1,0,0:0:0:0:
505,169,59673,2,0,P|497:131|485:101,1,60.5000018463135,8|0,3:2|0:0,0:0:0:0:
342,59,59848,1,2,0:0:0:0:
147,216,60022,6,0,P|196:229|235:226,1,76.9999976501466,0|0,3:0|0:0,0:0:0:0:
285,312,60197,5,8,0:2:0:0:
298,308,60284,2,0,P|325:268|331:217,1,65.9999979858399,0|0,3:0|0:0,0:0:0:0:
446,278,60458,5,8,0:0:0:0:
450,268,60545,2,0,P|442:221|431:197,1,55,0|0,3:0|0:0,0:0:0:0:
511,147,60720,5,8,0:0:0:0:
512,133,60807,2,0,P|487:116|463:109,1,44,0|0,3:0|0:0,0:0:0:0:
339,85,60981,5,8,0:0:0:0:
327,94,61069,2,0,L|322:132,3,22,0|0|0|0,3:0|3:0|3:0|3:0,3:0:0:0:
369,176,61243,1,0,3:0:0:0:
247,27,61418,6,0,P|202:28|142:83,1,121.000003692627,4|2,3:2|0:0,0:0:0:0:
72,159,61679,1,0,0:0:0:0:
83,169,61766,2,0,L|95:234,1,60.5000018463135,8|0,3:2|0:0,0:0:0:0:
170,302,61941,1,2,0:0:0:0:
390,186,62115,6,0,L|267:169,1,121.000003692627,0|2,3:0|0:0,0:0:0:0:
273,282,62377,1,0,0:0:0:0:
284,291,62464,2,0,L|395:306,1,60.5000018463135,8|0,3:2|0:0,0:0:0:0:
492,231,62638,1,2,0:0:0:0:
290,88,62813,6,0,P|237:91|186:157,1,121.000003692627,0|2,3:0|0:0,0:0:0:0:
145,234,63074,1,0,0:0:0:0:
136,243,63162,2,0,P|89:236|61:219,1,60.5000018463135,8|0,3:2|0:0,0:0:0:0:
39,113,63336,1,2,0:0:0:0:
270,169,63511,6,0,L|286:318,1,121.000003692627,0|2,3:0|0:0,0:0:0:0:
113,97,63859,1,8,3:2:0:0:
21,299,64034,2,0,P|53:314|95:314,1,60.5000018463135
335,351,64208,6,0,P|263:367|213:378,1,121.000003692627,0|2,3:0|0:0,0:0:0:0:
175,288,64470,1,0,0:0:0:0:
168,304,64557,1,8,3:2:0:0:
417,379,64731,1,0,0:0:0:0:
256,198,64906,6,0,P|259:124|269:63,1,121.000003692627,0|2,3:0|0:0,0:0:0:0:
403,58,65168,1,0,0:0:0:0:
402,71,65255,2,0,P|383:93|342:95,1,60.5000018463135,8|0,3:2|0:0,0:0:0:0:
210,9,65429,1,2,0:0:0:0:
98,284,65604,6,0,L|219:300,1,121.000003692627,0|2,3:0|0:0,0:0:0:0:
465,157,65952,2,0,L|344:173,1,121.000003692627,8|2,3:2|0:0,0:0:0:0:
92,48,66301,2,0,L|213:64,1,121.000003692627,0|2,3:0|0:0,0:0:0:0:
226,75,66563,1,0,0:0:0:0:
237,84,66650,1,8,3:2:0:0:
419,36,66824,2,0,L|409:107,1,60.5000018463135
377,282,66999,6,0,P|318:294|253:253,1,121.000003692627,0|0,3:0|0:0,0:0:0:0:
195,181,67261,1,0,0:0:0:0:
199,170,67348,2,0,L|281:158,1,60.5000018463135,8|0,3:2|0:0,0:0:0:0:
485,125,67522,1,0,3:0:0:0:
394,373,67697,1,8,3:2:0:0:
181,257,67871,6,0,L|173:317,1,60.5000018463135,0|0,3:0|3:0,0:0:0:0:
83,224,68045,1,8,3:2:0:0:
79,204,68133,2,0,L|73:162,2,30.2500009231568,0|0|0,3:0|3:0|3:0,3:0:0:0:
163,154,68307,5,0,3:0:0:0:
177,147,68394,2,0,P|210:147|249:175,1,71.4999967269899,0|0,3:0|0:0,0:0:0:0:
311,336,68569,5,8,3:2:0:0:
297,327,68656,2,0,P|280:298|285:250,1,71.4999967269899,0|0,3:0|0:0,0:0:0:0:
397,117,68830,5,8,3:2:0:0:
396,132,68917,2,0,P|379:160|335:180,1,71.4999967269899,0|0,3:0|0:0,0:0:0:0:
202,53,69092,5,8,3:2:0:0:
212,44,69179,2,0,L|295:34,1,71.4999967269899,0|0,3:0|0:0,0:0:0:0:
475,100,69354,5,8,3:2:0:0:
487,121,69441,1,0,3:0:0:0:
496,141,69528,2,0,L|490:183,2,35.749998363495,0|0|0,3:0|3:0|3:0,3:0:0:0:
305,339,69790,6,0,L|291:262,1,60.5000018463135,4|0,3:2|0:0,0:0:0:0:
412,220,69964,2,0,L|401:279,1,60.5000018463135,2|0,0:2|0:0,0:0:0:0:
214,317,70138,1,8,3:2:0:0:
204,301,70226,2,0,L|218:224,1,60.5000018463135,0|2,0:2|0:0,0:0:0:0:
381,141,70400,6,0,P|349:149|264:118,1,121.000003692627
246,51,70662,1,2,0:0:0:0:
121,235,70836,1,8,3:2:0:0:
70,104,71011,1,2,0:0:0:0:
302,240,71185,6,0,L|239:253,1,60.5000018463135,0|0,3:0|0:0,0:0:0:0:
101,292,71359,2,0,L|121:230,1,60.5000018463135,2|0,0:0|0:0,0:0:0:0:
331,308,71534,1,8,3:2:0:0:
320,321,71621,2,0,L|257:334,1,60.5000018463135,0|2,0:2|0:0,0:0:0:0:
33,383,71795,6,0,P|18:313|0:259,1,121.000003692627
47,199,72057,1,2,0:0:0:0:
202,310,72231,1,8,3:2:0:0:
254,173,72406,1,0,0:0:0:0:
90,51,72580,6,0,P|85:80|97:115,1,60.5000018463135,0|0,3:0|0:0,0:0:0:0:
229,94,72755,2,0,P|233:64|221:29,1,60.5000018463135,2|0,0:0|0:0,0:0:0:0:
18,48,72929,1,8,3:2:0:0:
13,60,73016,2,0,P|8:89|20:124,1,60.5000018463135,0|2,0:0|0:0,0:0:0:0:
198,217,73191,6,0,P|134:212|82:247,1,121.000003692627
72,319,73452,1,2,0:0:0:0:
302,264,73627,1,8,3:2:0:0:
164,136,73801,1,2,0:0:0:0:
257,358,73976,6,0,P|317:366|370:339,1,121.000003692627,0|2,3:0|0:0,0:0:0:0:
413,48,74324,1,8,3:2:0:0:
252,94,74499,2,0,L|238:233,1,121.000003692627,2|0,0:0|3:0,0:0:0:0:
461,127,74848,2,0,L|449:248,1,121.000003692627,2|8,0:0|3:2,0:0:0:0:
230,89,75197,2,0,L|216:228,1,121.000003692627,2|0,0:0|3:0,0:0:0:0:
217,209,76418,5,0,0:0:0:0:
316,276,76592,1,0,0:0:0:0:
241,105,76766,6,0,L|128:120,1,98.9999969787599,4|0,3:2|0:0,0:0:0:0:
92,337,77115,2,0,L|190:323,1,98.9999969787599,0|0,3:2|0:0,0:0:0:0:
408,231,77464,5,0,3:0:0:0:
249,195,77638,1,0,0:0:0:0:
408,231,77813,1,0,3:0:0:0:
249,195,77987,1,0,0:0:0:0:
400,348,78162,6,0,P|434:346|491:309,1,98.9999969787599,0|0,3:0|0:0,0:0:0:0:
508,204,78423,1,0,0:0:0:0:
504,191,78511,2,0,L|481:90,1,98.9999969787599,0|0,3:0|0:0,0:0:0:0:
253,51,78859,5,0,3:0:0:0:
435,8,79033,1,0,0:0:0:0:
253,51,79207,2,0,L|301:40,1,49.4999984893799,0|0,3:0|0:0,0:0:0:0:
435,8,79382,2,0,L|387:19,1,49.4999984893799
190,140,79557,6,0,L|298:154,1,98.9999969787599,0|0,3:0|0:0,0:0:0:0:
434,345,79906,2,0,L|335:357,1,98.9999969787599,0|0,3:0|0:0,0:0:0:0:
132,225,80255,5,0,3:0:0:0:
168,384,80429,1,0,0:0:0:0:
132,225,80604,1,0,3:0:0:0:
168,384,80778,1,0,0:0:0:0:
373,242,80952,6,0,P|379:197|343:121,1,98.9999969787599,0|0,3:0|0:0,0:0:0:0:
247,158,81214,1,0,0:0:0:0:
235,165,81301,2,0,P|228:210|265:285,1,98.9999969787599,0|0,3:0|0:0,0:0:0:0:
473,384,81650,5,0,3:0:0:0:
512,208,81825,1,0,0:0:0:0:
473,384,81999,2,0,L|489:306,1,49.4999984893799,0|0,3:0|0:0,0:0:0:0:
512,208,82173,2,0,L|501:256,1,49.4999984893799
326,377,82348,6,0,L|308:271,1,98.9999969787599,0|0,3:0|0:0,0:0:0:0:
344,52,82697,2,0,L|249:79,1,98.9999969787599,0|0,3:0|0:0,0:0:0:0:
45,183,83046,5,0,3:0:0:0:
204,219,83220,1,0,0:0:0:0:
45,183,83395,1,0,3:0:0:0:
204,219,83569,1,0,0:0:0:0:
82,15,83743,6,0,L|179:0,1,98.9999969787599,0|0,3:0|0:0,0:0:0:0:
288,62,84005,1,0,0:0:0:0:
279,76,84092,2,0,L|181:91,1,98.9999969787599,0|0,3:0|0:0,0:0:0:0:
39,276,84441,5,0,3:0:0:0:
0,100,84616,1,0,0:0:0:0:
39,276,84790,1,0,3:0:0:0:
39,276,84877,2,0,L|23:198,1,49.4999984893799
97,140,85051,5,0,0:0:0:0:
97,140,85138,2,0,P|147:134|205:174,1,98.9999969787599,0|0,3:0|0:0,0:0:0:0:
418,110,85487,2,0,P|378:138|361:184,1,98.9999969787599,0|0,3:0|0:0,0:0:0:0:
301,384,85836,5,0,3:0:0:0:
460,348,86010,1,0,0:0:0:0:
301,384,86185,1,0,3:0:0:0:
460,348,86359,1,0,0:0:0:0:
239,252,86534,5,0,3:0:0:0:
235,271,86621,1,0,0:0:0:0:
232,290,86708,1,0,0:0:0:0:
229,309,86795,1,0,0:0:0:0:
226,328,86883,1,0,0:0:0:0:
366,293,87057,5,0,0:0:0:0:
363,274,87145,1,0,0:0:0:0:
360,255,87232,1,0,0:0:0:0:
357,236,87319,1,0,0:0:0:0:
353,217,87406,1,0,0:0:0:0:
142,194,87580,5,0,0:0:0:0:
288,96,87755,2,0,L|300:154,1,49.4999984893799
195,267,87929,6,0,P|135:281|55:226,1,148.49999546814,8|0,3:2|0:0,0:0:0:0:
91,122,88278,2,0,P|151:108|229:162,1,148.49999546814,8|0,3:2|0:0,0:0:0:0:
192,288,88626,2,0,P|132:302|64:257,1,98.9999969787599,8|0,3:2|0:0,0:0:0:0:
96,99,88975,1,8,3:2:0:0:
332,173,89150,5,8,0:0:0:0:
332,173,89237,1,8,0:0:0:0:
332,173,89324,2,0,L|318:332,1,148.49999546814,8|0,3:2|0:0,0:0:0:0:
469,341,89673,2,0,L|482:193,1,148.49999546814,8|0,3:2|0:0,0:0:0:0:
314,162,90022,2,0,L|305:263,1,98.9999969787599,8|0,3:2|0:0,0:0:0:0:
486,356,90371,1,8,3:2:0:0:
337,88,90545,5,8,0:0:0:0:
337,88,90633,1,8,0:0:0:0:
337,88,90720,2,0,B|298:77|261:87|261:114|220:129|175:113,1,148.49999546814,8|0,3:2|0:0,0:0:0:0:
64,40,91069,2,0,B|87:50|128:35|128:8|165:-1|204:9,1,148.49999546814,8|0,3:2|0:0,0:0:0:0:
341,111,91418,2,0,B|302:100|265:110|231:154,1,98.9999969787599,8|0,3:2|0:0,0:0:0:0:
56,20,91766,1,8,3:2:0:0:
201,206,91941,5,8,0:0:0:0:
201,206,92028,1,8,0:0:0:0:
201,206,92115,2,0,B|224:296|224:296|197:351,1,148.49999546814,8|0,3:2|0:0,0:0:0:0:
50,366,92464,2,0,B|27:276|27:276|51:226,1,148.49999546814,8|0,3:2|0:0,0:0:0:0:
214,192,92813,2,0,B|239:288|239:288,1,98.9999969787599,8|0,3:2|0:0,0:0:0:0:
32,378,93162,1,8,3:2:0:0:
198,110,93336,5,8,0:0:0:0:
198,110,93423,1,8,0:0:0:0:
198,110,93511,2,0,L|247:103,1,49.4999984893799,8|0,3:2|0:0,0:0:0:0:
341,195,93685,2,0,L|281:203,1,49.4999984893799,8|0,0:2|0:0,0:0:0:0:
214,123,93859,6,0,L|263:116,1,49.4999984893799,8|0,3:2|0:0,0:0:0:0:
357,208,94033,2,0,L|297:216,1,49.4999984893799,8|0,0:2|0:0,0:0:0:0:
229,138,94208,6,0,L|278:131,1,49.4999984893799,8|0,3:2|0:0,0:0:0:0:
372,223,94382,2,0,L|312:231,1,49.4999984893799,8|0,0:2|0:0,0:0:0:0:
245,151,94556,6,0,L|294:144,1,49.4999984893799,8|0,3:2|0:0,0:0:0:0:
388,236,94731,2,0,L|328:244,1,49.4999984893799,8|0,0:2|0:0,0:0:0:0:
156,190,94906,6,0,L|146:244,1,49.4999984893799,8|0,3:2|0:0,0:0:0:0:
233,302,95080,2,0,L|242:350,1,49.4999984893799,8|0,0:0|0:0,0:0:0:0:
137,198,95255,6,0,L|127:252,1,49.4999984893799,8|0,3:2|0:0,0:0:0:0:
214,310,95429,2,0,L|223:358,1,49.4999984893799,8|0,0:0|0:0,0:0:0:0:
115,205,95604,6,0,L|105:259,1,49.4999984893799,8|0,3:2|0:0,0:0:0:0:
192,317,95778,2,0,L|201:365,1,49.4999984893799,8|0,0:0|0:0,0:0:0:0:
96,213,95953,6,0,L|86:267,1,49.4999984893799,8|0,3:2|0:0,0:0:0:0:
173,325,96127,2,0,L|182:373,1,49.4999984893799,8|0,0:0|0:0,0:0:0:0:
17,227,96301,5,8,3:2:0:0:
22,177,96388,1,8,0:0:0:0:
55,140,96476,1,8,0:0:0:0:
103,132,96563,1,8,0:0:0:0:
150,146,96650,2,0,L|172:209,1,49.4999984893799,8|8,3:2|0:0,0:0:0:0:
329,314,96824,5,8,0:0:0:0:
338,265,96912,1,8,0:0:0:0:
349,216,96999,1,8,3:2:0:0:
349,216,97086,1,8,0:0:0:0:
349,216,97173,2,0,L|281:201,1,49.4999984893799,8|8,0:0|0:0,0:0:0:0:
146,297,97348,1,8,3:2:0:0:
146,297,97435,1,8,0:0:0:0:
146,297,97522,2,0,L|214:312,1,49.4999984893799,8|8,0:0|0:0,0:0:0:0:
416,353,97697,5,0,3:0:0:0:
483,247,97871,1,0,0:0:0:0:
489,270,97958,1,0,0:0:0:0:
495,293,98045,1,0,0:0:0:0:
318,376,98220,1,0,0:0:0:0:
323,351,98307,1,0,0:0:0:0:
328,327,98394,1,0,0:0:0:0:
334,303,98481,1,0,0:0:0:0:
340,278,98569,5,8,0:3:0:0:
340,278,98656,2,0,P|328:243|306:227,1,49.4999984893799,8|0,0:3|0:0,0:0:0:0:
199,297,98830,1,4,0:3:0:0:
199,297,98917,2,0,P|211:332|233:348,1,49.4999984893799,4|0,0:3|0:0,0:0:0:0:
418,375,99092,6,0,L|433:242,1,110,4|0,3:2|0:0,0:0:0:0:
494,93,99441,2,0,P|500:121|495:163,1,55,8|0,3:2|0:0,0:0:0:0:
356,190,99615,1,0,0:0:0:0:
340,184,99702,2,0,P|322:138|344:72,1,110
414,32,99964,1,0,0:0:0:0:
234,144,100138,1,8,3:2:0:0:
430,265,100313,5,0,0:0:0:0:
435,238,100400,1,0,0:0:0:0:
440,211,100487,1,0,3:0:0:0:
290,331,100662,1,0,0:0:0:0:
232,179,100836,1,8,3:2:0:0:
221,173,100923,2,0,P|160:177|115:211,1,110
64,264,101185,2,0,P|82:315|90:369,1,110,0|0,3:0|0:0,0:0:0:0:
75,378,101447,1,0,0:0:0:0:
54,378,101534,1,8,3:2:0:0:
191,260,101708,1,0,0:0:0:0:
357,384,101883,6,0,L|476:371,1,110,0|0,3:0|0:0,0:0:0:0:
439,186,102231,2,0,L|361:172,1,55,8|0,3:2|0:0,0:0:0:0:
297,264,102406,1,0,0:0:0:0:
288,279,102493,2,0,L|407:266,1,110
484,258,102755,1,0,0:0:0:0:
305,184,102929,1,8,3:2:0:0:
248,361,103104,5,0,0:0:0:0:
232,376,103191,1,0,0:0:0:0:
216,384,103278,2,0,P|159:381|111:341,1,110,0|0,3:0|0:0,0:0:0:0:
61,271,103540,2,0,L|56:211,1,55,0|8,0:0|3:2,0:0:0:0:
130,155,103714,1,0,0:0:0:0:
260,267,103888,1,0,0:0:0:0:
267,278,103976,2,0,L|255:344,2,55,0|0|0,3:0|0:0|0:0,0:0:0:0:
443,169,104324,2,0,L|327:149,1,110,8|0,3:2|0:0,0:0:0:0:
152,50,104673,6,0,L|268:30,1,110,0|0,3:2|0:0,0:0:0:0:
451,114,105022,2,0,L|442:175,1,55,8|0,3:2|0:0,0:0:0:0:
388,275,105197,1,0,0:0:0:0:
378,291,105284,2,0,P|316:296|266:254,1,110
340,211,105545,1,0,0:0:0:0:
425,376,105720,1,8,3:2:0:0:
215,344,105894,5,0,0:0:0:0:
201,337,105981,1,0,0:0:0:0:
188,333,106069,2,0,P|180:264|177:201,1,110,0|0,3:0|0:0,0:0:0:0:
207,71,106418,1,8,3:2:0:0:
215,60,106505,2,0,P|277:32|339:51,1,110
371,97,106766,2,0,L|487:105,1,110,0|0,3:0|0:0,0:0:0:0:
496,94,107028,1,0,0:0:0:0:
510,83,107115,1,8,3:2:0:0:
389,234,107290,1,0,0:0:0:0:
207,71,107464,6,0,L|189:205,1,110,0|0,3:0|0:0,0:0:0:0:
238,349,107813,2,0,L|174:357,1,55,8|0,3:2|0:0,0:0:0:0:
113,366,107987,1,0,0:0:0:0:
271,255,108162,2,0,L|207:247,1,55,0|0,3:2|0:0,0:0:0:0:
146,238,108336,1,0,0:0:0:0:
336,345,108511,1,8,3:2:0:0:
454,214,108685,5,0,0:0:0:0:
454,214,108772,1,0,0:0:0:0:
454,214,108859,2,0,L|434:88,1,110,0|0,3:0|0:0,0:0:0:0:
367,60,109121,2,0,P|328:52|303:61,1,55,0|8,0:0|3:2,0:0:0:0:
263,118,109295,1,0,0:0:0:0:
91,105,109470,1,0,0:0:0:0:
97,88,109557,2,0,P|158:52|220:70,1,110,0|0,3:0|0:0,0:0:0:0:
326,188,109906,1,8,3:2:0:0:
111,294,110080,5,0,0:0:0:0:
325,351,110255,2,0,P|272:371|226:356,1,88,0|0,3:0|0:0,0:0:0:0:
198,301,110516,2,0,L|187:205,1,88
304,92,110865,1,0,0:0:0:0:
315,100,110952,2,0,L|325:187,1,88,0|0,3:0|0:0,0:0:0:0:
71,227,111301,6,0,L|82:169,1,44
197,72,111476,2,0,L|205:115,1,44
292,264,111650,6,0,P|342:268|400:216,1,110,4|0,3:2|0:0,0:0:0:0:
500,27,111999,1,8,3:2:0:0:
490,19,112086,2,0,L|378:8,1,110
350,94,112348,2,0,L|459:104,1,110,0|0,3:0|0:0,0:0:0:0:
337,277,112697,1,8,3:2:0:0:
261,176,112871,1,0,0:0:0:0:
450,285,113045,5,0,3:0:0:0:
251,321,113219,1,0,0:0:0:0:
334,124,113394,1,8,3:2:0:0:
485,373,113569,6,0,L|355:385,1,110,0|0,0:0|3:0,0:0:0:0:
204,240,113918,1,0,0:0:0:0:
417,148,114092,2,0,P|441:208|437:273,1,110,8|0,3:2|0:0,0:0:0:0:
143,384,114441,6,0,L|121:263,1,110,0|0,3:0|0:0,0:0:0:0:
283,64,114790,1,8,3:2:0:0:
289,75,114877,2,0,P|297:125|271:183,1,110
171,166,115138,2,0,P|163:116|189:58,1,110,0|0,3:0|0:0,0:0:0:0:
376,197,115487,1,8,3:2:0:0:
207,249,115662,1,0,0:0:0:0:
451,129,115836,6,0,L|476:247,1,110,0|0,3:0|0:0,0:0:0:0:
418,309,116098,1,0,0:0:0:0:
403,318,116185,2,0,P|359:313|333:296,1,55,8|0,3:2|0:0,0:0:0:0:
281,213,116359,1,0,0:0:0:0:
138,353,116534,2,0,L|256:365,1,110,0|0,3:0|0:0,0:0:0:0:
341,156,116883,1,8,0:0:0:0:
295,135,116970,1,8,0:0:0:0:
245,141,117057,1,8,0:0:0:0:
208,174,117144,1,8,0:0:0:0:
200,222,117231,5,4,3:2:0:0:
383,307,117406,2,0,L|393:253,1,44
290,204,117580,1,8,3:2:0:0:
281,213,117668,2,0,L|291:268,1,44
481,314,117842,5,0,0:0:0:0:
490,305,117929,2,0,L|470:197,1,88,0|0,3:0|0:0,0:0:0:0:
303,82,118278,1,8,3:2:0:0:
487,26,118452,1,0,0:0:0:0:
342,214,118627,6,0,L|244:201,1,98.9999969787599,4|0,3:2|0:0,0:0:0:0:
235,188,118889,1,0,0:0:0:0:
226,176,118976,1,8,3:2:0:0:
88,298,119150,1,0,0:0:0:0:
65,130,119324,5,0,3:0:0:0:
138,360,119499,2,0,P|108:376|87:379,1,49.4999984893799
117,227,119673,2,0,P|145:243|159:261,1,49.4999984893799,8|0,3:2|0:0,0:0:0:0:
10,312,119848,2,0,P|10:278|18:258,1,49.4999984893799
219,315,120022,5,4,3:2:0:0:
343,207,120197,1,0,0:0:0:0:
358,215,120284,1,0,0:0:0:0:
370,222,120371,2,0,L|423:242,1,55,8|0,3:2|0:0,0:0:0:0:
400,374,120545,1,0,0:0:0:0:
386,368,120633,1,0,0:0:0:0:
374,363,120720,2,0,L|322:343,1,55,4|0,3:2|0:0,0:0:0:0:
152,350,120894,6,0,P|155:330|167:281,1,55
291,227,121069,2,0,P|272:233|223:247,1,55,8|0,3:2|0:0,0:0:0:0:
119,168,121243,2,0,P|134:180|170:216,1,55
321,349,121418,6,0,L|337:265,1,60.5000018463135,4|0,3:2|0:0,0:0:0:0:
244,110,121592,2,0,L|232:170,1,60.5000018463135
349,335,121767,6,0,L|342:250,1,60.5000018463135,12|0,3:2|0:0,0:0:0:0:
215,121,121941,2,0,L|219:182,1,60.5000018463135
376,322,122115,6,0,L|347:242,1,60.5000018463135,4|0,3:2|0:0,0:0:0:0:
195,146,122289,2,0,L|214:204,1,60.5000018463135
393,296,122464,6,0,L|344:226,1,60.5000018463135,12|0,3:2|0:0,0:0:0:0:
175,170,122638,2,0,L|209:221,1,60.5000018463135
432,215,122813,5,4,3:2:0:0:
421,200,122900,1,0,0:0:0:0:
402,183,122987,1,0,0:0:0:0:
373,172,123074,1,0,0:0:0:0:
337,174,123162,1,8,3:2:0:0:
302,198,123249,1,0,0:0:0:0:
288,244,123336,1,0,0:0:0:0:
258,289,123423,1,0,0:0:0:0:
202,315,123511,5,0,3:0:0:0:
136,303,123598,1,0,0:0:0:0:
92,245,123685,1,0,0:0:0:0:
105,167,123772,1,0,0:0:0:0:
173,128,123859,2,0,L|240:137,1,60.5000018463135,8|0,3:2|0:0,0:0:0:0:
351,49,124034,2,0,L|284:40,1,60.5000018463135
287,212,124208,6,0,L|387:224,1,76.9999976501466,0|0,3:0|0:0,0:0:0:0:
378,206,124470,2,0,L|478:218,1,76.9999976501466
479,209,124732,1,0,0:0:0:0:
337,384,124906,5,4,0:3:0:0:
299,377,124993,1,4,0:3:0:0:
266,355,125080,1,8,0:3:0:0:
249,319,125168,1,8,0:3:0:0:
247,280,125255,1,8,3:2:0:0:
247,280,125604,6,0,L|262:149,1,121.000003692627,4|2,3:2|0:0,0:0:0:0:
222,98,125865,1,0,0:0:0:0:
217,81,125952,1,8,3:2:0:0:
52,116,126127,5,2,0:0:0:0:
46,130,126214,1,2,0:0:0:0:
41,143,126301,2,0,L|50:202,1,60.5000018463135,2|2,0:2|0:0,0:0:0:0:
166,235,126476,2,0,L|153:154,1,60.5000018463135,2|2,3:2|0:0,0:0:0:0:
136,55,126650,1,8,3:2:0:0:
271,188,126824,6,0,P|298:202|336:201,1,60.5000018463135
493,56,126999,2,0,L|367:69,1,121.000003692627,0|2,3:0|0:0,0:0:0:0:
297,112,127261,1,0,0:0:0:0:
310,120,127348,1,8,3:2:0:0:
485,267,127522,5,2,0:0:0:0:
495,255,127609,1,2,0:0:0:0:
503,244,127696,2,0,L|512:184,1,60.5000018463135,2|2,0:2|0:0,0:0:0:0:
352,211,127871,2,0,L|342:270,1,60.5000018463135,2|2,3:2|0:0,0:0:0:0:
448,364,128045,1,8,3:2:0:0:
259,246,128220,6,0,P|231:247|199:281,1,60.5000018463135
56,383,128394,2,0,P|46:315|19:250,1,121.000003692627,0|0,3:0|0:0,0:0:0:0:
93,214,128656,1,0,0:0:0:0:
100,197,128743,1,8,3:2:0:0:
31,62,128918,5,2,0:0:0:0:
25,75,129005,1,2,0:0:0:0:
21,86,129092,2,0,L|86:92,1,60.5000018463135,2|2,0:0|0:0,0:0:0:0:
256,187,129266,2,0,L|191:193,1,60.5000018463135,2|2,3:2|0:0,0:0:0:0:
172,32,129441,1,8,3:2:0:0:
338,227,129615,6,0,P|339:189|350:156,1,60.5000018463135
495,47,129790,2,0,L|511:176,1,121.000003692627,0|2,3:0|0:0,0:0:0:0:
372,304,130138,2,0,P|336:311|282:288,1,60.5000018463135,8|0,3:2|0:0,0:0:0:0:
282,122,130313,2,0,P|333:92|407:117,1,121.000003692627,0|2,3:0|0:0,0:0:0:0:
436,172,130574,1,2,0:0:0:0:
432,192,130662,1,2,3:2:0:0:
228,255,130836,1,8,3:2:0:0:
205,54,131011,2,0,L|187:120,1,60.5000018463135,2|2,0:0|0:0,0:0:0:0:
62,268,131185,6,0,L|37:149,1,121.000003692627,0|0,3:2|0:0,0:0:0:0:
104,76,131447,1,0,0:0:0:0:
99,97,131534,1,8,3:2:0:0:
204,246,131708,1,2,0:0:0:0:
217,262,131795,1,2,0:0:0:0:
229,275,131883,2,0,L|294:268,1,60.5000018463135,2|2,0:0|0:0,0:0:0:0:
336,150,132057,2,0,L|275:156,1,60.5000018463135,2|2,3:2|0:0,0:0:0:0:
155,324,132231,1,8,3:2:0:0:
386,296,132406,6,0,P|391:262|381:228,1,60.5000018463135
290,81,132580,2,0,B|226:75|240:105|161:99,1,121.000003692627,0|0,3:0|0:0,0:0:0:0:
109,52,132842,1,0,0:0:0:0:
114,33,132929,1,8,3:2:0:0:
17,135,133104,5,2,0:0:0:0:
9,145,133191,1,2,0:0:0:0:
2,155,133278,2,0,L|15:232,1,60.5000018463135,2|2,0:0|0:0,0:0:0:0:
142,244,133452,2,0,L|131:303,1,60.5000018463135,2|0,3:2|0:0,0:0:0:0:
10,357,133627,1,8,3:2:0:0:
102,172,133801,6,0,P|137:161|181:171,1,60.5000018463135
251,344,133976,2,0,L|384:328,1,121.000003692627,0|0,3:0|0:0,0:0:0:0:
436,279,134237,1,0,0:0:0:0:
455,286,134324,1,8,3:2:0:0:
306,108,134499,5,2,0:0:0:0:
295,115,134586,1,2,0:0:0:0:
285,123,134673,2,0,L|274:191,1,60.5000018463135,2|2,0:0|0:0,0:0:0:0:
425,203,134847,2,0,L|434:143,1,60.5000018463135,2|2,3:2|0:0,0:0:0:0:
315,20,135022,2,0,P|262:18|205:69,1,121.000003692627,8|0,3:2|0:0,0:0:0:0:
40,222,135371,6,0,L|120:240,1,76.9999976501466,0|0,3:0|0:0,0:0:0:0:
175,350,135545,5,8,3:2:0:0:
190,346,135633,2,0,L|268:327,1,65.9999979858399,0|0,3:0|0:0,0:0:0:0:
309,225,135807,5,8,3:2:0:0:
321,228,135894,2,0,L|398:245,1,55,0|0,3:0|0:0,0:0:0:0:
426,358,136069,5,8,3:2:0:0:
440,354,136156,2,0,L|516:338,1,44,0|0,3:0|0:0,0:0:0:0:
512,219,136330,5,8,3:2:0:0:
499,207,136418,2,0,L|505:173,3,22,0|0|0|0,3:0|3:0|3:0|3:0,3:0:0:0:
483,117,136592,1,8,3:2:0:0:
307,192,136766,5,0,0:0:0:0:
287,196,136854,1,0,0:0:0:0:
268,192,136941,1,0,0:0:0:0:
255,178,137028,1,0,0:0:0:0:
248,160,137115,6,0,L|256:94,1,60.5000018463135,12|0,3:2|0:0,0:0:0:0:
268,4,137290,1,0,0:0:0:0:
62,131,137464,6,0,L|83:260,1,121.000003692627,0|2,3:0|0:0,0:0:0:0:
147,323,137726,1,0,0:0:0:0:
159,329,137813,2,0,P|206:324|237:293,1,60.5000018463135,8|0,3:2|0:0,0:0:0:0:
266,185,137987,1,2,0:0:0:0:
426,355,138162,6,0,L|303:372,1,121.000003692627,0|2,3:0|0:0,0:0:0:0:
309,259,138424,1,0,0:0:0:0:
320,250,138511,2,0,L|431:235,1,60.5000018463135,8|0,3:2|0:0,0:0:0:0:
511,324,138685,1,0,0:0:0:0:
461,114,138859,6,0,P|392:97|344:79,1,121.000003692627,0|0,3:0|0:0,0:0:0:0:
225,269,139208,1,8,3:2:0:0:
128,71,139383,2,0,L|113:142,1,60.5000018463135
37,346,139557,6,0,P|24:287|-2:223,1,121.000003692627,0|2,3:0|0:0,0:0:0:0:
43,151,139819,1,0,0:0:0:0:
40,168,139906,1,8,3:2:0:0:
143,297,140080,1,2,0:0:0:0:
292,103,140255,6,0,L|423:119,1,121.000003692627,0|2,3:0|0:0,0:0:0:0:
507,212,140516,1,0,0:0:0:0:
496,221,140604,2,0,P|457:212|435:186,1,60.5000018463135,8|0,3:2|0:0,0:0:0:0:
481,52,140778,1,2,0:0:0:0:
358,234,140952,6,0,P|290:225|234:192,1,121.000003692627,0|2,3:0|0:0,0:0:0:0:
158,18,141301,2,0,P|184:81|183:146,1,121.000003692627,8|2,3:2|0:0,0:0:0:0:
69,300,141650,2,0,P|110:245|167:213,1,121.000003692627,0|2,3:0|0:0,0:0:0:0:
171,222,141912,1,0,0:0:0:0:
186,230,141999,1,8,3:2:0:0:
368,320,142173,2,0,L|294:307,1,60.5000018463135
261,119,142348,6,0,P|316:85|379:90,1,121.000003692627,0|2,3:2|0:0,0:0:0:0:
445,146,142609,1,0,0:0:0:0:
452,159,142697,2,0,L|462:228,1,60.5000018463135,8|0,3:2|0:0,0:0:0:0:
480,356,142871,1,0,3:0:0:0:
335,183,143045,1,8,3:2:0:0:
221,353,143220,6,0,L|151:341,1,60.5000018463135,0|0,3:0|3:0,0:0:0:0:
101,277,143394,1,8,3:2:0:0:
81,281,143482,2,0,L|39:287,2,30.2500009231568,0|0|0,3:0|3:0|3:0,3:0:0:0:
187,263,143656,5,0,3:0:0:0:
207,261,143743,2,0,L|219:184,1,71.4999967269899,0|0,3:0|0:0,0:0:0:0:
91,57,143918,5,8,3:2:0:0:
82,75,144005,2,0,L|142:123,1,71.4999967269899,0|0,3:0|0:0,0:0:0:0:
318,79,144179,5,8,3:2:0:0:
306,62,144266,2,0,L|233:90,1,71.4999967269899,0|0,3:0|0:0,0:0:0:0:
46,167,144441,5,8,3:2:0:0:
50,185,144528,2,0,P|88:208|129:206,1,71.4999967269899,0|0,3:0|0:0,0:0:0:0:
297,168,144702,5,8,3:2:0:0:
321,162,144790,1,0,3:0:0:0:
345,157,144877,2,0,L|355:215,2,35.749998363495,0|0|0,3:0|3:0|3:0,3:0:0:0:
396,337,145138,6,0,P|351:319|315:323,1,60.5000018463135,4|0,3:2|0:0,0:0:0:0:
184,353,145313,2,0,P|229:371|265:367,1,60.5000018463135,2|0,0:0|0:0,0:0:0:0:
429,269,145487,1,8,3:2:0:0:
419,259,145574,2,0,P|374:241|338:245,1,60.5000018463135,0|2,0:0|0:0,0:0:0:0:
235,284,145749,6,0,P|248:217|243:142,1,121.000003692627
184,111,146011,1,2,0:0:0:0:
23,244,146185,1,8,3:2:0:0:
149,308,146359,1,2,0:0:0:0:
323,125,146534,6,0,L|336:184,1,60.5000018463135,0|0,3:0|0:0,0:0:0:0:
176,190,146708,2,0,L|162:130,1,60.5000018463135,2|0,0:0|0:0,0:0:0:0:
399,108,146883,1,8,3:2:0:0:
400,125,146970,2,0,L|413:183,1,60.5000018463135,0|2,0:0|0:0,0:0:0:0:
326,306,147144,6,0,P|379:275|455:283,1,121.000003692627
508,325,147406,1,0,0:0:0:0:
285,222,147580,1,8,3:2:0:0:
413,184,147755,1,2,0:0:0:0:
258,355,147929,6,0,L|179:346,1,60.5000018463135,0|0,3:0|0:0,0:0:0:0:
70,268,148104,2,0,L|149:259,1,60.5000018463135,2|0,0:0|0:0,0:0:0:0:
290,141,148278,1,8,3:2:0:0:
275,139,148365,2,0,L|196:130,1,60.5000018463135,0|2,0:0|0:0,0:0:0:0:
66,57,148540,6,0,P|105:113|108:182,1,121.000003692627
59,238,148801,1,2,0:0:0:0:
258,355,148976,1,8,3:2:0:0:
210,226,149150,2,0,L|195:306,1,60.5000018463135,2|0,0:0|0:0,0:0:0:0:
348,375,149324,6,0,P|424:370|463:332,2,115.49999647522,4|0|0,3:2|0:0|0:0,0:0:0:0:
355,205,150022,1,8,3:2:0:0:
385,289,150197,1,0,0:0:0:0:
457,215,150371,1,2,0:0:0:0:
277,279,150546,1,0,0:0:0:0:
414,132,150720,6,0,L|397:46,1,76.9999976501466,0|0,3:0|0:0,0:0:0:0:
374,30,150981,2,0,P|341:21|262:59,1,115.49999647522
181,125,151418,2,0,P|214:159|335:143,1,153.999995300293,8|2,3:2|0:0,0:0:0:0:
481,58,152115,6,0,L|503:180,2,115.49999647522,0|0|0,3:0|0:0|0:0,0:0:0:0:
358,151,152813,1,8,3:2:0:0:
380,63,152987,1,0,0:0:0:0:
264,180,153162,1,2,0:0:0:0:
431,213,153336,1,0,0:0:0:0:
287,92,153511,6,0,P|244:90|202:115,1,76.9999976501466,0|0,3:0|0:0,0:0:0:0:
188,127,153772,2,0,L|176:256,1,115.49999647522
114,345,154208,2,0,P|171:331|254:382,1,153.999995300293,8|2,3:2|0:0,0:0:0:0:
383,252,154906,6,0,L|363:384,2,115.49999647522,0|0|0,3:0|0:0|0:0,0:0:0:0:
459,139,155604,1,8,3:2:0:0:
351,165,155778,1,0,0:0:0:0:
481,231,155952,1,2,0:0:0:0:
390,84,156127,1,0,0:0:0:0:
299,244,156301,6,0,P|246:248|191:213,2,115.49999647522,0|0|0,3:0|0:0|0:0,0:0:0:0:
303,97,156999,2,0,B|229:76|225:134|135:105,1,153.999995300293,8|0,3:2|0:0,0:0:0:0:
12,54,157522,5,0,0:0:0:0:
12,54,157609,1,0,0:0:0:0:
12,54,157697,2,0,P|37:99|49:173,2,115.49999647522,0|0|0,3:0|0:0|0:0,0:0:0:0:
184,35,158394,1,8,3:2:0:0:
126,113,158569,1,0,0:0:0:0:
281,74,158743,1,2,0:0:0:0:
96,32,158918,1,0,0:0:0:0:
263,160,159092,6,0,P|306:158|362:86,2,115.49999647522,0|0|0,3:0|0:0|0:0,0:0:0:0:
137,119,159790,1,8,3:2:0:0:
181,197,159964,1,0,0:0:0:0:
58,307,160138,1,0,0:0:0:0:
91,198,160313,1,0,0:0:0:0:
187,338,160487,6,0,L|350:318,1,153.999995300293,0|0,3:2|0:0,0:0:0:0:
409,148,161185,2,0,L|310:137,3,76.9999976501466,8|0|0|0,3:2|0:0|0:0|0:0,0:0:0:0:
232,159,161883,6,0,P|220:165|252:176,1,76.9999976501466,0|0,3:0|0:0,0:0:0:0:
251,183,162580,5,0,0:0:0:0:
332,139,162755,1,0,0:0:0:0:
336,144,162842,1,0,0:0:0:0:
341,149,162929,2,0,L|332:212,1,38.4999988250733
166,233,163104,2,0,L|171:194,1,38.4999988250733
323,60,163278,6,0,P|376:63|418:102,1,98.9999969787599,4|0,3:2|0:0,0:0:0:0:
435,270,163627,2,0,L|300:280,1,98.9999969787599,0|0,3:0|0:0,0:0:0:0:
177,170,163976,1,0,3:0:0:0:
266,245,164150,1,0,0:0:0:0:
113,357,164324,2,0,L|87:239,1,98.9999969787599,0|0,3:0|0:0,0:0:0:0:
129,102,164673,5,0,3:0:0:0:
142,93,164761,2,0,P|199:87|244:123,1,98.9999969787599
306,207,165022,2,0,L|428:187,1,98.9999969787599,0|0,3:0|0:0,0:0:0:0:
445,94,165284,1,0,0:0:0:0:
431,82,165371,2,0,L|333:98,1,98.9999969787599,0|0,3:0|0:0,0:0:0:0:
199,250,165720,2,0,L|191:197,1,49.4999984893799,0|0,3:0|0:0,0:0:0:0:
112,152,165894,2,0,L|104:200,1,49.4999984893799
276,284,166069,6,0,L|292:183,1,98.9999969787599,0|0,3:0|0:0,0:0:0:0:
285,172,166330,1,0,0:0:0:0:
279,158,166418,1,0,3:0:0:0:
187,332,166592,1,0,0:0:0:0:
371,235,166766,2,0,L|387:335,1,98.9999969787599,0|0,3:0|0:0,0:0:0:0:
438,138,167115,1,0,3:0:0:0:
256,187,167290,1,0,0:0:0:0:
456,224,167464,5,0,3:0:0:0:
276,109,167638,2,0,P|239:107|216:118,1,49.4999984893799
210,262,167813,2,0,P|264:274|313:250,1,98.9999969787599,0|0,3:0|0:0,0:0:0:0:
143,66,168162,2,0,L|124:166,1,98.9999969787599,0|0,3:0|0:0,0:0:0:0:
71,225,168423,1,0,0:0:0:0:
80,239,168511,2,0,P|110:251|138:248,1,49.4999984893799,0|0,3:0|0:0,0:0:0:0:
259,166,168685,2,0,P|234:167|212:177,1,49.4999984893799
129,339,168859,6,0,P|196:342|232:358,1,98.9999969787599,0|0,3:0|0:0,0:0:0:0:
386,285,169208,2,0,L|410:406,1,98.9999969787599,8|0,3:2|0:0,0:0:0:0:
310,183,169557,1,0,3:0:0:0:
459,233,169731,1,0,0:0:0:0:
308,346,169906,2,0,P|256:346|202:326,1,98.9999969787599,8|0,3:2|0:0,0:0:0:0:
127,199,170255,5,0,3:0:0:0:
118,187,170342,2,0,L|129:69,1,98.9999969787599
204,37,170604,1,8,3:2:0:0:
215,31,170691,2,0,P|271:25|322:64,1,98.9999969787599,0|0,0:2|0:0,0:0:0:0:
287,155,170952,2,0,P|231:161|180:122,1,98.9999969787599,0|0,3:0|0:0,0:0:0:0:
374,101,171301,1,8,3:2:0:0:
384,109,171388,2,0,L|404:227,1,98.9999969787599
365,277,171650,6,0,L|252:294,1,98.9999969787599,0|0,3:0|0:0,0:0:0:0:
97,257,171999,1,8,3:2:0:0:
173,352,172173,1,0,0:0:0:0:
241,216,172348,2,0,L|221:110,1,98.9999969787599,0|0,3:0|0:0,0:0:0:0:
34,122,172697,2,0,P|75:154|139:145,1,98.9999969787599,8|0,3:2|3:0,3:0:0:0:
293,42,173045,5,0,3:0:0:0:
372,183,173220,2,0,L|380:115,1,49.4999984893799
457,81,173394,2,0,L|484:194,1,98.9999969787599,8|0,3:2|0:0,0:0:0:0:
398,324,173743,2,0,P|336:323|298:288,1,98.9999969787599,0|0,3:0|0:0,0:0:0:0:
251,242,174005,1,0,0:0:0:0:
246,226,174092,2,0,L|262:132,1,49.4999984893799,8|0,3:2|0:0,0:0:0:0:
356,114,174266,2,0,L|364:162,1,49.4999984893799,0|0,0:2|0:0,0:0:0:0:
150,247,174441,5,4,3:2:0:0:
273,92,174615,1,0,3:0:0:0:
368,260,174790,1,8,3:2:0:0:
144,152,174964,2,0,L|165:31,1,110,2|0,0:0|3:0,0:0:0:0:
348,174,175313,1,2,0:0:0:0:
177,255,175487,2,0,P|109:258|72:233,1,110,8|2,3:2|0:0,0:0:0:0:
276,85,175836,5,0,3:0:0:0:
290,74,175923,2,0,L|416:84,1,110
477,139,176185,1,8,3:2:0:0:
484,152,176272,2,0,P|501:207|486:270,1,110
410,307,176534,5,0,0:0:0:0:
311,200,176708,2,0,L|300:271,1,55,2|0,0:0|0:0,0:0:0:0:
288,351,176883,1,8,3:2:0:0:
412,210,177057,1,2,0:0:0:0:
193,290,177231,6,0,P|132:293|74:253,1,110,0|2,3:0|0:0,0:0:0:0:
104,170,177493,1,0,0:0:0:0:
113,162,177580,2,0,P|174:159|232:199,1,110,8|2,3:2|0:0,0:0:0:0:
431,298,177929,1,0,3:0:0:0:
288,351,178104,1,2,0:0:0:0:
374,203,178278,2,0,L|348:80,1,110,8|2,3:2|0:0,0:0:0:0:
143,42,178627,5,0,3:0:0:0:
235,252,178801,1,2,0:0:0:0:
241,93,178976,1,8,3:2:0:0:
96,165,179150,1,2,0:0:0:0:
286,323,179324,2,0,P|319:273|301:205,1,110,0|2,3:0|0:0,0:0:0:0:
241,174,179586,1,0,0:0:0:0:
225,171,179673,2,0,L|163:180,1,55,8|0,3:2|0:0,0:0:0:0:
133,341,179848,2,0,L|187:333,1,55,2|0,0:2|0:0,0:0:0:0:
403,253,180022,6,0,L|380:139,1,110,0|2,3:2|0:0,0:0:0:0:
147,58,180371,2,0,L|168:165,1,110,8|2,3:2|0:0,0:0:0:0:
331,297,180720,1,0,3:0:0:0:
376,127,180894,1,2,0:0:0:0:
129,260,181069,2,0,L|248:278,1,110,8|2,3:2|0:0,0:0:0:0:
424,58,181418,5,0,3:0:0:0:
412,50,181505,2,0,P|367:41|310:73,1,110
264,149,181766,1,8,3:2:0:0:
255,161,181854,2,0,L|143:146,1,110
65,132,182115,1,0,3:0:0:0:
225,60,182290,1,2,0:0:0:0:
140,301,182464,1,8,3:2:0:0:
300,229,182639,1,2,0:0:0:0:
42,232,182813,6,0,L|26:356,1,110,0|2,3:2|0:0,0:0:0:0:
38,355,183074,1,0,0:0:0:0:
49,369,183162,1,8,3:2:0:0:
206,197,183336,1,0,0:0:0:0:
371,308,183511,2,0,P|316:336|248:326,1,110,0|2,3:0|0:0,0:0:0:0:
133,124,183859,2,0,P|188:96|256:106,1,110,8|2,3:2|0:0,0:0:0:0:
130,346,184208,5,0,3:0:0:0:
130,346,185255,1,0,0:0:0:0:
127,329,185342,1,0,0:0:0:0:
124,312,185429,1,0,0:0:0:0:
121,295,185516,1,0,0:0:0:0:
119,278,185604,6,0,L|186:266,1,55,4|0,3:2|0:0,0:0:0:0:
248,255,185778,2,0,L|315:243,1,55,0|0,3:0|0:0,0:0:0:0:
430,220,185952,2,0,L|407:344,1,110,0|2,3:0|0:0,0:0:0:0:
191,176,186301,2,0,L|305:155,1,110,0|2,3:0|0:0,0:0:0:0:
458,48,186650,1,8,3:2:0:0:
296,7,186824,2,0,L|317:74,1,55,2|0,0:0|0:0,0:0:0:0:
404,243,186999,6,0,L|433:132,1,110,0|0,3:0|0:0,0:0:0:0:
266,0,187348,2,0,P|222:2|163:52,1,110,8|2,3:2|0:0,0:0:0:0:
187,242,187697,1,0,3:0:0:0:
333,179,187871,1,2,0:0:0:0:
100,128,188045,2,0,L|77:243,1,110,8|0,3:2|0:0,0:0:0:0:
306,363,188394,6,0,P|295:293|281:240,1,110,0|2,3:2|0:0,0:0:0:0:
3,277,188743,2,0,P|41:314|114:313,1,110,8|2,3:2|0:0,0:0:0:0:
374,190,189092,1,0,3:0:0:0:
227,161,189266,1,2,0:0:0:0:
404,320,189441,2,0,L|276:343,1,110,0|2,3:0|0:0,0:0:0:0:
215,299,189702,5,0,0:0:0:0:
206,290,189790,2,0,P|191:225|217:156,1,110,0|2,3:0|0:0,0:0:0:0:
447,69,190138,2,0,L|471:184,1,110,8|2,3:2|0:0,0:0:0:0:
217,82,190487,6,0,L|300:70,1,55,0|0,3:0|0:0,0:0:0:0:
355,61,190662,1,2,0:0:0:0:
134,195,190836,2,0,L|217:207,1,55,8|0,3:2|0:0,0:0:0:0:
272,216,191011,1,2,0:0:0:0:
110,100,191185,5,0,3:0:0:0:
175,294,191359,1,2,3:0:0:0:
346,156,191534,2,0,L|330:43,1,110,8|2,3:2|0:0,0:0:0:0:
224,5,191795,1,0,0:0:0:0:
212,17,191883,2,0,L|227:125,1,110,0|2,3:2|0:0,0:0:0:0:
427,230,192231,1,8,3:2:0:0:
461,98,192406,1,2,0:0:0:0:
359,309,192580,6,0,P|408:335|478:318,1,110,0|2,3:2|0:0,0:0:0:0:
383,114,192929,1,8,3:2:0:0:
368,106,193016,1,0,0:0:0:0:
357,100,193104,2,0,L|263:112,1,55,2|0,0:2|0:0,0:0:0:0:
232,195,193278,2,0,L|102:181,1,110,0|2,3:0|0:0,0:0:0:0:
145,0,193627,2,0,L|254:11,1,110,8|2,3:2|0:0,0:0:0:0:
345,43,193888,5,0,0:0:0:0:
354,52,193976,2,0,P|373:111|364:185,1,110,0|2,3:0|0:0,0:0:0:0:
206,302,194324,2,0,P|261:295|317:327,1,110,8|2,3:2|0:0,0:0:0:0:
492,317,194673,2,0,L|485:383,2,55,0|0|2,3:0|0:0|0:0,0:0:0:0:
512,130,195022,2,0,L|385:155,1,110,8|0,3:2|0:0,0:0:0:0:
132,203,195371,6,0,P|169:218|209:215,1,65.9999979858399
318,164,195720,2,0,P|281:149|241:152,1,65.9999979858399
162,298,196069,2,0,L|175:372,1,65.9999979858399
283,299,196418,2,0,L|271:233,1,65.9999979858399
87,258,196766,5,4,3:2:0:0:
260,379,196941,1,0,3:0:0:0:
303,162,197115,6,0,L|253:155,1,44,8|0,3:2|0:0,0:0:0:0:
227,227,197290,2,0,L|270:233,1,44
311,155,197464,6,0,L|261:148,1,44,8|0,3:2|0:0,0:0:0:0:
235,220,197639,2,0,L|278:226,1,44
321,148,197813,6,0,L|271:141,1,44,8|0,3:2|0:0,0:0:0:0:
245,213,197988,2,0,L|288:219,1,44
416,232,198162,6,0,L|424:280,1,49.4999984893799,8|0,3:2|0:0,0:0:0:0:
352,326,198336,2,0,L|344:278,1,49.4999984893799
424,223,198511,6,0,L|432:271,1,49.4999984893799,8|0,3:2|0:0,0:0:0:0:
360,317,198685,2,0,L|352:269,1,49.4999984893799
432,214,198859,6,0,L|440:262,1,49.4999984893799,8|0,3:2|0:0,0:0:0:0:
368,308,199033,2,0,L|360:260,1,49.4999984893799
440,205,199208,6,0,L|448:253,1,49.4999984893799,8|0,3:2|0:0,0:0:0:0:
376,299,199382,2,0,L|368:251,1,49.4999984893799
467,125,199557,6,0,L|403:117,1,55,8|0,3:2|0:0,0:0:0:0:
298,169,199731,2,0,L|352:175,1,55
453,113,199906,6,0,L|389:105,1,55,8|0,3:2|0:0,0:0:0:0:
284,157,200080,2,0,L|338:163,1,55
438,98,200255,6,0,L|374:90,1,55,8|0,3:2|0:0,0:0:0:0:
269,142,200429,2,0,L|323:148,1,55
424,86,200604,6,0,L|360:78,1,55,8|0,3:2|0:0,0:0:0:0:
255,130,200778,2,0,L|309:136,1,55
463,258,200952,6,0,L|392:266,1,60.5000018463135,8|0,3:2|0:0,0:0:0:0:
304,208,201126,2,0,L|363:201,1,60.5000018463135
447,271,201301,6,0,L|376:279,1,60.5000018463135,8|0,3:2|0:0,0:0:0:0:
288,221,201475,2,0,L|347:214,1,60.5000018463135
431,287,201650,6,0,L|360:295,1,60.5000018463135,8|0,3:2|0:0,0:0:0:0:
272,238,201824,2,0,L|331:231,1,60.5000018463135
415,300,201999,6,0,L|344:308,1,60.5000018463135,8|0,3:2|0:0,0:0:0:0:
256,251,202173,2,0,L|315:244,1,60.5000018463135
424,208,202348,5,8,3:2:0:0:
258,356,202522,1,8,3:2:0:0:
114,206,202697,6,0,L|198:222,1,60.5000018463135,8|0,3:2|0:0,0:0:0:0:
353,129,202871,2,0,L|293:117,1,60.5000018463135
128,234,203046,6,0,L|213:227,1,60.5000018463135,8|0,3:2|0:0,0:0:0:0:
342,100,203220,2,0,L|281:104,1,60.5000018463135
141,261,203394,6,0,L|221:232,1,60.5000018463135,8|0,3:2|0:0,0:0:0:0:
317,80,203568,2,0,L|259:99,1,60.5000018463135
280,289,203743,6,0,L|288:210,1,60.5000018463135,8|0,3:2|0:0,0:0:0:0:
174,86,203917,2,0,L|166:165,1,60.5000018463135,8|0,3:2|0:0,0:0:0:0:
314,272,204092,6,0,L|294:195,1,60.5000018463135,8|0,3:2|0:0,0:0:0:0:
140,103,204266,2,0,L|159:179,1,60.5000018463135,8|0,3:2|0:0,0:0:0:0:
341,249,204441,6,0,L|296:183,1,60.5000018463135,8|0,3:2|0:0,0:0:0:0:
113,126,204616,2,0,L|157:191,1,60.5000018463135,8|0,3:2|0:0,0:0:0:0:
365,218,204790,6,0,L|300:171,1,60.5000018463135,8|0,3:2|0:0,0:0:0:0:
99,164,204964,2,0,L|148:199,1,60.5000018463135,8|0,3:2|0:0,0:0:0:0:
333,113,205138,5,0,3:0:0:0:
315,110,205225,1,0,0:0:0:0:
294,116,205312,1,0,0:0:0:0:
279,143,205400,1,0,0:0:0:0:
294,177,205487,1,8,3:2:0:0:
334,191,205574,1,0,0:0:0:0:
381,178,205661,1,0,0:0:0:0:
407,130,205748,1,0,0:0:0:0:
394,71,205836,5,0,3:0:0:0:
340,35,205923,1,0,0:0:0:0:
274,43,206010,1,0,0:0:0:0:
217,87,206097,1,0,0:0:0:0:
202,165,206185,2,0,L|217:234,1,60.5000018463135,8|0,3:2|0:0,0:0:0:0:
301,338,206359,2,0,L|313:278,1,60.5000018463135,0|0,0:2|0:0,0:0:0:0:
110,167,206534,6,0,L|126:267,1,76.9999976501466,0|0,3:0|0:0,0:0:0:0:
138,262,206796,2,0,L|154:362,1,76.9999976501466
161,357,207058,1,0,0:0:0:0:
387,248,207231,1,8,0:3:0:0:
363,217,207319,1,8,0:3:0:0:
327,202,207406,1,4,0:3:0:0:
288,207,207493,1,4,0:3:0:0:
258,232,207580,1,8,3:2:0:0:
22,188,207929,6,0,P|55:221|143:229,2,115.49999647522
173,137,208627,2,0,P|140:104|52:96,2,115.49999647522
266,245,209324,2,0,L|283:104,2,115.49999647522
183,303,210022,1,0,0:0:0:0:
183,303,210371,6,0,L|192:358,1,38.4999988250733
195,311,210545,2,0,L|204:366,1,38.4999988250733
369,373,210720,6,0,P|377:288|385:239,1,121.000003692627,4|2,3:2|0:0,0:0:0:0:
462,204,210981,1,0,0:0:0:0:
467,221,211069,1,8,3:2:0:0:
282,330,211243,1,2,0:0:0:0:
512,137,211418,6,0,P|460:117|391:159,1,121.000003692627,0|2,3:0|0:0,0:0:0:0:
348,241,211679,1,0,0:0:0:0:
336,248,211766,2,0,L|251:236,1,60.5000018463135,8|0,3:2|0:0,0:0:0:0:
207,150,211941,1,2,0:0:0:0:
29,339,212115,6,0,P|77:367|145:363,1,121.000003692627,0|2,0:0|0:0,0:0:0:0:
320,127,212464,2,0,L|337:261,1,121.000003692627,8|2,3:2|0:0,0:0:0:0:
70,181,212813,2,0,L|85:60,1,121.000003692627,0|2,3:2|0:0,0:0:0:0:
107,51,213074,1,0,0:0:0:0:
125,42,213162,1,8,3:2:0:0:
244,239,213336,1,2,0:0:0:0:
436,82,213511,6,0,L|310:61,1,121.000003692627,0|2,3:2|0:0,0:0:0:0:
258,111,213772,1,0,0:0:0:0:
247,125,213859,1,8,3:2:0:0:
496,9,214034,1,2,0:0:0:0:
292,218,214208,6,0,L|418:197,1,121.000003692627,0|2,3:2|0:0,0:0:0:0:
475,244,214469,1,0,0:0:0:0:
486,258,214556,1,8,3:2:0:0:
236,142,214731,1,2,0:0:0:0:
431,362,214906,6,0,L|305:341,1,121.000003692627,0|2,3:2|0:0,0:0:0:0:
239,255,215168,1,0,0:0:0:0:
220,250,215255,2,0,L|159:264,1,60.5000018463135,8|0,3:2|0:0,0:0:0:0:
69,347,215429,1,2,0:0:0:0:
331,253,215604,6,0,P|342:190|301:110,1,121.000003692627,0|2,3:0|0:0,0:0:0:0:
81,245,215952,1,8,3:2:0:0:
172,58,216127,2,0,L|240:68,1,60.5000018463135,2|0,0:0|0:0,0:0:0:0:
447,248,216301,6,0,P|402:276|332:266,1,121.000003692627,0|2,3:0|0:0,0:0:0:0:
241,211,216563,1,0,0:0:0:0:
243,196,216650,2,0,L|251:132,1,60.5000018463135,8|0,3:2|0:0,0:0:0:0:
331,50,216824,1,2,0:0:0:0:
148,162,216999,6,0,L|165:291,1,121.000003692627,0|2,3:0|0:0,0:0:0:0:
245,365,217261,1,0,0:0:0:0:
258,358,217348,2,0,L|268:273,1,60.5000018463135,8|0,3:2|0:0,0:0:0:0:
336,184,217522,1,2,0:0:0:0:
53,165,217697,6,0,P|65:208|105:246,1,76.9999976501466,0|0,3:0|0:0,0:0:0:0:
247,322,217871,5,8,0:0:0:0:
249,308,217958,2,0,P|217:276|162:263,1,65.9999979858399,0|0,3:0|0:0,0:0:0:0:
20,294,218133,5,8,0:0:0:0:
29,306,218220,2,0,P|73:307|121:279,1,55,0|0,3:0|0:0,0:0:0:0:
209,183,218394,5,8,0:0:0:0:
190,182,218481,2,0,P|163:197|144:231,1,44,0|0,3:0|0:0,0:0:0:0:
161,368,218656,5,8,0:0:0:0:
160,351,218743,2,0,L|154:324,3,22,0|0|0|0,3:0|3:0|3:0|3:0,3:0:0:0:
198,268,218918,1,0,3:0:0:0:
344,375,219092,6,0,P|353:319|372:248,1,121.000003692627,4|2,3:2|0:0,0:0:0:0:
450,189,219354,1,0,0:0:0:0:
456,176,219441,2,0,P|449:130|438:93,1,60.5000018463135,8|0,3:2|0:0,0:0:0:0:
356,48,219615,1,0,0:0:0:0:
160,203,219790,6,0,P|211:243|277:236,1,121.000003692627,0|2,3:0|0:0,0:0:0:0:
356,196,220051,1,0,0:0:0:0:
364,185,220138,2,0,L|356:114,1,60.5000018463135,8|0,3:2|0:0,0:0:0:0:
274,41,220313,1,2,0:0:0:0:
55,181,220487,6,0,L|38:302,1,121.000003692627,0|2,3:0|0:0,0:0:0:0:
111,367,220749,1,0,0:0:0:0:
123,373,220836,2,0,P|157:373|193:359,1,60.5000018463135,8|0,3:2|0:0,0:0:0:0:
218,257,221011,1,2,0:0:0:0:
423,384,221185,6,0,P|433:318|457:244,1,121.000003692627,0|2,3:0|0:0,0:0:0:0:
320,108,221534,1,8,3:2:0:0:
158,247,221708,2,0,L|234:259,1,60.5000018463135
402,104,221883,6,0,P|375:47|296:35,1,121.000003692627,0|2,3:0|0:0,0:0:0:0:
235,80,222144,1,0,0:0:0:0:
233,93,222231,2,0,L|226:161,1,60.5000018463135,8|0,3:2|0:0,0:0:0:0:
320,230,222406,1,2,0:0:0:0:
78,289,222580,6,0,P|151:282|201:321,1,121.000003692627,0|2,3:0|0:0,0:0:0:0:
286,384,222842,1,0,0:0:0:0:
286,367,222929,2,0,L|297:288,1,60.5000018463135,8|0,3:2|0:0,0:0:0:0:
311,205,223104,1,2,0:0:0:0:
512,338,223278,6,0,L|386:352,1,121.000003692627,0|2,3:2|0:0,0:0:0:0:
218,113,223627,2,0,L|338:126,1,121.000003692627,8|2,3:2|0:0,0:0:0:0:
175,332,223976,2,0,L|49:346,1,121.000003692627,0|2,3:2|0:0,0:0:0:0:
38,333,224237,1,0,0:0:0:0:
25,322,224324,1,8,3:2:0:0:
133,162,224499,2,0,L|149:232,1,60.5000018463135,2|0,0:0|0:0,0:0:0:0:
274,362,224673,6,0,P|284:287|307:221,1,121.000003692627,0|2,3:2|0:0,0:0:0:0:
370,168,224935,1,0,0:0:0:0:
381,170,225022,2,0,L|456:174,1,60.5000018463135,8|0,3:2|0:0,0:0:0:0:
512,241,225196,1,0,3:0:0:0:
367,62,225371,1,8,3:2:0:0:
229,272,225545,6,0,L|300:279,1,60.5000018463135,0|0,3:0|3:0,0:0:0:0:
347,355,225720,1,8,3:2:0:0:
359,353,225807,2,0,L|391:350,2,30.2500009231568,0|0|0,3:0|3:0|3:0,3:0:0:0:
432,269,225981,5,0,3:0:0:0:
437,255,226069,2,0,P|431:217|408:181,1,71.4999967269899,0|0,3:0|0:0,0:0:0:0:
249,146,226243,5,8,3:2:0:0:
258,157,226331,2,0,P|293:170|336:168,1,71.4999967269899,0|0,3:0|0:0,0:0:0:0:
451,51,226505,5,8,3:2:0:0:
436,53,226593,2,0,P|406:77|386:115,1,71.4999967269899,0|0,3:0|0:0,0:0:0:0:
258,248,226766,5,8,3:2:0:0:
271,254,226854,2,0,L|352:259,1,71.4999967269899,0|0,3:0|0:0,0:0:0:0:
481,172,227028,5,8,3:2:0:0:
492,157,227115,1,0,3:0:0:0:
503,142,227202,2,0,L|496:99,2,35.749998363495,0|0|0,3:0|3:0|3:0,3:0:0:0:
301,19,227464,6,0,L|291:98,1,60.5000018463135,4|0,3:2|0:0,0:0:0:0:
189,82,227638,2,0,L|196:21,1,60.5000018463135,2|0,0:2|0:0,0:0:0:0:
375,2,227813,1,8,3:2:0:0:
377,16,227900,2,0,L|367:95,1,60.5000018463135,0|2,0:2|0:0,0:0:0:0:
220,165,228074,6,0,P|151:166|107:116,1,121.000003692627
108,49,228336,1,2,0:0:0:0:
262,251,228511,1,8,3:2:0:0:
314,137,228685,1,2,0:0:0:0:
81,250,228859,6,0,P|76:282|86:315,1,60.5000018463135,0|0,3:0|0:0,0:0:0:0:
176,299,229034,2,0,P|181:267|171:234,1,60.5000018463135,2|0,0:0|0:0,0:0:0:0:
8,247,229208,1,8,3:2:0:0:
4,257,229295,2,0,P|-1:289|9:322,1,60.5000018463135,0|2,0:0|0:0,0:0:0:0:
132,384,229470,6,0,L|257:368,1,121.000003692627
340,353,229731,1,2,0:0:0:0:
219,174,229906,1,8,3:2:0:0:
176,299,230080,1,2,0:0:0:0:
373,248,230255,6,0,L|303:240,1,60.5000018463135,0|0,3:0|0:0,0:0:0:0:
158,180,230429,2,0,L|228:172,1,60.5000018463135,2|0,0:0|0:0,0:0:0:0:
391,81,230604,1,8,3:2:0:0:
375,78,230691,2,0,L|305:70,1,60.5000018463135,0|2,0:2|0:0,0:0:0:0:
93,128,230865,6,0,P|76:181|106:250,1,121.000003692627
178,264,231127,1,2,0:0:0:0:
239,24,231301,1,8,3:2:0:0:
115,42,231476,1,2,0:0:0:0:
243,190,231650,6,0,L|330:182,1,88
481,201,231999,1,0,0:0:0:0:
392,276,232173,1,0,0:0:0:0:
282,108,232348,1,4,0:3:0:0:
320,97,232435,1,4,0:3:0:0:
359,100,232522,1,8,0:3:0:0:
391,122,232609,1,8,0:3:0:0:
405,159,232697,1,8,3:2:0:0:
405,159,233045,6,0,L|387:328,1,121.000003692627,4|2,3:2|0:0,0:0:0:0:
304,363,233307,1,0,0:0:0:0:
301,351,233394,2,0,L|289:279,1,60.5000018463135,8|0,3:2|0:0,0:0:0:0:
278,189,233568,1,2,0:0:0:0:
40,307,233743,6,0,P|94:337|164:318,1,121.000003692627,0|2,3:0|0:0,0:0:0:0:
199,246,234005,1,0,0:0:0:0:
198,237,234092,2,0,L|186:165,1,60.5000018463135,8|0,3:2|0:0,0:0:0:0:
361,153,234266,2,0,L|370:212,1,60.5000018463135,2|0,0:0|0:0,0:0:0:0:
109,251,234441,6,0,L|90:126,1,121.000003692627,0|2,3:2|0:0,0:0:0:0:
159,52,234702,1,0,0:0:0:0:
167,46,234790,2,0,P|205:47|228:71,1,60.5000018463135,8|0,3:2|0:0,0:0:0:0:
282,155,234964,1,2,0:0:0:0:
473,59,235138,5,0,3:0:0:0:
373,208,235313,1,2,0:0:0:0:
376,226,235400,2,0,L|395:298,1,60.5000018463135,0|8,0:2|3:2,0:0:0:0:
474,338,235575,1,0,0:0:0:0:
469,353,235662,1,2,0:0:0:0:
278,191,235836,6,0,P|227:185|168:228,1,121.000003692627,0|2,3:0|0:0,0:0:0:0:
138,312,236098,1,0,0:0:0:0:
125,320,236185,2,0,L|59:315,1,60.5000018463135,8|0,3:2|0:0,0:0:0:0:
15,217,236359,1,2,0:0:0:0:
115,48,236534,6,0,P|169:23|255:46,1,121.000003692627,0|2,3:0|0:0,0:0:0:0:
312,93,236795,1,0,0:0:0:0:
323,105,236883,2,0,L|306:238,1,121.000003692627,8|2,3:2|0:0,0:0:0:0:
497,367,237231,6,0,L|512:246,1,121.000003692627,0|2,3:2|0:0,0:0:0:0:
408,176,237493,1,0,0:0:0:0:
402,187,237580,2,0,L|413:287,1,60.5000018463135,8|0,3:2|0:0,0:0:0:0:
351,339,237755,1,0,0:0:0:0:
172,241,237929,6,0,L|241:233,1,60.5000018463135,0|0,3:0|0:0,0:0:0:0:
307,225,238104,1,2,0:0:0:0:
81,178,238278,1,8,3:2:0:0:
253,333,238452,1,2,0:0:0:0:
358,108,238627,6,0,P|320:79|244:85,1,121.000003692627,0|2,3:2|0:0,0:0:0:0:
179,150,238888,1,0,0:0:0:0:
179,162,238976,2,0,L|186:230,1,60.5000018463135,8|0,3:2|0:0,0:0:0:0:
287,156,239150,1,2,0:0:0:0:
68,52,239324,6,0,L|50:181,1,121.000003692627,0|2,3:0|0:0,0:0:0:0:
71,274,239586,1,0,0:0:0:0:
75,285,239673,2,0,L|156:304,1,60.5000018463135,8|0,3:2|0:0,0:0:0:0:
250,190,239848,2,0,L|191:203,1,60.5000018463135,2|0,0:2|0:0,0:0:0:0:
211,366,240022,6,0,L|336:338,1,121.000003692627,0|2,3:2|0:0,0:0:0:0:
435,311,240284,1,0,0:0:0:0:
446,307,240371,2,0,P|465:247|422:167,1,121.000003692627,8|2,3:2|0:0,0:0:0:0:
225,85,240720,5,0,3:0:0:0:
98,237,240894,1,2,0:0:0:0:
109,250,240981,2,0,L|182:262,1,60.5000018463135,0|8,0:0|3:2,0:0:0:0:
295,205,241156,1,0,0:0:0:0:
284,192,241243,2,0,L|211:180,1,60.5000018463135,2|0,0:0|0:2,0:0:0:0:
25,157,241418,6,0,L|1:287,1,121.000003692627,0|2,3:0|0:0,0:0:0:0:
98,344,241679,1,0,0:0:0:0:
110,346,241766,2,0,L|98:276,1,60.5000018463135,8|0,3:2|0:0,0:0:0:0:
147,168,241941,1,2,0:0:0:0:
363,304,242115,6,0,P|313:338|240:323,1,121.000003692627,0|2,3:0|0:0,0:0:0:0:
271,117,242464,1,8,3:2:0:0:
280,106,242551,2,0,L|397:118,1,60.5000018463135,0|2,0:0|0:0,0:0:0:0:
480,187,242726,5,0,0:2:0:0:
475,198,242813,2,0,L|352:212,1,121.000003692627,0|2,3:0|0:0,0:0:0:0:
107,150,243162,2,0,P|130:211|139:277,1,121.000003692627,8|2,3:2|0:0,0:0:0:0:
354,384,243511,2,0,L|359:313,1,60.5000018463135,0|0,3:0|0:0,0:0:0:0:
365,238,243685,1,2,0:0:0:0:
103,335,243859,5,8,0:0:0:0:
151,342,243947,1,8,0:0:0:0:
194,321,244034,1,8,0:0:0:0:
216,278,244121,1,8,0:0:0:0:
213,229,244208,6,0,L|189:89,1,121.000003692627,4|2,3:2|0:0,0:0:0:0:
268,30,244470,1,0,0:0:0:0:
276,25,244557,2,0,P|309:25|342:44,1,60.5000018463135,8|0,3:2|0:0,0:0:0:0:
391,126,244731,1,2,0:0:0:0:
158,19,244906,6,0,L|24:8,1,121.000003692627,0|2,3:0|0:0,0:0:0:0:
2,112,245168,1,0,0:0:0:0:
8,127,245255,2,0,L|116:118,1,60.5000018463135,8|2,3:2|0:0,0:0:0:0:
192,109,245429,1,2,0:0:0:0:
0,263,245604,5,0,3:0:0:0:
136,164,245778,1,2,0:0:0:0:
135,176,245865,1,0,0:0:0:0:
133,186,245952,2,0,L|120:268,1,60.5000018463135,8|0,3:2|0:0,0:0:0:0:
108,333,246126,1,2,0:0:0:0:
250,179,246301,5,0,3:0:0:0:
390,256,246476,1,2,0:0:0:0:
378,257,246563,1,0,0:0:0:0:
368,259,246650,2,0,L|286:272,1,60.5000018463135,8|0,3:2|0:0,0:0:0:0:
221,284,246824,1,2,0:0:0:0:
195,89,246999,5,0,3:0:0:0:
355,169,247173,1,2,0:0:0:0:
356,157,247260,1,0,0:0:0:0:
358,147,247347,2,0,L|371:65,1,60.5000018463135,8|0,3:2|0:0,0:0:0:0:
383,0,247521,1,2,0:0:0:0:
219,175,247697,5,0,3:0:0:0:
307,0,247871,1,2,0:0:0:0:
295,1,247958,1,0,0:0:0:0:
285,3,248045,2,0,L|203:16,1,60.5000018463135,8|0,3:2|0:0,0:0:0:0:
138,28,248219,1,2,0:0:0:0:
245,250,248394,5,0,3:0:0:0:
66,122,248569,1,2,0:0:0:0:
78,123,248656,1,0,0:0:0:0:
88,125,248743,2,0,L|170:138,1,60.5000018463135,8|0,3:2|0:0,0:0:0:0:
235,150,248917,1,2,0:0:0:0:
157,377,249092,5,0,3:0:0:0:
146,378,249179,1,0,0:0:0:0:
131,375,249266,2,0,P|123:341|123:298,1,60.5000018463135,2|0,0:0|0:0,0:0:0:0:
238,223,249441,2,0,P|212:246|175:268,1,60.5000018463135,8|0,3:2|0:0,0:0:0:0:
59,206,249615,2,0,P|92:216|129:237,1,60.5000018463135,2|0,0:0|0:0,0:0:0:0:
247,384,249790,6,0,L|237:313,1,60.5000018463135,0|0,3:0|0:0,0:0:0:0:
317,266,249964,2,0,L|325:325,1,60.5000018463135,2|0,0:0|0:0,0:0:0:0:
255,373,250138,6,0,L|245:302,1,60.5000018463135,8|0,3:2|0:0,0:0:0:0:
325,255,250312,2,0,L|333:314,1,60.5000018463135,2|0,0:0|0:0,0:0:0:0:
263,364,250487,6,0,L|253:293,1,60.5000018463135,0|0,3:0|0:0,0:0:0:0:
333,246,250661,2,0,L|341:305,1,60.5000018463135,2|0,0:0|0:0,0:0:0:0:
271,353,250835,6,0,L|261:282,1,60.5000018463135,8|0,3:2|0:0,0:0:0:0:
341,235,251011,2,0,L|349:294,1,60.5000018463135,2|0,0:0|0:0,0:0:0:0:
179,325,251185,6,0,L|189:254,1,60.5000018463135,0|0,3:0|0:0,0:0:0:0:
109,207,251359,2,0,L|101:266,1,60.5000018463135,2|0,0:0|0:0,0:0:0:0:
171,314,251533,6,0,L|181:243,1,60.5000018463135,8|0,3:2|0:0,0:0:0:0:
101,196,251707,2,0,L|93:255,1,60.5000018463135,2|0,0:0|0:0,0:0:0:0:
163,305,251882,6,0,L|173:234,1,60.5000018463135,0|0,3:0|0:0,0:0:0:0:
93,187,252056,2,0,L|85:246,1,60.5000018463135,2|0,0:0|0:0,0:0:0:0:
155,294,252231,6,0,L|164:226,1,60.5000018463135,8|0,3:2|0:0,0:0:0:0:
85,176,252406,2,0,L|77:235,1,60.5000018463135,2|0,0:0|0:0,0:0:0:0:
231,351,252580,5,0,3:0:0:0:
274,372,252668,1,0,0:0:0:0:
322,369,252755,1,2,0:0:0:0:
359,339,252842,1,0,0:0:0:0:
377,294,252929,2,0,L|365:222,1,60.5000018463135,8|0,3:2|0:0,0:0:0:0:
257,154,253104,2,0,L|247:213,1,60.5000018463135,2|0,0:0|0:0,0:0:0:0:
452,329,253278,5,0,3:0:0:0:
457,281,253365,1,0,0:0:0:0:
463,233,253452,1,2,0:0:0:0:
468,184,253540,1,0,0:0:0:0:
474,136,253627,2,0,L|408:125,1,60.5000018463135,8|0,3:2|0:0,0:0:0:0:
269,226,253801,2,0,L|328:235,1,60.5000018463135,2|0,0:0|0:0,0:0:0:0:
334,52,253976,5,0,0:0:0:0:
294,36,254063,1,0,0:0:0:0:
258,40,254150,1,0,0:0:0:0:
233,57,254237,1,0,0:0:0:0:
215,73,254324,1,2,0:0:0:0:
197,79,254412,1,0,0:0:0:0:
178,78,254499,1,0,0:0:0:0:
166,73,254586,1,0,0:0:0:0:
156,65,254673,6,0,L|148:16,2,49.4999984893799
286,123,255022,2,0,L|271:228,1,98.9999969787599
57,327,255371,6,0,L|44:220,1,98.9999969787599,0|0,3:0|0:0,0:0:0:0:
96,158,255633,1,0,0:0:0:0:
103,150,255720,2,0,P|161:147|209:181,1,98.9999969787599,8|0,3:2|0:0,0:0:0:0:
320,291,256069,5,0,3:0:0:0:
202,310,256243,1,0,0:0:0:0:
320,291,256418,1,8,3:2:0:0:
202,310,256592,1,0,0:0:0:0:
392,361,256766,5,0,3:0:0:0:
324,211,256941,1,0,0:0:0:0:
315,202,257028,1,0,0:0:0:0:
303,198,257115,2,0,P|250:197|203:231,1,98.9999969787599,8|0,3:2|0:0,0:0:0:0:
63,350,257464,5,0,3:0:0:0:
44,232,257638,1,0,0:0:0:0:
63,350,257813,1,8,3:2:0:0:
44,232,257987,1,0,0:0:0:0:
194,355,258162,6,0,L|314:342,1,98.9999969787599,0|0,3:0|0:0,0:0:0:0:
367,286,258423,1,0,0:0:0:0:
374,277,258511,2,0,P|388:226|367:164,1,98.9999969787599,8|0,3:2|0:0,0:0:0:0:
220,100,258859,5,0,3:0:0:0:
338,81,259033,1,0,0:0:0:0:
220,100,259208,1,8,3:2:0:0:
338,81,259382,1,0,0:0:0:0:
155,39,259557,5,0,0:0:0:0:
301,160,259731,1,0,0:0:0:0:
310,166,259819,1,0,0:0:0:0:
319,169,259906,2,0,P|356:170|409:133,1,98.9999969787599,8|0,3:2|0:0,0:0:0:0:
198,114,260255,5,0,3:0:0:0:
217,232,260429,1,0,0:0:0:0:
198,114,260604,1,8,3:2:0:0:
217,232,260778,1,0,0:0:0:0:
232,35,260952,6,0,P|185:28|128:59,1,98.9999969787599,0|0,3:0|0:0,0:0:0:0:
106,124,261214,1,0,0:0:0:0:
101,137,261301,2,0,L|119:250,1,98.9999969787599,8|0,3:2|0:0,0:0:0:0:
273,363,261650,5,0,3:0:0:0:
155,344,261824,1,0,0:0:0:0:
273,363,261999,1,8,3:2:0:0:
155,344,262173,1,0,0:0:0:0:
310,229,262348,5,0,3:0:0:0:
448,363,262522,1,0,0:0:0:0:
437,367,262609,1,0,0:0:0:0:
426,364,262697,2,0,P|444:296|459:246,1,98.9999969787599,8|0,3:2|0:0,0:0:0:0:
423,91,263045,5,0,3:0:0:0:
493,187,263219,1,0,0:0:0:0:
423,91,263394,1,8,3:2:0:0:
493,187,263568,1,0,0:0:0:0:
323,105,263743,6,0,L|217:120,1,98.9999969787599,0|0,3:0|0:0,0:0:0:0:
197,212,264005,1,0,0:0:0:0:
207,219,264092,2,0,L|305:205,1,98.9999969787599,8|0,3:2|0:0,0:0:0:0:
177,44,264441,5,0,3:0:0:0:
139,157,264615,1,0,0:0:0:0:
177,44,264790,1,8,3:2:0:0:
139,157,264964,1,0,0:0:0:0:
84,0,265138,5,0,3:0:0:0:
237,129,265313,1,0,0:0:0:0:
245,137,265400,1,0,0:0:0:0:
251,149,265487,2,0,L|233:251,1,98.9999969787599,8|0,3:2|0:0,0:0:0:0:
33,272,265836,5,0,3:0:0:0:
146,310,266010,1,0,0:0:0:0:
33,272,266185,1,8,3:2:0:0:
146,310,266359,1,0,0:0:0:0:
4,175,266534,6,0,P|15:117|31:75,1,98.9999969787599,4|0,3:2|0:0,0:0:0:0:
124,37,266795,1,0,0:0:0:0:
134,31,266883,2,0,L|243:41,1,98.9999969787599,8|0,3:2|0:0,0:0:0:0:
403,119,267231,5,0,3:0:0:0:
365,6,267405,1,0,0:0:0:0:
403,119,267580,1,8,3:2:0:0:
365,6,267754,1,0,0:0:0:0:
318,182,267929,5,0,3:0:0:0:
469,44,268104,1,0,0:0:0:0:
475,50,268191,1,0,0:0:0:0:
482,58,268278,2,0,L|505:170,1,98.9999969787599,8|0,3:2|0:0,0:0:0:0:
362,286,268627,5,0,3:0:0:0:
475,324,268801,1,0,0:0:0:0:
362,286,268976,1,8,3:2:0:0:
475,324,269150,1,0,0:0:0:0:
346,201,269324,6,0,P|306:215|275:292,1,98.9999969787599,0|0,3:0|0:0,0:0:0:0:
309,351,269586,1,0,0:0:0:0:
304,361,269673,2,0,L|186:367,1,98.9999969787599,8|0,3:2|0:0,0:0:0:0:
64,247,270022,5,0,3:0:0:0:
177,285,270196,1,0,0:0:0:0:
64,247,270371,1,8,3:2:0:0:
177,285,270545,1,0,0:0:0:0:
11,375,270720,5,0,3:0:0:0:
3,189,270894,1,0,0:0:0:0:
9,180,270981,1,0,0:0:0:0:
15,173,271069,2,0,L|122:157,1,98.9999969787599,8|0,3:2|0:0,0:0:0:0:
279,48,271418,5,0,3:0:0:0:
166,10,271592,1,0,0:0:0:0:
279,48,271767,1,8,3:2:0:0:
166,10,271941,1,0,0:0:0:0:
313,160,272115,6,0,L|421:144,1,98.9999969787599,0|0,3:0|0:0,0:0:0:0:
468,226,272377,1,0,0:0:0:0:
464,238,272464,2,0,L|366:252,1,98.9999969787599,8|0,3:2|0:0,0:0:0:0:
253,90,272813,5,0,3:0:0:0:
215,203,272987,1,0,0:0:0:0:
253,90,273162,1,8,3:2:0:0:
215,203,273336,1,0,0:0:0:0:
345,60,273511,5,0,3:0:0:0:
132,106,273685,1,0,0:0:0:0:
122,116,273772,1,0,0:0:0:0:
113,125,273859,2,0,L|128:232,1,98.9999969787599,8|0,3:2|0:0,0:0:0:0:
318,277,274208,5,0,3:0:0:0:
280,164,274382,1,0,0:0:0:0:
318,277,274557,1,8,3:2:0:0:
280,164,274731,1,0,0:0:0:0:
282,360,274906,6,0,P|332:365|388:329,1,98.9999969787599,0|0,3:0|0:0,0:0:0:0:
457,285,275168,1,0,0:0:0:0:
452,276,275255,2,0,P|444:221|441:166,1,98.9999969787599,8|0,3:2|0:0,0:0:0:0:
399,0,275604,5,0,3:0:0:0:
512,38,275778,1,0,0:0:0:0:
399,0,275953,1,8,3:2:0:0:
512,38,276127,1,0,0:0:0:0:
352,121,276301,6,0,L|275:108,1,76.9999976501466,0|0,3:0|0:0,0:0:0:0:
262,115,276563,1,0,0:0:0:0:
248,122,276650,1,0,0:0:0:0:
337,284,276999,2,0,L|348:202,1,76.9999976501466
260,206,277348,2,0,L|249:282,1,76.9999976501466
422,342,277697,6,0,L|433:244,1,88,4|0,3:2|0:0,0:0:0:0:
510,203,277958,1,0,0:0:0:0:
507,189,278045,2,0,L|496:91,1,88,8|0,3:2|0:0,0:0:0:0:
324,108,278394,2,0,P|363:130|419:125,1,88,0|0,3:0|0:0,0:0:0:0:
433,21,278743,2,0,P|394:-1|338:4,1,88,8|0,3:2|0:0,0:0:0:0:
216,113,279092,6,0,L|229:206,1,88,0|0,3:0|0:0,0:0:0:0:
180,277,279354,1,0,0:0:0:0:
175,287,279441,2,0,P|137:297|83:286,1,88,8|0,3:2|0:0,0:0:0:0:
43,119,279790,2,0,L|140:106,1,88,0|0,3:0|0:0,0:0:0:0:
255,0,280138,2,0,L|352:13,1,88,8|0,3:2|0:0,0:0:0:0:
409,74,280400,5,0,0:0:0:0:
417,84,280487,2,0,L|431:187,1,88,0|0,3:0|0:0,0:0:0:0:
372,237,280749,1,0,0:0:0:0:
366,246,280836,2,0,P|324:252|274:233,1,88,8|0,3:2|0:0,0:0:0:0:
108,203,281185,2,0,P|154:181|202:188,1,88,0|0,3:0|0:0,0:0:0:0:
218,299,281534,2,0,P|172:321|124:314,1,88,8|0,3:2|0:0,0:0:0:0:
16,230,281883,6,0,L|26:132,1,88,0|0,3:0|0:0,0:0:0:0:
105,104,282144,1,0,0:0:0:0:
116,96,282231,2,0,L|101:3,1,88,8|0,3:2|0:0,0:0:0:0:
229,122,282580,2,0,P|281:118|321:87,1,88,0|0,3:0|0:0,0:0:0:0:
386,7,282929,2,0,L|410:104,1,88,8|0,3:2|0:0,0:0:0:0:
476,146,283191,5,0,0:0:0:0:
483,156,283278,2,0,L|459:253,1,88,0|0,3:0|0:0,0:0:0:0:
361,272,283540,1,0,0:0:0:0:
356,261,283627,2,0,L|377:175,1,88,8|0,3:2|0:0,0:0:0:0:
237,93,283976,2,0,L|135:109,1,88,0|0,3:0|0:0,0:0:0:0:
166,218,284324,2,0,L|252:204,1,88,8|0,3:2|0:0,0:0:0:0:
285,20,284673,6,0,L|194:6,1,88,0|0,3:0|0:0,0:0:0:0:
108,44,284935,1,0,0:0:0:0:
95,50,285022,2,0,P|72:91|84:154,1,88,8|0,3:2|0:0,0:0:0:0:
188,237,285371,2,0,L|202:331,1,88,0|0,3:0|0:0,0:0:0:0:
96,324,285720,2,0,L|83:236,1,88,8|0,3:2|0:0,0:0:0:0:
135,170,285981,5,0,0:0:0:0:
140,157,286069,2,0,P|186:143|243:163,1,88,0|0,3:0|0:0,0:0:0:0:
278,214,286330,1,0,0:0:0:0:
287,221,286418,2,0,L|385:210,1,88,8|0,3:2|0:0,0:0:0:0:
493,73,286766,2,0,L|507:164,1,88,0|0,3:0|0:0,0:0:0:0:
381,116,287115,2,0,L|367:29,1,88,8|0,3:2|0:0,0:0:0:0:
171,135,287464,6,0,P|214:158|262:154,1,88,0|0,3:0|0:0,0:0:0:0:
284,65,287726,1,0,0:0:0:0:
281,52,287813,2,0,P|238:29|190:33,1,88,8|0,3:2|0:0,0:0:0:0:
62,168,288162,2,0,L|43:67,1,88,0|0,3:0|0:0,0:0:0:0:
171,135,288511,2,0,L|187:221,1,88,8|0,3:2|0:0,0:0:0:0:
336,302,288859,6,0,P|401:320|485:266,1,148.49999546814,12|0,3:2|0:0,0:0:0:0:
454,138,289208,2,0,P|388:119|304:173,1,148.49999546814,8|0,3:2|0:0,0:0:0:0:
336,320,289557,2,0,P|401:338|467:305,1,98.9999969787599,8|0,3:2|0:0,0:0:0:0:
456,119,289906,1,8,3:2:0:0:
247,138,290080,5,8,0:0:0:0:
240,147,290168,1,8,0:0:0:0:
231,157,290255,2,0,L|215:315,1,148.49999546814,8|0,3:2|0:0,0:0:0:0:
68,328,290604,2,0,L|82:180,1,148.49999546814,8|0,3:2|0:0,0:0:0:0:
248,154,290952,2,0,L|236:266,1,98.9999969787599,8|0,3:2|0:0,0:0:0:0:
51,335,291301,1,8,3:2:0:0:
169,113,291476,5,8,0:0:0:0:
177,104,291563,1,8,0:0:0:0:
185,94,291650,2,0,B|226:63|226:63|337:88,1,148.49999546814,8|0,3:2|0:0,0:0:0:0:
366,227,291999,2,0,B|325:258|325:258|214:233,1,148.49999546814,8|0,3:2|0:0,0:0:0:0:
177,77,292348,2,0,B|218:46|218:46|308:65,1,98.9999969787599,8|0,3:2|0:0,0:0:0:0:
378,240,292697,1,8,3:2:0:0:
98,329,292871,5,8,0:0:0:0:
85,320,292958,1,8,0:0:0:0:
73,312,293045,2,0,B|58:226|58:226|53:184|93:167,1,148.49999546814,8|0,3:2|0:0,0:0:0:0:
231,178,293394,2,0,B|246:264|246:264|251:306|211:323,1,148.49999546814,8|0,3:2|0:0,0:0:0:0:
55,307,293743,2,0,B|40:221|40:221|38:209,1,98.9999969787599,8|0,3:2|0:0,0:0:0:0:
240,162,294092,1,8,3:2:0:0:
310,359,294266,5,8,0:0:0:0:
321,357,294354,1,8,0:0:0:0:
331,356,294441,2,0,L|398:350,1,49.4999984893799,8|0,3:2|0:0,0:0:0:0:
397,255,294615,2,0,L|347:259,1,49.4999984893799,8|0,0:2|0:0,0:0:0:0:
338,344,294790,6,0,L|405:338,1,49.4999984893799,8|0,3:2|0:0,0:0:0:0:
404,243,294964,2,0,L|354:247,1,49.4999984893799,8|0,0:2|0:0,0:0:0:0:
345,332,295138,6,0,L|412:326,1,49.4999984893799,8|0,3:2|0:0,0:0:0:0:
411,231,295313,2,0,L|361:235,1,49.4999984893799,8|0,0:2|0:0,0:0:0:0:
352,320,295487,6,0,L|419:314,1,49.4999984893799,8|0,3:2|0:0,0:0:0:0:
418,219,295662,2,0,L|368:223,1,49.4999984893799,8|0,0:2|0:0,0:0:0:0:
220,243,295836,6,0,L|228:182,1,49.4999984893799,8|0,3:2|0:0,0:0:0:0:
315,114,296011,2,0,L|308:163,1,49.4999984893799,8|0,0:0|0:0,0:0:0:0:
204,248,296185,6,0,L|212:187,1,49.4999984893799,8|0,3:2|0:0,0:0:0:0:
299,119,296360,2,0,L|292:168,1,49.4999984893799,8|0,0:0|0:0,0:0:0:0:
188,253,296534,6,0,L|196:192,1,49.4999984893799,8|0,3:2|0:0,0:0:0:0:
283,124,296709,2,0,L|276:173,1,49.4999984893799,8|0,0:0|0:0,0:0:0:0:
172,258,296883,6,0,L|180:197,1,49.4999984893799,8|0,3:2|0:0,0:0:0:0:
267,129,297058,2,0,L|260:178,1,49.4999984893799,8|0,0:0|0:0,0:0:0:0:
195,344,297231,5,0,3:2:0:0:
205,333,297319,1,0,0:0:0:0:
221,322,297406,1,0,0:0:0:0:
245,318,297493,1,0,0:0:0:0:
274,323,297580,1,8,3:2:0:0:
304,339,297668,1,0,0:0:0:0:
336,361,297755,1,0,0:0:0:0:
378,373,297842,1,0,0:0:0:0:
425,360,297929,5,0,3:0:0:0:
461,319,298016,1,0,0:0:0:0:
459,259,298104,1,0,0:0:0:0:
421,207,298191,1,0,0:0:0:0:
351,202,298278,2,0,L|289:213,1,49.4999984893799,8|0,3:2|0:0,0:0:0:0:
196,326,298452,2,0,L|244:317,1,49.4999984893799
395,126,298627,6,0,L|355:120,1,32.99999899292
250,129,298801,2,0,L|282:133,2,32.99999899292
313,59,299150,1,0,0:0:0:0:
234,208,299324,5,0,0:0:0:0:
221,210,299411,1,0,0:0:0:0:
207,212,299499,1,0,0:0:0:0:
194,214,299586,1,0,0:0:0:0:
181,216,299673,1,0,0:0:0:0:
117,162,299848,1,0,0:0:0:0:
191,311,300022,6,0,B|226:281|283:289|315:323|315:323|358:393|485:396|567:240|413:149|348:203,1,528.000012890625,4|0,3:2|0:0,0:0:0:0:
