osu file format v14

[General]
AudioFilename: audio.mp3
AudioLeadIn: 0
PreviewTime: 64808
Countdown: 1
SampleSet: Soft
StackLeniency: 0.7
Mode: 0
LetterboxInBreaks: 0
WidescreenStoryboard: 1

[Editor]
Bookmarks: 13549,17105,21105,33105,43994,50882,63327,65105,71994,75771,77549,79327,81105,84660,88660
DistanceSpacing: 1
BeatDivisor: 4
GridSize: 4
TimelineZoom: 1.2

[Metadata]
Title:Aozora no Rhapsody (TV Size)
TitleUnicode:Aozora no Rhapsody (TV Size)
Artist:fhana
ArtistUnicode:fhana
Creator:Epiclol
Version:Easy
Source:
Tags:Kobayashi-san Chi no Maid Dragon DylanSan XFroceS
BeatmapID:1251216
BeatmapSetID:586377

[Difficulty]
HPDrainRate:3
CircleSize:3
OverallDifficulty:2
ApproachRate:3
SliderMultiplier:1
SliderTickRate:2

[Events]
//Background and Video events
0,0,"A.jpg",0,0
//Break Periods
//Storyboard Layer 0 (Background)
//Storyboard Layer 1 (Fail)
//Storyboard Layer 2 (Pass)
//Storyboard Layer 3 (Foreground)
//Storyboard Sound Samples

[TimingPoints]
1080.20842723149,444.444444444444,4,2,0,60,1,0
13524,-100,4,2,0,80,0,0
17080,-100,4,2,0,60,0,0
35524,-100,4,2,0,60,0,0
36635,-100,4,2,0,60,0,0
39080,-100,4,2,0,60,0,0
40191,-100,4,2,0,60,0,0
45524,-100,4,2,0,80,0,0
50857,-100,4,2,0,80,0,1
56191,-100,4,2,0,80,0,1
57302,-100,4,2,0,80,0,1
63302,-100,4,2,0,80,0,0
65080,-100,4,2,0,80,0,1
70413,-100,4,2,0,80,0,1
71746,-100,4,2,0,80,0,1
75746,-100,4,2,0,80,0,0
81080,-100,4,2,0,80,0,0
84635,-100,4,2,0,80,0,0
88635,-100,4,2,0,80,0,0

[Colours]
Combo1 : 79,79,255
Combo2 : 255,143,32
Combo3 : 174,94,255
Combo4 : 220,251,0

[HitObjects]
64,280,1080,6,0,P|120:292|176:280,1,100
248,340,1969,2,0,P|260:280|248:232,1,100
200,156,2857,1,0,0:0:0:0:
108,116,3302,1,0,0:0:0:0:
108,216,3746,1,0,0:0:0:0:
24,272,4191,6,0,P|12:212|24:160,1,100
0,76,5080,2,0,L|104:84,1,100
200,100,5969,1,0,0:0:0:0:
276,36,6413,2,0,P|296:88|288:152,2,100
200,100,7746,6,0,P|200:160|236:204,1,100
311,235,8635,2,0,P|271:283|223:291,1,100
146,248,9524,1,0,0:0:0:0:
84,326,9968,1,0,0:0:0:0:
56,232,10413,2,0,P|84:180|120:160,1,100
84,68,11302,6,0,L|200:80,1,100
284,88,12191,1,0,0:0:0:0:
372,44,12635,1,0,0:0:0:0:
396,140,13080,1,0,0:0:0:0:
344,225,13524,6,0,P|308:189|296:137,1,100
212,198,14413,2,0,L|97:202,1,100
63,289,15302,6,0,L|162:285,1,100
241,347,16191,2,0,P|255:284|284:252,1,100
332,174,17080,6,0,L|223:168,1,100
154,104,17969,1,0,0:0:0:0:
104,190,18413,1,0,0:0:0:0:
49,106,18857,1,0,0:0:0:0:
154,104,19302,6,0,L|253:98,1,100
344,54,20191,2,0,B|368:154|304:154|344:266,1,200
252,296,21524,2,0,B|192:276|108:296|108:296|136:272|140:240,1,200
116,152,22857,1,0,0:0:0:0:
48,224,23302,1,0,0:0:0:0:
20,128,23746,6,0,P|44:84|92:56,1,100
176,96,24635,1,0,0:0:0:0:
260,40,25080,1,0,0:0:0:0:
344,96,25524,1,0,0:0:0:0:
440,72,25969,2,0,P|440:128|412:172,1,100
448,260,26857,6,0,P|356:292|252:260,1,200
164,296,28191,2,0,B|176:232|164:216|128:184|128:164|148:136|188:136|204:160|184:192,1,200
264,108,29524,6,0,P|224:72|164:60,1,100
88,28,30413,2,0,L|96:148,1,100
13,187,31302,6,0,P|51:222|111:226,1,100
190,191,32191,1,0,0:0:0:0:
234,280,32635,1,0,0:0:0:0:
314,340,33080,6,0,B|355:273|302:207|302:207|342:192|359:163,1,200
448,85,34413,2,0,L|322:66,1,100
208,17,35524,6,0,P|181:66|300:184,1,250
389,154,37080,6,0,L|382:266,1,100
290,291,37969,2,0,P|238:284|180:294,1,100
41,295,39080,6,0,P|20:248|152:155,1,250
228,91,40635,6,0,L|233:191,1,100
179,275,41524,2,0,P|236:286|295:269,1,100
343,243,42302,1,0,0:0:0:0:
386,181,42635,2,0,P|374:128|273:91,1,150
217,151,43746,6,0,L|187:46,2,100
251,240,45080,1,0,0:0:0:0:
175,308,45524,6,0,P|154:256|163:197,1,100
217,151,46413,2,0,P|246:193|251:243,1,100
351,248,47302,6,0,L|455:230,1,100
487,138,48191,2,0,L|388:155,1,100
256,192,48969,12,0,50413,0:0:0:0:
97,276,50857,6,0,B|125:290|125:290|144:278|144:278|205:277,1,100
276,327,51746,2,0,P|288:269|274:226,1,100
217,150,52635,1,0,0:0:0:0:
128,196,53080,1,0,0:0:0:0:
29,178,53524,2,0,P|21:119|41:76,1,100
132,57,54413,6,0,B|186:69|186:69|240:65,1,100
319,19,55302,2,0,P|329:70|314:122,1,100
243,183,56191,6,0,P|239:240|405:211,1,300
466,139,57969,6,0,L|356:129,1,100
266,120,58857,1,0,0:0:0:0:
190,185,59302,1,0,0:0:0:0:
103,135,59746,2,0,P|91:192|108:245,1,100
53,320,60635,2,0,L|167:313,1,100
244,274,61524,5,0,0:0:0:0:
327,329,61969,2,0,P|342:267|327:220,1,100
262,163,62857,1,0,0:0:0:0:
179,220,63302,6,0,P|163:166|173:114,1,100
114,39,64191,2,0,P|168:23|220:33,1,100
299,70,65080,6,0,L|255:180,1,100
196,238,65969,2,0,P|251:261|309:253,1,100
378,211,66857,2,0,P|388:265|371:321,1,100
290,258,67746,1,0,0:0:0:0:
203,308,68191,1,0,0:0:0:0:
113,352,68635,6,0,P|104:293|120:250,1,100
80,162,69524,2,0,L|187:176,1,100
270,133,70413,2,0,B|290:65|357:54|398:70|427:100|436:145|436:145|463:111|511:118,1,300
494,216,72191,6,0,P|454:233|391:222,1,100
299,213,73080,2,0,P|303:260|338:305,1,100
399,226,73969,1,0,0:0:0:0:
475,162,74413,1,0,0:0:0:0:
399,96,74857,1,0,0:0:0:0:
203,52,75746,6,0,L|212:160,1,100
218,251,76635,1,0,0:0:0:0:
126,209,77080,1,0,0:0:0:0:
211,151,77524,6,0,L|317:146,1,100
410,133,78413,1,0,0:0:0:0:
351,52,78857,1,0,0:0:0:0:
310,146,79302,6,0,L|323:257,1,100
333,344,80191,1,0,0:0:0:0:
415,286,80635,1,0,0:0:0:0:
321,245,81080,6,0,P|273:259|223:255,1,100
137,305,81969,2,0,P|127:254|142:201,1,100
97,116,82857,2,0,P|153:109|199:124,1,100
286,82,83746,2,0,P|294:133|275:187,1,100
224,261,84635,5,0,0:0:0:0:
138,208,85080,1,0,0:0:0:0:
46,168,85524,2,0,P|41:223|57:267,1,100
8,353,86413,2,0,L|120:344,1,100
207,335,87302,1,0,0:0:0:0:
254,247,87746,1,0,0:0:0:0:
442,312,88635,6,0,P|460:257|434:208,1,100
