osu file format v14

[General]
AudioFilename: audio.mp3
AudioLeadIn: 0
PreviewTime: 54071
Countdown: 0
SampleSet: Soft
StackLeniency: 0.7
Mode: 3
LetterboxInBreaks: 0
SpecialStyle: 0
WidescreenStoryboard: 1

[Editor]
DistanceSpacing: 2
BeatDivisor: 4
GridSize: 32
TimelineZoom: 2.1

[Metadata]
Title:Aozora no Rhapsody
TitleUnicode:青空のラプソディ
Artist:fhana
ArtistUnicode:fhána
Creator:Lari
Version:Ruu
Source:小林さんちのメイドラゴン
Tags:Kobayashi Maid Dragon
BeatmapID:1221538
BeatmapSetID:577082

[Difficulty]
HPDrainRate:0
CircleSize:4
OverallDifficulty:0
ApproachRate:5
SliderMultiplier:1.4
SliderTickRate:1

[Events]
//Background and Video events
0,0,"rbf.jpg",0,0
//Break Periods
//Storyboard Layer 0 (Background)
//Storyboard Layer 1 (Fail)
//Storyboard Layer 2 (Pass)
//Storyboard Layer 3 (Foreground)
//Storyboard Sound Samples

[TimingPoints]
3960,444.444444444444,4,2,0,5,1,0
4404,444.444444444444,4,2,0,5,1,0

[HitObjects]
320,192,3960,5,0,0:0:0:0:
320,192,4182,1,0,0:0:0:0:
448,192,4404,1,0,0:0:0:0:
192,192,4404,1,0,0:0:0:0:
64,192,4404,1,0,0:0:0:0:
320,192,4515,1,0,0:0:0:0:
192,192,4626,1,0,0:0:0:0:
64,192,4737,1,0,0:0:0:0:
448,192,4848,1,0,0:0:0:0:
320,192,4848,1,0,0:0:0:0:
64,192,4959,1,0,0:0:0:0:
320,192,5070,1,0,0:0:0:0:
192,192,5181,1,0,0:0:0:0:
448,192,5292,1,0,0:0:0:0:
64,192,5292,1,0,0:0:0:0:
320,192,5403,1,0,0:0:0:0:
64,192,5515,1,0,0:0:0:0:
192,192,5626,1,0,0:0:0:0:
320,192,5737,1,0,0:0:0:0:
448,192,5737,1,0,0:0:0:0:
64,192,5848,1,0,0:0:0:0:
192,192,5959,1,0,0:0:0:0:
320,192,6070,1,0,0:0:0:0:
192,192,6181,1,0,0:0:0:0:
64,192,6181,1,0,0:0:0:0:
448,192,6181,1,0,0:0:0:0:
320,192,6292,1,0,0:0:0:0:
64,192,6403,1,0,0:0:0:0:
192,192,6515,1,0,0:0:0:0:
320,192,6626,1,0,0:0:0:0:
448,192,6626,1,0,0:0:0:0:
64,192,6737,1,0,0:0:0:0:
448,192,6848,1,0,0:0:0:0:
320,192,6959,1,0,0:0:0:0:
192,192,7070,1,0,0:0:0:0:
64,192,7070,1,0,0:0:0:0:
448,192,7181,1,0,0:0:0:0:
192,192,7292,1,0,0:0:0:0:
64,192,7292,1,0,0:0:0:0:
320,192,7403,1,0,0:0:0:0:
448,192,7515,1,0,0:0:0:0:
192,192,7515,1,0,0:0:0:0:
320,192,7626,1,0,0:0:0:0:
64,192,7737,1,0,0:0:0:0:
192,192,7848,1,0,0:0:0:0:
64,192,7959,1,0,0:0:0:0:
448,192,7959,1,0,0:0:0:0:
320,192,7959,1,0,0:0:0:0:
192,192,8070,1,0,0:0:0:0:
448,192,8181,1,0,0:0:0:0:
320,192,8292,1,0,0:0:0:0:
192,192,8403,1,0,0:0:0:0:
448,192,8403,1,0,0:0:0:0:
64,192,8515,1,0,0:0:0:0:
320,192,8626,1,0,0:0:0:0:
192,192,8737,1,0,0:0:0:0:
448,192,8848,1,0,0:0:0:0:
64,192,8848,1,0,0:0:0:0:
320,192,8959,1,0,0:0:0:0:
64,192,9070,1,0,0:0:0:0:
192,192,9181,1,0,0:0:0:0:
448,192,9292,1,0,0:0:0:0:
64,192,9292,1,0,0:0:0:0:
320,192,9403,1,0,0:0:0:0:
448,192,9515,1,0,0:0:0:0:
192,192,9626,1,0,0:0:0:0:
448,192,9737,1,0,0:0:0:0:
320,192,9737,1,0,0:0:0:0:
64,192,9737,1,0,0:0:0:0:
192,192,9848,1,0,0:0:0:0:
448,192,9959,1,0,0:0:0:0:
320,192,10070,1,0,0:0:0:0:
192,192,10181,1,0,0:0:0:0:
64,192,10181,1,0,0:0:0:0:
448,192,10292,1,0,0:0:0:0:
320,192,10403,1,0,0:0:0:0:
192,192,10515,1,0,0:0:0:0:
448,192,10626,1,0,0:0:0:0:
320,192,10626,1,0,0:0:0:0:
64,192,10737,1,0,0:0:0:0:
192,192,10848,1,0,0:0:0:0:
320,192,10959,1,0,0:0:0:0:
64,192,11070,1,0,0:0:0:0:
448,192,11070,1,0,0:0:0:0:
192,192,11181,1,0,0:0:0:0:
64,192,11292,1,0,0:0:0:0:
448,192,11292,1,0,0:0:0:0:
320,192,11403,1,0,0:0:0:0:
448,192,11515,1,0,0:0:0:0:
192,192,11515,1,0,0:0:0:0:
64,192,11515,1,0,0:0:0:0:
320,192,11626,1,0,0:0:0:0:
64,192,11737,1,0,0:0:0:0:
192,192,11848,1,0,0:0:0:0:
320,192,11959,1,0,0:0:0:0:
448,192,11959,1,0,0:0:0:0:
64,192,12070,1,0,0:0:0:0:
192,192,12181,1,0,0:0:0:0:
320,192,12292,1,0,0:0:0:0:
448,192,12403,1,0,0:0:0:0:
64,192,12403,1,0,0:0:0:0:
192,192,12515,1,0,0:0:0:0:
448,192,12626,1,0,0:0:0:0:
192,192,12737,1,0,0:0:0:0:
64,192,12848,1,0,0:0:0:0:
320,192,12848,1,0,0:0:0:0:
192,192,12959,1,0,0:0:0:0:
448,192,13070,1,0,0:0:0:0:
320,192,13181,1,0,0:0:0:0:
448,192,13292,1,0,0:0:0:0:
64,192,13292,1,0,0:0:0:0:
192,192,13292,1,0,0:0:0:0:
320,192,13403,1,0,0:0:0:0:
64,192,13515,1,0,0:0:0:0:
192,192,13626,1,0,0:0:0:0:
320,192,13737,1,0,0:0:0:0:
64,192,13737,1,0,0:0:0:0:
448,192,13848,1,0,0:0:0:0:
64,192,13959,1,0,0:0:0:0:
192,192,14070,1,0,0:0:0:0:
448,192,14181,1,0,0:0:0:0:
320,192,14181,1,0,0:0:0:0:
64,192,14292,1,0,0:0:0:0:
192,192,14403,1,0,0:0:0:0:
320,192,14515,1,0,0:0:0:0:
448,192,14626,1,0,0:0:0:0:
64,192,14626,1,0,0:0:0:0:
192,192,14737,1,0,0:0:0:0:
448,192,14848,1,0,0:0:0:0:
320,192,14959,1,0,0:0:0:0:
64,192,15070,1,0,0:0:0:0:
448,192,15070,1,0,0:0:0:0:
192,192,15070,1,0,0:0:0:0:
320,192,15181,1,0,0:0:0:0:
64,192,15292,1,0,0:0:0:0:
192,192,15292,1,0,0:0:0:0:
448,192,15403,1,0,0:0:0:0:
320,192,15515,1,0,0:0:0:0:
64,192,15515,1,0,0:0:0:0:
192,192,15626,1,0,0:0:0:0:
64,192,15737,1,0,0:0:0:0:
320,192,15737,1,0,0:0:0:0:
448,192,15848,1,0,0:0:0:0:
192,192,15959,1,0,0:0:0:0:
320,192,15959,1,0,0:0:0:0:
64,192,16070,1,0,0:0:0:0:
448,192,16181,1,0,0:0:0:0:
192,192,16181,1,0,0:0:0:0:
320,192,16292,1,0,0:0:0:0:
64,192,16403,1,0,0:0:0:0:
448,192,16403,1,0,0:0:0:0:
320,192,16515,1,0,0:0:0:0:
192,192,16626,1,0,0:0:0:0:
64,192,16626,1,0,0:0:0:0:
320,192,16737,1,0,0:0:0:0:
448,192,16848,1,0,0:0:0:0:
64,192,16848,1,0,0:0:0:0:
192,192,16848,1,0,0:0:0:0:
320,192,16959,1,0,0:0:0:0:
64,192,17181,1,0,0:0:0:0:
448,192,17181,1,0,0:0:0:0:
192,192,17292,1,0,0:0:0:0:
448,192,17292,1,0,0:0:0:0:
64,192,17515,1,0,0:0:0:0:
448,192,17515,1,0,0:0:0:0:
64,192,17626,1,0,0:0:0:0:
320,192,17626,1,0,0:0:0:0:
192,192,17848,1,0,0:0:0:0:
448,192,17848,1,0,0:0:0:0:
64,192,17959,1,0,0:0:0:0:
448,192,17959,1,0,0:0:0:0:
192,192,18181,1,0,0:0:0:0:
320,192,18181,1,0,0:0:0:0:
448,192,18403,1,0,0:0:0:0:
64,192,18403,1,0,0:0:0:0:
320,192,18403,1,0,0:0:0:0:
64,192,18626,1,0,0:0:0:0:
320,192,18626,1,0,0:0:0:0:
448,192,18626,1,0,0:0:0:0:
192,192,18737,1,0,0:0:0:0:
192,192,18848,1,0,0:0:0:0:
320,192,18959,1,0,0:0:0:0:
448,192,18959,1,0,0:0:0:0:
64,192,18959,1,0,0:0:0:0:
192,192,19070,1,0,0:0:0:0:
448,192,19181,1,0,0:0:0:0:
320,192,19292,1,0,0:0:0:0:
64,192,19292,1,0,0:0:0:0:
192,192,19403,1,0,0:0:0:0:
448,192,19515,1,0,0:0:0:0:
320,192,19515,1,0,0:0:0:0:
64,192,19626,1,0,0:0:0:0:
192,192,19626,1,0,0:0:0:0:
320,192,19737,1,0,0:0:0:0:
448,192,19848,1,0,0:0:0:0:
64,192,19959,1,0,0:0:0:0:
192,192,19959,1,0,0:0:0:0:
320,192,19959,1,0,0:0:0:0:
448,192,20181,1,0,0:0:0:0:
320,192,20181,1,0,0:0:0:0:
192,192,20181,1,0,0:0:0:0:
64,192,20403,1,0,0:0:0:0:
192,192,20403,1,0,0:0:0:0:
448,192,20403,1,0,0:0:0:0:
320,192,20515,1,0,0:0:0:0:
64,192,20626,1,0,0:0:0:0:
192,192,20626,1,0,0:0:0:0:
448,192,20737,1,0,0:0:0:0:
320,192,20848,1,0,0:0:0:0:
64,192,20848,1,0,0:0:0:0:
192,192,20959,1,0,0:0:0:0:
448,192,21070,1,0,0:0:0:0:
64,192,21070,1,0,0:0:0:0:
320,192,21181,1,0,0:0:0:0:
192,192,21292,1,0,0:0:0:0:
448,192,21292,1,0,0:0:0:0:
64,192,21403,1,0,0:0:0:0:
320,192,21515,1,0,0:0:0:0:
448,192,21515,1,0,0:0:0:0:
192,192,21626,1,0,0:0:0:0:
64,192,21737,1,0,0:0:0:0:
448,192,21737,1,0,0:0:0:0:
320,192,21848,1,0,0:0:0:0:
64,192,21959,1,0,0:0:0:0:
192,192,21959,1,0,0:0:0:0:
320,192,22070,1,0,0:0:0:0:
64,192,22181,1,0,0:0:0:0:
192,192,22181,1,0,0:0:0:0:
448,192,22181,1,0,0:0:0:0:
320,192,22292,1,0,0:0:0:0:
192,192,22403,1,0,0:0:0:0:
448,192,22403,1,0,0:0:0:0:
320,192,22515,1,0,0:0:0:0:
64,192,22626,1,0,0:0:0:0:
192,192,22626,1,0,0:0:0:0:
448,192,22737,1,0,0:0:0:0:
320,192,22848,1,0,0:0:0:0:
192,192,22848,1,0,0:0:0:0:
448,192,22959,1,0,0:0:0:0:
64,192,23070,1,0,0:0:0:0:
192,192,23070,1,0,0:0:0:0:
320,192,23181,1,0,0:0:0:0:
448,192,23292,1,0,0:0:0:0:
192,192,23292,1,0,0:0:0:0:
64,192,23403,1,0,0:0:0:0:
320,192,23515,1,0,0:0:0:0:
448,192,23515,1,0,0:0:0:0:
192,192,23626,1,0,0:0:0:0:
64,192,23737,1,0,0:0:0:0:
320,192,23848,1,0,0:0:0:0:
64,192,23959,1,0,0:0:0:0:
448,192,23959,1,0,0:0:0:0:
192,192,23959,1,0,0:0:0:0:
320,192,24070,1,0,0:0:0:0:
192,192,24181,1,0,0:0:0:0:
448,192,24181,1,0,0:0:0:0:
64,192,24292,1,0,0:0:0:0:
320,192,24403,1,0,0:0:0:0:
448,192,24403,1,0,0:0:0:0:
64,192,24515,1,0,0:0:0:0:
448,192,24626,1,0,0:0:0:0:
192,192,24626,1,0,0:0:0:0:
320,192,24737,1,0,0:0:0:0:
64,192,24848,1,0,0:0:0:0:
192,192,24848,1,0,0:0:0:0:
448,192,24959,1,0,0:0:0:0:
320,192,25070,1,0,0:0:0:0:
192,192,25070,1,0,0:0:0:0:
448,192,25292,1,0,0:0:0:0:
64,192,25292,1,0,0:0:0:0:
320,192,25515,1,0,0:0:0:0:
192,192,25515,1,0,0:0:0:0:
448,192,25626,1,0,0:0:0:0:
64,192,25626,1,0,0:0:0:0:
64,192,25737,1,0,0:0:0:0:
320,192,25737,1,0,0:0:0:0:
192,192,25848,1,0,0:0:0:0:
64,192,25959,1,0,0:0:0:0:
448,192,25959,1,0,0:0:0:0:
320,192,26070,1,0,0:0:0:0:
64,192,26181,1,0,0:0:0:0:
448,192,26181,1,0,0:0:0:0:
64,192,26292,1,0,0:0:0:0:
320,192,26292,1,0,0:0:0:0:
192,192,26403,1,0,0:0:0:0:
448,192,26403,1,0,0:0:0:0:
64,192,26515,1,0,0:0:0:0:
192,192,26737,1,0,0:0:0:0:
64,192,26848,1,0,0:0:0:0:
320,192,26848,1,0,0:0:0:0:
448,192,26848,1,0,0:0:0:0:
192,192,26959,1,0,0:0:0:0:
64,192,27070,1,0,0:0:0:0:
320,192,27070,1,0,0:0:0:0:
192,192,27181,1,0,0:0:0:0:
448,192,27181,1,0,0:0:0:0:
320,192,27292,1,0,0:0:0:0:
64,192,27403,1,0,0:0:0:0:
192,192,27403,1,0,0:0:0:0:
448,192,27515,1,0,0:0:0:0:
320,192,27515,1,0,0:0:0:0:
64,192,27515,1,0,0:0:0:0:
192,192,27626,1,0,0:0:0:0:
320,192,27737,1,0,0:0:0:0:
448,192,27737,1,0,0:0:0:0:
64,192,27848,1,0,0:0:0:0:
192,192,27959,1,0,0:0:0:0:
448,192,27959,1,0,0:0:0:0:
320,192,28070,1,0,0:0:0:0:
64,192,28181,1,0,0:0:0:0:
448,192,28181,1,0,0:0:0:0:
192,192,28292,1,0,0:0:0:0:
320,192,28403,1,0,0:0:0:0:
448,192,28403,1,0,0:0:0:0:
64,192,28515,1,0,0:0:0:0:
448,192,28626,1,0,0:0:0:0:
192,192,28626,1,0,0:0:0:0:
320,192,28737,1,0,0:0:0:0:
64,192,28848,1,0,0:0:0:0:
448,192,28848,1,0,0:0:0:0:
192,192,28959,1,0,0:0:0:0:
64,192,29070,1,0,0:0:0:0:
448,192,29070,1,0,0:0:0:0:
320,192,29181,1,0,0:0:0:0:
64,192,29292,1,0,0:0:0:0:
192,192,29292,1,0,0:0:0:0:
448,192,29292,1,0,0:0:0:0:
320,192,29403,1,0,0:0:0:0:
192,192,29515,1,0,0:0:0:0:
448,192,29515,1,0,0:0:0:0:
64,192,29626,1,0,0:0:0:0:
192,192,29737,1,0,0:0:0:0:
448,192,29737,1,0,0:0:0:0:
320,192,29848,1,0,0:0:0:0:
64,192,29959,1,0,0:0:0:0:
448,192,29959,1,0,0:0:0:0:
192,192,30070,1,0,0:0:0:0:
448,192,30181,1,0,0:0:0:0:
320,192,30181,1,0,0:0:0:0:
64,192,30292,1,0,0:0:0:0:
192,192,30403,1,0,0:0:0:0:
320,192,30403,1,0,0:0:0:0:
448,192,30515,1,0,0:0:0:0:
192,192,30626,1,0,0:0:0:0:
64,192,30626,1,0,0:0:0:0:
320,192,30737,1,0,0:0:0:0:
448,192,30848,1,0,0:0:0:0:
192,192,30848,1,0,0:0:0:0:
320,192,30959,1,0,0:0:0:0:
64,192,31070,1,0,0:0:0:0:
192,192,31070,1,0,0:0:0:0:
448,192,31070,1,0,0:0:0:0:
320,192,31181,1,0,0:0:0:0:
192,192,31292,1,0,0:0:0:0:
64,192,31292,1,0,0:0:0:0:
448,192,31403,1,0,0:0:0:0:
320,192,31515,1,0,0:0:0:0:
192,192,31515,1,0,0:0:0:0:
448,192,31626,1,0,0:0:0:0:
64,192,31737,1,0,0:0:0:0:
320,192,31737,1,0,0:0:0:0:
192,192,31848,1,0,0:0:0:0:
448,192,31959,1,0,0:0:0:0:
320,192,31959,1,0,0:0:0:0:
64,192,32070,1,0,0:0:0:0:
192,192,32181,1,0,0:0:0:0:
320,192,32181,1,0,0:0:0:0:
448,192,32292,1,0,0:0:0:0:
192,192,32403,1,0,0:0:0:0:
64,192,32403,1,0,0:0:0:0:
320,192,32515,1,0,0:0:0:0:
448,192,32626,1,0,0:0:0:0:
192,192,32626,1,0,0:0:0:0:
64,192,32737,1,0,0:0:0:0:
192,192,32848,1,0,0:0:0:0:
320,192,32848,1,0,0:0:0:0:
448,192,32848,1,0,0:0:0:0:
64,192,32959,1,0,0:0:0:0:
192,192,33070,1,0,0:0:0:0:
448,192,33070,1,0,0:0:0:0:
320,192,33181,1,0,0:0:0:0:
64,192,33292,1,0,0:0:0:0:
192,192,33292,1,0,0:0:0:0:
448,192,33403,1,0,0:0:0:0:
320,192,33515,5,0,0:0:0:0:
192,192,33515,1,0,0:0:0:0:
64,192,33626,1,0,0:0:0:0:
448,192,33737,1,0,0:0:0:0:
320,192,33737,1,0,0:0:0:0:
192,192,33848,1,0,0:0:0:0:
64,192,33959,1,0,0:0:0:0:
448,192,33959,1,0,0:0:0:0:
320,192,34070,1,0,0:0:0:0:
64,192,34181,1,0,0:0:0:0:
448,192,34181,1,0,0:0:0:0:
192,192,34292,1,0,0:0:0:0:
320,192,34403,1,0,0:0:0:0:
448,192,34403,1,0,0:0:0:0:
192,192,34515,1,0,0:0:0:0:
448,192,34626,5,0,0:0:0:0:
64,192,34626,1,0,0:0:0:0:
448,192,34848,1,0,0:0:0:0:
64,192,34848,1,0,0:0:0:0:
192,192,34959,1,0,0:0:0:0:
448,192,35070,1,0,0:0:0:0:
320,192,35070,1,0,0:0:0:0:
64,192,35181,1,0,0:0:0:0:
192,192,35181,1,0,0:0:0:0:
448,192,35292,1,0,0:0:0:0:
320,192,35292,1,0,0:0:0:0:
192,192,35403,1,0,0:0:0:0:
64,192,35403,1,0,0:0:0:0:
320,192,35403,1,0,0:0:0:0:
448,192,35737,1,0,0:0:0:0:
64,192,35737,1,0,0:0:0:0:
320,192,35848,1,0,0:0:0:0:
192,192,35848,1,0,0:0:0:0:
448,192,35959,1,0,0:0:0:0:
64,192,35959,1,0,0:0:0:0:
192,192,35959,1,0,0:0:0:0:
320,192,36070,1,0,0:0:0:0:
448,192,36181,1,0,0:0:0:0:
192,192,36181,1,0,0:0:0:0:
320,192,36292,1,0,0:0:0:0:
64,192,36403,1,0,0:0:0:0:
192,192,36403,1,0,0:0:0:0:
448,192,36403,1,0,0:0:0:0:
64,192,36626,1,0,0:0:0:0:
448,192,36626,1,0,0:0:0:0:
192,192,36737,1,0,0:0:0:0:
320,192,36848,1,0,0:0:0:0:
448,192,36848,1,0,0:0:0:0:
64,192,36959,1,0,0:0:0:0:
192,192,37070,1,0,0:0:0:0:
448,192,37070,1,0,0:0:0:0:
320,192,37181,1,0,0:0:0:0:
64,192,37292,1,0,0:0:0:0:
192,192,37292,1,0,0:0:0:0:
448,192,37403,1,0,0:0:0:0:
320,192,37515,1,0,0:0:0:0:
64,192,37515,1,0,0:0:0:0:
192,192,37626,1,0,0:0:0:0:
320,192,37737,1,0,0:0:0:0:
448,192,37737,1,0,0:0:0:0:
64,192,37848,1,0,0:0:0:0:
192,192,37959,1,0,0:0:0:0:
448,192,37959,1,0,0:0:0:0:
320,192,38070,1,0,0:0:0:0:
64,192,38181,1,0,0:0:0:0:
192,192,38181,1,0,0:0:0:0:
448,192,38181,1,0,0:0:0:0:
320,192,38292,1,0,0:0:0:0:
192,192,38403,1,0,0:0:0:0:
448,192,38403,1,0,0:0:0:0:
64,192,38515,1,0,0:0:0:0:
320,192,38626,1,0,0:0:0:0:
448,192,38626,1,0,0:0:0:0:
192,192,38737,1,0,0:0:0:0:
448,192,38848,1,0,0:0:0:0:
64,192,38848,1,0,0:0:0:0:
320,192,38959,1,0,0:0:0:0:
64,192,39070,1,0,0:0:0:0:
448,192,39070,1,0,0:0:0:0:
192,192,39181,1,0,0:0:0:0:
320,192,39292,1,0,0:0:0:0:
448,192,39292,1,0,0:0:0:0:
64,192,39403,1,0,0:0:0:0:
192,192,39515,1,0,0:0:0:0:
448,192,39515,1,0,0:0:0:0:
320,192,39626,1,0,0:0:0:0:
192,192,39737,1,0,0:0:0:0:
64,192,39737,1,0,0:0:0:0:
448,192,39848,1,0,0:0:0:0:
320,192,39959,1,0,0:0:0:0:
192,192,39959,1,0,0:0:0:0:
64,192,39959,1,0,0:0:0:0:
192,192,40181,1,0,0:0:0:0:
64,192,40181,1,0,0:0:0:0:
320,192,40292,1,0,0:0:0:0:
448,192,40403,1,0,0:0:0:0:
64,192,40403,1,0,0:0:0:0:
192,192,40515,1,0,0:0:0:0:
64,192,40626,1,0,0:0:0:0:
320,192,40626,1,0,0:0:0:0:
192,192,40737,1,0,0:0:0:0:
64,192,40848,1,0,0:0:0:0:
320,192,40848,1,0,0:0:0:0:
448,192,40959,1,0,0:0:0:0:
192,192,41070,1,0,0:0:0:0:
64,192,41070,1,0,0:0:0:0:
448,192,41181,1,0,0:0:0:0:
320,192,41292,1,0,0:0:0:0:
64,192,41292,1,0,0:0:0:0:
192,192,41403,1,0,0:0:0:0:
448,192,41515,1,0,0:0:0:0:
64,192,41515,1,0,0:0:0:0:
320,192,41626,1,0,0:0:0:0:
448,192,41737,5,0,0:0:0:0:
192,192,41737,1,0,0:0:0:0:
64,192,41737,1,0,0:0:0:0:
320,192,41848,1,0,0:0:0:0:
192,192,41959,1,0,0:0:0:0:
448,192,41959,1,0,0:0:0:0:
64,192,42070,1,0,0:0:0:0:
192,192,42181,1,0,0:0:0:0:
448,192,42181,1,0,0:0:0:0:
320,192,42292,1,0,0:0:0:0:
64,192,42403,1,0,0:0:0:0:
192,192,42403,1,0,0:0:0:0:
448,192,42515,1,0,0:0:0:0:
320,192,42626,1,0,0:0:0:0:
64,192,42626,1,0,0:0:0:0:
192,192,42737,1,0,0:0:0:0:
320,192,42848,5,0,0:0:0:0:
320,192,42959,1,0,0:0:0:0:
192,192,43070,1,0,0:0:0:0:
192,192,43181,1,0,0:0:0:0:
448,192,43292,1,0,0:0:0:0:
320,192,43292,1,0,0:0:0:0:
64,192,43403,1,0,0:0:0:0:
192,192,43403,1,0,0:0:0:0:
64,192,43515,1,0,0:0:0:0:
320,192,43515,1,0,0:0:0:0:
448,192,43515,1,0,0:0:0:0:
448,192,43737,1,0,0:0:0:0:
320,192,43848,1,0,0:0:0:0:
64,192,43959,1,0,0:0:0:0:
192,192,43959,1,0,0:0:0:0:
448,192,44070,1,0,0:0:0:0:
320,192,44181,1,0,0:0:0:0:
64,192,44181,1,0,0:0:0:0:
192,192,44292,1,0,0:0:0:0:
448,192,44403,1,0,0:0:0:0:
320,192,44403,1,0,0:0:0:0:
64,192,44515,1,0,0:0:0:0:
192,192,44626,1,0,0:0:0:0:
448,192,44626,1,0,0:0:0:0:
64,192,44737,1,0,0:0:0:0:
320,192,44848,1,0,0:0:0:0:
192,192,44848,1,0,0:0:0:0:
448,192,44848,1,0,0:0:0:0:
64,192,44959,1,0,0:0:0:0:
320,192,45070,1,0,0:0:0:0:
448,192,45070,1,0,0:0:0:0:
192,192,45181,1,0,0:0:0:0:
64,192,45292,1,0,0:0:0:0:
320,192,45292,1,0,0:0:0:0:
448,192,45292,1,0,0:0:0:0:
192,192,45403,1,0,0:0:0:0:
64,192,45515,1,0,0:0:0:0:
448,192,45515,1,0,0:0:0:0:
320,192,45626,1,0,0:0:0:0:
192,192,45737,1,0,0:0:0:0:
448,192,45737,1,0,0:0:0:0:
64,192,45848,1,0,0:0:0:0:
320,192,45959,1,0,0:0:0:0:
448,192,45959,1,0,0:0:0:0:
192,192,46070,1,0,0:0:0:0:
64,192,46181,1,0,0:0:0:0:
448,192,46181,1,0,0:0:0:0:
320,192,46292,1,0,0:0:0:0:
192,192,46403,1,0,0:0:0:0:
448,192,46403,1,0,0:0:0:0:
320,192,46515,1,0,0:0:0:0:
64,192,46626,1,0,0:0:0:0:
192,192,46626,1,0,0:0:0:0:
448,192,46626,1,0,0:0:0:0:
320,192,46737,1,0,0:0:0:0:
448,192,46848,1,0,0:0:0:0:
64,192,46848,1,0,0:0:0:0:
192,192,46959,1,0,0:0:0:0:
64,192,47070,1,0,0:0:0:0:
448,192,47070,1,0,0:0:0:0:
320,192,47070,1,0,0:0:0:0:
448,192,47292,1,0,0:0:0:0:
320,192,47292,1,0,0:0:0:0:
192,192,47292,1,0,0:0:0:0:
64,192,47403,1,0,0:0:0:0:
320,192,47515,1,0,0:0:0:0:
448,192,47515,1,0,0:0:0:0:
192,192,47515,1,0,0:0:0:0:
64,192,47737,5,0,0:0:0:0:
320,192,47737,1,0,0:0:0:0:
448,192,47848,1,0,0:0:0:0:
192,192,47959,1,0,0:0:0:0:
64,192,47959,1,0,0:0:0:0:
320,192,48070,1,0,0:0:0:0:
448,192,48181,1,0,0:0:0:0:
192,192,48181,1,0,0:0:0:0:
320,192,48292,1,0,0:0:0:0:
64,192,48403,1,0,0:0:0:0:
448,192,48403,1,0,0:0:0:0:
192,192,48515,1,0,0:0:0:0:
64,192,48626,1,0,0:0:0:0:
448,192,48626,1,0,0:0:0:0:
320,192,48737,1,0,0:0:0:0:
448,192,48848,5,0,0:0:0:0:
192,192,48848,1,0,0:0:0:0:
448,192,48959,1,0,0:0:0:0:
64,192,48959,1,0,0:0:0:0:
320,192,48959,1,0,0:0:0:0:
320,192,49181,1,0,0:0:0:0:
64,192,49181,1,0,0:0:0:0:
448,192,49292,1,0,0:0:0:0:
192,192,49292,1,0,0:0:0:0:
64,192,49292,1,0,0:0:0:0:
64,192,49515,1,0,0:0:0:0:
448,192,49515,1,0,0:0:0:0:
192,192,49626,1,0,0:0:0:0:
320,192,49626,1,0,0:0:0:0:
448,192,49626,1,0,0:0:0:0:
64,192,49848,1,0,0:0:0:0:
448,192,49848,1,0,0:0:0:0:
320,192,49848,1,0,0:0:0:0:
448,192,49959,1,0,0:0:0:0:
192,192,49959,1,0,0:0:0:0:
64,192,50181,1,0,0:0:0:0:
320,192,50181,1,0,0:0:0:0:
448,192,50292,1,0,0:0:0:0:
192,192,50292,1,0,0:0:0:0:
64,192,50403,1,0,0:0:0:0:
448,192,50403,1,0,0:0:0:0:
320,192,50515,1,0,0:0:0:0:
192,192,50515,1,0,0:0:0:0:
192,192,50626,1,0,0:0:0:0:
64,192,50626,1,0,0:0:0:0:
448,192,50626,1,0,0:0:0:0:
320,192,50737,1,0,0:0:0:0:
64,192,50737,1,0,0:0:0:0:
448,192,50737,1,0,0:0:0:0:
192,192,50959,1,0,0:0:0:0:
448,192,50959,1,0,0:0:0:0:
64,192,50959,1,0,0:0:0:0:
320,192,51070,1,0,0:0:0:0:
64,192,51070,1,0,0:0:0:0:
448,192,51292,1,0,0:0:0:0:
192,192,51292,1,0,0:0:0:0:
320,192,51292,1,0,0:0:0:0:
64,192,51403,1,0,0:0:0:0:
448,192,51403,1,0,0:0:0:0:
64,192,51626,1,0,0:0:0:0:
448,192,51626,1,0,0:0:0:0:
320,192,51626,1,0,0:0:0:0:
192,192,51737,1,0,0:0:0:0:
320,192,51737,1,0,0:0:0:0:
64,192,51959,1,0,0:0:0:0:
192,192,51959,1,0,0:0:0:0:
320,192,52070,1,0,0:0:0:0:
448,192,52181,1,0,0:0:0:0:
192,192,52181,1,0,0:0:0:0:
64,192,52292,1,0,0:0:0:0:
320,192,52292,1,0,0:0:0:0:
192,192,52403,1,0,0:0:0:0:
448,192,52403,1,0,0:0:0:0:
64,192,52403,1,0,0:0:0:0:
320,192,52515,1,0,0:0:0:0:
192,192,52626,1,0,0:0:0:0:
448,192,52737,1,0,0:0:0:0:
64,192,52737,1,0,0:0:0:0:
320,192,52737,1,0,0:0:0:0:
192,192,52848,1,0,0:0:0:0:
64,192,52959,1,0,0:0:0:0:
448,192,53070,1,0,0:0:0:0:
192,192,53070,1,0,0:0:0:0:
320,192,53070,1,0,0:0:0:0:
320,192,53292,1,0,0:0:0:0:
64,192,53292,1,0,0:0:0:0:
192,192,53403,1,0,0:0:0:0:
64,192,53515,1,0,0:0:0:0:
448,192,53515,1,0,0:0:0:0:
320,192,53626,1,0,0:0:0:0:
448,192,53737,1,0,0:0:0:0:
64,192,53737,1,0,0:0:0:0:
192,192,53848,1,0,0:0:0:0:
448,192,53959,1,0,0:0:0:0:
64,192,53959,1,0,0:0:0:0:
320,192,54070,1,0,0:0:0:0:
64,192,54181,5,0,0:0:0:0:
448,192,54181,1,0,0:0:0:0:
192,192,54181,1,0,0:0:0:0:
320,192,54292,1,0,0:0:0:0:
192,192,54403,1,0,0:0:0:0:
448,192,54515,1,0,0:0:0:0:
64,192,54626,1,0,0:0:0:0:
320,192,54626,1,0,0:0:0:0:
192,192,54737,1,0,0:0:0:0:
448,192,54848,1,0,0:0:0:0:
64,192,54959,1,0,0:0:0:0:
192,192,55070,1,0,0:0:0:0:
320,192,55070,1,0,0:0:0:0:
448,192,55070,1,0,0:0:0:0:
64,192,55181,1,0,0:0:0:0:
320,192,55292,1,0,0:0:0:0:
64,192,55403,1,0,0:0:0:0:
192,192,55515,1,0,0:0:0:0:
448,192,55515,1,0,0:0:0:0:
320,192,55626,1,0,0:0:0:0:
448,192,55737,1,0,0:0:0:0:
192,192,55848,1,0,0:0:0:0:
64,192,55959,1,0,0:0:0:0:
320,192,55959,1,0,0:0:0:0:
448,192,55959,1,0,0:0:0:0:
192,192,56070,1,0,0:0:0:0:
320,192,56181,1,0,0:0:0:0:
64,192,56292,1,0,0:0:0:0:
192,192,56403,1,0,0:0:0:0:
448,192,56403,1,0,0:0:0:0:
64,192,56515,1,0,0:0:0:0:
320,192,56626,1,0,0:0:0:0:
448,192,56626,1,0,0:0:0:0:
192,192,56737,1,0,0:0:0:0:
64,192,56848,1,0,0:0:0:0:
448,192,56848,1,0,0:0:0:0:
320,192,56959,1,0,0:0:0:0:
64,192,57070,1,0,0:0:0:0:
448,192,57070,1,0,0:0:0:0:
192,192,57126,1,0,0:0:0:0:
320,192,57181,1,0,0:0:0:0:
448,192,57237,1,0,0:0:0:0:
64,192,57292,1,0,0:0:0:0:
192,192,57292,1,0,0:0:0:0:
320,192,57292,1,0,0:0:0:0:
448,192,57403,1,0,0:0:0:0:
64,192,57515,1,0,0:0:0:0:
320,192,57515,1,0,0:0:0:0:
192,192,57626,1,0,0:0:0:0:
448,192,57626,1,0,0:0:0:0:
320,192,57737,1,0,0:0:0:0:
64,192,57737,1,0,0:0:0:0:
448,192,57737,1,0,0:0:0:0:
192,192,57848,1,0,0:0:0:0:
448,192,57959,1,0,0:0:0:0:
320,192,57959,1,0,0:0:0:0:
192,192,58070,1,0,0:0:0:0:
448,192,58181,1,0,0:0:0:0:
64,192,58181,1,0,0:0:0:0:
320,192,58292,1,0,0:0:0:0:
64,192,58403,1,0,0:0:0:0:
448,192,58403,1,0,0:0:0:0:
192,192,58515,1,0,0:0:0:0:
448,192,58626,1,0,0:0:0:0:
64,192,58626,1,0,0:0:0:0:
320,192,58737,1,0,0:0:0:0:
192,192,58848,1,0,0:0:0:0:
64,192,58848,1,0,0:0:0:0:
448,192,58959,1,0,0:0:0:0:
64,192,59070,1,0,0:0:0:0:
320,192,59070,1,0,0:0:0:0:
192,192,59181,1,0,0:0:0:0:
192,192,59292,1,0,0:0:0:0:
448,192,59292,1,0,0:0:0:0:
320,192,59403,1,0,0:0:0:0:
64,192,59403,1,0,0:0:0:0:
192,192,59515,1,0,0:0:0:0:
448,192,59515,1,0,0:0:0:0:
64,192,59515,1,0,0:0:0:0:
320,192,59626,1,0,0:0:0:0:
192,192,59737,5,0,0:0:0:0:
448,192,59737,1,0,0:0:0:0:
64,192,59848,1,0,0:0:0:0:
192,192,59959,1,0,0:0:0:0:
320,192,59959,1,0,0:0:0:0:
448,192,60070,1,0,0:0:0:0:
64,192,60181,1,0,0:0:0:0:
320,192,60181,1,0,0:0:0:0:
192,192,60292,1,0,0:0:0:0:
64,192,60403,1,0,0:0:0:0:
448,192,60403,1,0,0:0:0:0:
192,192,60515,1,0,0:0:0:0:
320,192,60515,1,0,0:0:0:0:
448,192,60626,1,0,0:0:0:0:
64,192,60626,1,0,0:0:0:0:
320,192,60626,1,0,0:0:0:0:
192,192,60737,1,0,0:0:0:0:
320,192,60848,5,0,0:0:0:0:
448,192,60848,1,0,0:0:0:0:
64,192,60848,1,0,0:0:0:0:
320,192,60959,1,0,0:0:0:0:
448,192,60959,1,0,0:0:0:0:
320,192,61070,1,0,0:0:0:0:
448,192,61070,1,0,0:0:0:0:
320,192,61181,1,0,0:0:0:0:
448,192,61181,1,0,0:0:0:0:
192,192,61292,5,0,0:0:0:0:
64,192,61292,1,0,0:0:0:0:
320,192,61403,5,0,0:0:0:0:
64,192,61515,1,0,0:0:0:0:
448,192,61515,1,0,0:0:0:0:
192,192,61515,1,0,0:0:0:0:
320,192,61626,1,0,0:0:0:0:
64,192,61737,1,0,0:0:0:0:
448,192,61737,1,0,0:0:0:0:
192,192,61848,1,0,0:0:0:0:
448,192,61959,1,0,0:0:0:0:
64,192,61959,1,0,0:0:0:0:
320,192,62070,1,0,0:0:0:0:
192,192,62181,1,0,0:0:0:0:
448,192,62181,1,0,0:0:0:0:
64,192,62292,1,0,0:0:0:0:
320,192,62292,1,0,0:0:0:0:
192,192,62403,1,0,0:0:0:0:
448,192,62515,1,0,0:0:0:0:
320,192,62515,1,0,0:0:0:0:
64,192,62626,1,0,0:0:0:0:
192,192,62626,1,0,0:0:0:0:
448,192,62737,1,0,0:0:0:0:
192,192,62848,1,0,0:0:0:0:
320,192,62848,1,0,0:0:0:0:
64,192,62959,1,0,0:0:0:0:
448,192,63070,1,0,0:0:0:0:
192,192,63070,1,0,0:0:0:0:
320,192,63070,1,0,0:0:0:0:
64,192,63181,1,0,0:0:0:0:
448,192,63292,1,0,0:0:0:0:
320,192,63292,1,0,0:0:0:0:
192,192,63403,1,0,0:0:0:0:
320,192,63515,1,0,0:0:0:0:
64,192,63515,1,0,0:0:0:0:
192,192,63626,1,0,0:0:0:0:
448,192,63737,1,0,0:0:0:0:
320,192,63737,1,0,0:0:0:0:
64,192,63848,1,0,0:0:0:0:
192,192,63959,1,0,0:0:0:0:
320,192,63959,1,0,0:0:0:0:
448,192,63959,1,0,0:0:0:0:
64,192,64070,1,0,0:0:0:0:
192,192,64181,1,0,0:0:0:0:
448,192,64181,1,0,0:0:0:0:
320,192,64292,1,0,0:0:0:0:
64,192,64292,1,0,0:0:0:0:
192,192,64403,1,0,0:0:0:0:
448,192,64403,1,0,0:0:0:0:
192,192,64515,1,0,0:0:0:0:
448,192,64515,1,0,0:0:0:0:
320,192,64626,1,0,0:0:0:0:
64,192,64626,1,0,0:0:0:0:
192,192,64737,1,0,0:0:0:0:
448,192,64737,1,0,0:0:0:0:
320,192,64848,1,0,0:0:0:0:
64,192,64848,1,0,0:0:0:0:
448,192,64848,1,0,0:0:0:0:
192,192,64959,1,0,0:0:0:0:
320,192,65070,1,0,0:0:0:0:
448,192,65070,1,0,0:0:0:0:
64,192,65181,1,0,0:0:0:0:
192,192,65292,1,0,0:0:0:0:
448,192,65292,1,0,0:0:0:0:
320,192,65403,1,0,0:0:0:0:
64,192,65515,1,0,0:0:0:0:
192,192,65515,1,0,0:0:0:0:
448,192,65626,1,0,0:0:0:0:
320,192,65737,1,0,0:0:0:0:
192,192,65737,1,0,0:0:0:0:
64,192,65737,1,0,0:0:0:0:
448,192,65848,1,0,0:0:0:0:
320,192,65959,1,0,0:0:0:0:
64,192,65959,1,0,0:0:0:0:
192,192,66070,1,0,0:0:0:0:
448,192,66181,1,0,0:0:0:0:
64,192,66181,1,0,0:0:0:0:
64,192,66292,1,0,0:0:0:0:
320,192,66292,1,0,0:0:0:0:
448,192,66403,1,0,0:0:0:0:
192,192,66515,1,0,0:0:0:0:
64,192,66626,1,0,0:0:0:0:
448,192,66626,1,0,0:0:0:0:
320,192,66626,1,0,0:0:0:0:
448,192,66848,1,0,0:0:0:0:
192,192,66848,1,0,0:0:0:0:
64,192,66848,1,0,0:0:0:0:
320,192,66959,1,0,0:0:0:0:
192,192,66959,1,0,0:0:0:0:
448,192,67181,1,0,0:0:0:0:
192,192,67181,1,0,0:0:0:0:
448,192,67292,1,0,0:0:0:0:
64,192,67292,1,0,0:0:0:0:
320,192,67292,1,0,0:0:0:0:
64,192,67515,1,0,0:0:0:0:
192,192,67515,1,0,0:0:0:0:
448,192,67515,1,0,0:0:0:0:
320,192,67626,1,0,0:0:0:0:
64,192,67626,1,0,0:0:0:0:
192,192,67737,1,0,0:0:0:0:
448,192,67737,1,0,0:0:0:0:
64,192,67848,1,0,0:0:0:0:
448,192,67848,1,0,0:0:0:0:
320,192,67848,1,0,0:0:0:0:
320,192,67959,1,0,0:0:0:0:
192,192,67959,1,0,0:0:0:0:
448,192,68070,1,0,0:0:0:0:
64,192,68070,1,0,0:0:0:0:
192,192,68181,1,0,0:0:0:0:
320,192,68181,1,0,0:0:0:0:
448,192,68181,1,0,0:0:0:0:
64,192,68403,1,0,0:0:0:0:
192,192,68403,1,0,0:0:0:0:
448,192,68403,1,0,0:0:0:0:
320,192,68515,1,0,0:0:0:0:
64,192,68626,1,0,0:0:0:0:
448,192,68626,1,0,0:0:0:0:
192,192,68737,1,0,0:0:0:0:
320,192,68848,1,0,0:0:0:0:
64,192,68848,1,0,0:0:0:0:
448,192,68848,1,0,0:0:0:0:
320,192,68959,1,0,0:0:0:0:
192,192,69070,1,0,0:0:0:0:
448,192,69070,1,0,0:0:0:0:
64,192,69181,1,0,0:0:0:0:
192,192,69292,1,0,0:0:0:0:
64,192,69292,1,0,0:0:0:0:
448,192,69292,1,0,0:0:0:0:
320,192,69403,1,0,0:0:0:0:
448,192,69515,1,0,0:0:0:0:
64,192,69515,1,0,0:0:0:0:
192,192,69626,1,0,0:0:0:0:
64,192,69737,1,0,0:0:0:0:
320,192,69737,1,0,0:0:0:0:
448,192,69737,1,0,0:0:0:0:
192,192,69848,1,0,0:0:0:0:
64,192,69959,1,0,0:0:0:0:
448,192,69959,1,0,0:0:0:0:
320,192,70070,1,0,0:0:0:0:
448,192,70181,1,0,0:0:0:0:
64,192,70181,1,0,0:0:0:0:
320,192,70181,1,0,0:0:0:0:
192,192,70181,1,0,0:0:0:0:
192,192,70292,1,0,0:0:0:0:
64,192,70403,1,0,0:0:0:0:
320,192,70403,1,0,0:0:0:0:
448,192,70515,1,0,0:0:0:0:
448,192,70626,1,0,0:0:0:0:
64,192,70626,1,0,0:0:0:0:
192,192,70626,1,0,0:0:0:0:
320,192,70626,1,0,0:0:0:0:
64,192,70737,1,0,0:0:0:0:
320,192,70737,1,0,0:0:0:0:
192,192,70848,1,0,0:0:0:0:
448,192,70848,1,0,0:0:0:0:
320,192,70959,1,0,0:0:0:0:
448,192,71070,1,0,0:0:0:0:
320,192,71070,1,0,0:0:0:0:
192,192,71070,1,0,0:0:0:0:
64,192,71070,1,0,0:0:0:0:
192,192,71181,1,0,0:0:0:0:
64,192,71292,1,0,0:0:0:0:
320,192,71292,1,0,0:0:0:0:
448,192,71403,1,0,0:0:0:0:
64,192,71515,1,0,0:0:0:0:
192,192,71515,1,0,0:0:0:0:
320,192,71570,1,0,0:0:0:0:
448,192,71570,1,0,0:0:0:0:
64,192,71626,1,0,0:0:0:0:
192,192,71626,1,0,0:0:0:0:
320,192,71681,1,0,0:0:0:0:
448,192,71681,1,0,0:0:0:0:
192,192,71737,1,0,0:0:0:0:
64,192,71737,1,0,0:0:0:0:
320,192,71848,1,0,0:0:0:0:
448,192,71959,1,0,0:0:0:0:
192,192,71959,1,0,0:0:0:0:
64,192,71959,1,0,0:0:0:0:
320,192,72070,1,0,0:0:0:0:
64,192,72181,1,0,0:0:0:0:
448,192,72181,1,0,0:0:0:0:
192,192,72292,1,0,0:0:0:0:
448,192,72403,1,0,0:0:0:0:
320,192,72403,1,0,0:0:0:0:
64,192,72403,1,0,0:0:0:0:
448,192,72515,1,0,0:0:0:0:
192,192,72626,1,0,0:0:0:0:
64,192,72626,1,0,0:0:0:0:
320,192,72737,1,0,0:0:0:0:
448,192,72848,1,0,0:0:0:0:
64,192,72848,1,0,0:0:0:0:
192,192,72959,1,0,0:0:0:0:
64,192,73070,1,0,0:0:0:0:
448,192,73070,1,0,0:0:0:0:
320,192,73181,1,0,0:0:0:0:
64,192,73292,1,0,0:0:0:0:
192,192,73292,1,0,0:0:0:0:
448,192,73292,1,0,0:0:0:0:
64,192,73403,1,0,0:0:0:0:
448,192,73515,1,0,0:0:0:0:
320,192,73515,1,0,0:0:0:0:
192,192,73626,1,0,0:0:0:0:
448,192,73737,1,0,0:0:0:0:
320,192,73737,1,0,0:0:0:0:
64,192,73737,1,0,0:0:0:0:
192,192,73848,1,0,0:0:0:0:
64,192,73959,1,0,0:0:0:0:
448,192,73959,1,0,0:0:0:0:
320,192,74070,1,0,0:0:0:0:
64,192,74181,1,0,0:0:0:0:
192,192,74181,1,0,0:0:0:0:
448,192,74181,1,0,0:0:0:0:
320,192,74292,1,0,0:0:0:0:
64,192,74403,1,0,0:0:0:0:
448,192,74403,1,0,0:0:0:0:
192,192,74515,1,0,0:0:0:0:
448,192,74626,1,0,0:0:0:0:
320,192,74626,1,0,0:0:0:0:
64,192,74626,1,0,0:0:0:0:
192,192,74737,1,0,0:0:0:0:
448,192,74848,1,0,0:0:0:0:
320,192,74848,1,0,0:0:0:0:
192,192,74959,1,0,0:0:0:0:
64,192,75070,1,0,0:0:0:0:
320,192,75070,1,0,0:0:0:0:
64,192,75181,1,0,0:0:0:0:
320,192,75181,1,0,0:0:0:0:
192,192,75292,1,0,0:0:0:0:
448,192,75292,1,0,0:0:0:0:
192,192,75403,1,0,0:0:0:0:
448,192,75403,1,0,0:0:0:0:
320,192,75515,1,0,0:0:0:0:
64,192,75515,1,0,0:0:0:0:
448,192,75626,1,0,0:0:0:0:
192,192,75737,1,0,0:0:0:0:
320,192,75848,1,0,0:0:0:0:
448,192,75848,1,0,0:0:0:0:
64,192,75959,1,0,0:0:0:0:
192,192,75959,1,0,0:0:0:0:
320,192,75959,1,0,0:0:0:0:
448,192,76070,1,0,0:0:0:0:
192,192,76181,1,0,0:0:0:0:
64,192,76181,1,0,0:0:0:0:
320,192,76292,1,0,0:0:0:0:
448,192,76403,1,0,0:0:0:0:
320,192,76403,1,0,0:0:0:0:
192,192,76403,1,0,0:0:0:0:
64,192,76403,1,0,0:0:0:0:
192,192,76515,1,0,0:0:0:0:
64,192,76626,1,0,0:0:0:0:
448,192,76626,1,0,0:0:0:0:
320,192,76737,1,0,0:0:0:0:
64,192,76848,1,0,0:0:0:0:
192,192,76848,1,0,0:0:0:0:
448,192,76848,1,0,0:0:0:0:
320,192,76959,1,0,0:0:0:0:
64,192,77070,1,0,0:0:0:0:
192,192,77070,1,0,0:0:0:0:
320,192,77181,1,0,0:0:0:0:
448,192,77292,1,0,0:0:0:0:
320,192,77292,1,0,0:0:0:0:
192,192,77292,1,0,0:0:0:0:
64,192,77292,1,0,0:0:0:0:
192,192,77403,1,0,0:0:0:0:
64,192,77515,1,0,0:0:0:0:
448,192,77515,1,0,0:0:0:0:
320,192,77626,1,0,0:0:0:0:
192,192,77737,1,0,0:0:0:0:
448,192,77737,1,0,0:0:0:0:
64,192,77848,1,0,0:0:0:0:
192,192,77959,1,0,0:0:0:0:
448,192,77959,1,0,0:0:0:0:
320,192,78070,1,0,0:0:0:0:
64,192,78181,1,0,0:0:0:0:
448,192,78181,1,0,0:0:0:0:
192,192,78292,1,0,0:0:0:0:
64,192,78403,1,0,0:0:0:0:
320,192,78403,1,0,0:0:0:0:
448,192,78403,1,0,0:0:0:0:
192,192,78515,1,0,0:0:0:0:
448,192,78515,1,0,0:0:0:0:
64,192,78626,1,0,0:0:0:0:
320,192,78626,1,0,0:0:0:0:
192,192,78626,1,0,0:0:0:0:
448,192,78737,1,0,0:0:0:0:
64,192,78848,1,0,0:0:0:0:
320,192,78848,1,0,0:0:0:0:
192,192,78959,1,0,0:0:0:0:
448,192,78959,1,0,0:0:0:0:
64,192,79070,1,0,0:0:0:0:
320,192,79070,1,0,0:0:0:0:
448,192,79070,1,0,0:0:0:0:
192,192,79292,1,0,0:0:0:0:
320,192,79292,1,0,0:0:0:0:
192,192,79515,1,0,0:0:0:0:
448,192,79515,1,0,0:0:0:0:
64,192,79626,1,0,0:0:0:0:
320,192,79626,1,0,0:0:0:0:
192,192,79737,1,0,0:0:0:0:
448,192,79737,1,0,0:0:0:0:
320,192,79848,1,4,0:0:0:0:
64,192,79848,1,4,0:0:0:0:
448,192,79848,1,4,0:0:0:0:
448,192,80070,1,0,0:0:0:0:
64,192,80070,1,0,0:0:0:0:
64,192,80181,1,0,0:0:0:0:
320,192,80181,1,0,0:0:0:0:
192,192,80181,1,0,0:0:0:0:
448,192,80292,1,0,0:0:0:0:
192,192,80292,1,0,0:0:0:0:
320,192,80403,1,0,0:0:0:0:
64,192,80403,1,0,0:0:0:0:
448,192,80403,1,0,0:0:0:0:
320,192,80515,1,0,0:0:0:0:
192,192,80515,1,0,0:0:0:0:
64,192,80626,1,0,0:0:0:0:
448,192,80626,1,0,0:0:0:0:
192,192,80626,1,0,0:0:0:0:
320,192,80737,1,0,0:0:0:0:
448,192,80737,1,0,0:0:0:0:
64,192,80848,1,0,0:0:0:0:
192,192,80848,1,0,0:0:0:0:
320,192,80848,1,0,0:0:0:0:
448,192,81070,1,0,0:0:0:0:
320,192,81070,1,0,0:0:0:0:
64,192,81070,1,0,0:0:0:0:
192,192,81292,1,0,0:0:0:0:
320,192,81292,1,0,0:0:0:0:
448,192,81292,1,0,0:0:0:0:
64,192,81403,1,0,0:0:0:0:
320,192,81403,1,0,0:0:0:0:
192,192,81515,1,0,0:0:0:0:
448,192,81515,1,0,0:0:0:0:
320,192,81626,1,4,0:0:0:0:
192,192,81626,1,4,0:0:0:0:
64,192,81626,1,4,0:0:0:0:
64,192,81848,1,0,0:0:0:0:
320,192,81848,1,0,0:0:0:0:
192,192,81959,1,0,0:0:0:0:
448,192,81959,1,0,0:0:0:0:
448,192,82070,1,0,0:0:0:0:
320,192,82070,1,0,0:0:0:0:
192,192,82181,1,0,0:0:0:0:
64,192,82181,1,0,0:0:0:0:
192,192,82292,1,0,0:0:0:0:
64,192,82292,1,0,0:0:0:0:
320,192,82403,1,0,0:0:0:0:
448,192,82403,1,0,0:0:0:0:
320,192,82515,1,0,0:0:0:0:
448,192,82515,1,0,0:0:0:0:
192,192,82626,1,0,0:0:0:0:
64,192,82626,1,0,0:0:0:0:
448,192,82626,1,0,0:0:0:0:
64,192,82848,1,0,0:0:0:0:
448,192,82848,1,0,0:0:0:0:
320,192,82848,1,0,0:0:0:0:
192,192,83070,1,0,0:0:0:0:
64,192,83070,1,0,0:0:0:0:
448,192,83070,1,0,0:0:0:0:
320,192,83181,1,0,0:0:0:0:
64,192,83292,1,0,0:0:0:0:
448,192,83292,1,0,0:0:0:0:
448,192,83403,1,4,0:0:0:0:
320,192,83403,1,4,0:0:0:0:
192,192,83403,1,4,0:0:0:0:
64,192,83515,1,0,0:0:0:0:
320,192,83515,1,0,0:0:0:0:
192,192,83626,1,0,0:0:0:0:
64,192,83737,1,0,0:0:0:0:
448,192,83737,1,0,0:0:0:0:
320,192,83848,1,0,0:0:0:0:
64,192,83959,1,0,0:0:0:0:
448,192,83959,1,0,0:0:0:0:
192,192,83959,1,0,0:0:0:0:
320,192,84070,1,0,0:0:0:0:
448,192,84181,1,0,0:0:0:0:
192,192,84181,1,0,0:0:0:0:
64,192,84292,1,0,0:0:0:0:
320,192,84292,1,0,0:0:0:0:
448,192,84403,1,0,0:0:0:0:
64,192,84403,1,0,0:0:0:0:
192,192,84403,1,0,0:0:0:0:
320,192,84403,1,0,0:0:0:0:
192,192,84848,1,0,0:0:0:0:
64,192,84848,1,0,0:0:0:0:
448,192,84848,1,0,0:0:0:0:
320,192,85292,1,0,0:0:0:0:
192,192,85292,1,0,0:0:0:0:
64,192,85292,1,0,0:0:0:0:
448,192,85515,1,0,0:0:0:0:
192,192,85737,1,0,0:0:0:0:
64,192,85737,1,0,0:0:0:0:
320,192,85737,1,0,0:0:0:0:
320,192,85959,1,0,0:0:0:0:
448,192,85959,1,0,0:0:0:0:
320,192,86070,1,0,0:0:0:0:
192,192,86070,1,0,0:0:0:0:
64,192,86181,1,0,0:0:0:0:
192,192,86181,1,0,0:0:0:0:
448,192,86181,1,0,0:0:0:0:
448,192,86626,1,0,0:0:0:0:
320,192,86626,1,0,0:0:0:0:
64,192,86626,1,0,0:0:0:0:
64,192,87070,1,0,0:0:0:0:
192,192,87070,1,0,0:0:0:0:
320,192,87070,1,0,0:0:0:0:
64,192,87515,1,0,0:0:0:0:
448,192,87515,1,0,0:0:0:0:
192,192,87626,1,0,0:0:0:0:
320,192,87626,1,0,0:0:0:0:
64,192,87737,1,0,0:0:0:0:
320,192,87737,1,0,0:0:0:0:
448,192,87848,1,0,0:0:0:0:
192,192,87848,1,0,0:0:0:0:
320,192,87959,1,0,0:0:0:0:
448,192,87959,1,0,0:0:0:0:
64,192,87959,1,0,0:0:0:0:
192,192,88070,1,0,0:0:0:0:
448,192,88181,1,0,0:0:0:0:
320,192,88181,1,0,0:0:0:0:
64,192,88292,1,0,0:0:0:0:
192,192,88403,1,0,0:0:0:0:
448,192,88403,1,0,0:0:0:0:
320,192,88515,1,0,0:0:0:0:
64,192,88626,1,0,0:0:0:0:
192,192,88626,1,0,0:0:0:0:
448,192,88737,1,0,0:0:0:0:
64,192,88737,1,0,0:0:0:0:
320,192,88737,1,0,0:0:0:0:
448,192,88848,1,0,0:0:0:0:
192,192,88848,1,0,0:0:0:0:
64,192,89070,1,0,0:0:0:0:
448,192,89070,1,0,0:0:0:0:
192,192,89070,1,0,0:0:0:0:
320,192,89292,1,0,0:0:0:0:
64,192,89292,1,0,0:0:0:0:
192,192,89403,1,0,0:0:0:0:
320,192,89515,1,0,0:0:0:0:
64,192,89515,1,0,0:0:0:0:
192,192,89626,1,0,0:0:0:0:
448,192,89737,1,0,0:0:0:0:
320,192,89737,1,0,0:0:0:0:
64,192,89737,1,0,0:0:0:0:
64,192,89959,1,0,0:0:0:0:
192,192,89959,1,0,0:0:0:0:
448,192,89959,1,0,0:0:0:0:
320,192,90181,1,0,0:0:0:0:
64,192,90181,1,0,0:0:0:0:
448,192,90292,1,0,0:0:0:0:
192,192,90403,1,0,0:0:0:0:
320,192,90403,1,0,0:0:0:0:
64,192,90515,1,0,0:0:0:0:
448,192,90626,1,0,0:0:0:0:
320,192,90626,1,0,0:0:0:0:
64,192,90737,1,0,0:0:0:0:
192,192,90848,1,0,0:0:0:0:
320,192,90848,1,0,0:0:0:0:
448,192,90959,1,0,0:0:0:0:
64,192,91070,1,0,0:0:0:0:
192,192,91070,1,0,0:0:0:0:
320,192,91181,1,0,0:0:0:0:
448,192,91181,1,0,0:0:0:0:
64,192,91292,1,0,0:0:0:0:
192,192,91292,1,0,0:0:0:0:
320,192,91403,1,0,0:0:0:0:
448,192,91403,1,0,0:0:0:0:
64,192,91515,1,0,0:0:0:0:
192,192,91515,1,0,0:0:0:0:
448,192,91515,1,0,0:0:0:0:
320,192,91626,1,0,0:0:0:0:
64,192,91626,1,0,0:0:0:0:
192,192,91848,1,0,0:0:0:0:
448,192,91848,1,0,0:0:0:0:
64,192,91959,1,0,0:0:0:0:
320,192,91959,1,0,0:0:0:0:
448,192,91959,1,0,0:0:0:0:
192,192,92181,1,0,0:0:0:0:
320,192,92181,1,0,0:0:0:0:
64,192,92292,1,0,0:0:0:0:
192,192,92292,1,0,0:0:0:0:
448,192,92292,1,0,0:0:0:0:
448,192,92515,1,0,0:0:0:0:
320,192,92515,1,0,0:0:0:0:
448,192,92626,1,0,0:0:0:0:
192,192,92626,1,0,0:0:0:0:
64,192,92626,1,0,0:0:0:0:
320,192,92848,1,0,0:0:0:0:
64,192,92848,1,0,0:0:0:0:
192,192,92848,1,0,0:0:0:0:
448,192,93070,1,0,0:0:0:0:
320,192,93070,1,0,0:0:0:0:
192,192,93070,1,0,0:0:0:0:
64,192,93292,1,0,0:0:0:0:
320,192,93292,1,0,0:0:0:0:
448,192,93292,1,0,0:0:0:0:
64,192,93403,1,0,0:0:0:0:
320,192,93403,1,0,0:0:0:0:
192,192,93515,1,0,0:0:0:0:
448,192,93515,1,0,0:0:0:0:
64,192,93626,1,0,0:0:0:0:
448,192,93626,1,0,0:0:0:0:
320,192,93737,1,0,0:0:0:0:
192,192,93737,1,0,0:0:0:0:
64,192,93737,1,0,0:0:0:0:
320,192,93848,1,0,0:0:0:0:
448,192,93848,1,0,0:0:0:0:
64,192,93959,1,0,0:0:0:0:
448,192,93959,1,0,0:0:0:0:
192,192,93959,1,0,0:0:0:0:
320,192,94070,1,0,0:0:0:0:
64,192,94070,1,0,0:0:0:0:
192,192,94181,1,0,0:0:0:0:
448,192,94181,1,0,0:0:0:0:
64,192,94292,1,0,0:0:0:0:
320,192,94292,1,0,0:0:0:0:
448,192,94403,1,0,0:0:0:0:
192,192,94403,1,0,0:0:0:0:
320,192,94403,1,0,0:0:0:0:
64,192,94515,1,0,0:0:0:0:
448,192,94515,1,0,0:0:0:0:
192,192,94626,1,0,0:0:0:0:
320,192,94626,1,0,0:0:0:0:
64,192,94626,1,0,0:0:0:0:
448,192,94848,1,0,0:0:0:0:
320,192,94848,1,0,0:0:0:0:
192,192,94848,1,0,0:0:0:0:
64,192,95070,1,0,0:0:0:0:
192,192,95070,1,0,0:0:0:0:
448,192,95070,1,0,0:0:0:0:
320,192,95181,1,0,0:0:0:0:
64,192,95292,1,0,0:0:0:0:
448,192,95292,1,0,0:0:0:0:
192,192,95403,1,0,0:0:0:0:
64,192,95515,1,0,0:0:0:0:
448,192,95515,1,0,0:0:0:0:
320,192,95626,1,0,0:0:0:0:
192,192,95737,1,0,0:0:0:0:
64,192,95737,1,0,0:0:0:0:
320,192,95848,1,0,0:0:0:0:
448,192,95959,1,0,0:0:0:0:
192,192,95959,1,0,0:0:0:0:
64,192,96070,1,0,0:0:0:0:
320,192,96181,1,0,0:0:0:0:
448,192,96181,1,0,0:0:0:0:
64,192,96292,1,0,0:0:0:0:
192,192,96403,1,0,0:0:0:0:
448,192,96403,1,0,0:0:0:0:
320,192,96515,1,0,0:0:0:0:
64,192,96626,1,0,0:0:0:0:
448,192,96626,1,0,0:0:0:0:
192,192,96737,1,0,0:0:0:0:
64,192,96848,1,0,0:0:0:0:
320,192,96848,1,0,0:0:0:0:
448,192,96848,1,0,0:0:0:0:
192,192,96959,1,0,0:0:0:0:
448,192,97070,1,0,0:0:0:0:
320,192,97070,1,0,0:0:0:0:
64,192,97181,1,0,0:0:0:0:
192,192,97292,1,0,0:0:0:0:
320,192,97292,1,0,0:0:0:0:
64,192,97403,1,0,0:0:0:0:
320,192,97515,1,0,0:0:0:0:
448,192,97515,1,0,0:0:0:0:
192,192,97626,1,0,0:0:0:0:
64,192,97737,1,0,0:0:0:0:
448,192,97737,1,0,0:0:0:0:
320,192,97848,1,0,0:0:0:0:
192,192,97959,1,0,0:0:0:0:
64,192,97959,1,0,0:0:0:0:
320,192,98070,1,0,0:0:0:0:
448,192,98181,1,0,0:0:0:0:
64,192,98181,1,0,0:0:0:0:
192,192,98292,1,0,0:0:0:0:
448,192,98403,1,0,0:0:0:0:
64,192,98403,1,0,0:0:0:0:
320,192,98515,1,0,0:0:0:0:
64,192,98626,1,0,0:0:0:0:
448,192,98626,1,0,0:0:0:0:
192,192,98626,1,0,0:0:0:0:
320,192,98737,1,0,0:0:0:0:
192,192,98848,1,0,0:0:0:0:
448,192,98848,1,0,0:0:0:0:
64,192,98959,1,0,0:0:0:0:
320,192,99070,1,0,0:0:0:0:
448,192,99070,1,0,0:0:0:0:
64,192,99181,1,0,0:0:0:0:
192,192,99292,1,0,0:0:0:0:
448,192,99292,1,0,0:0:0:0:
320,192,99403,1,0,0:0:0:0:
64,192,99515,1,0,0:0:0:0:
448,192,99515,1,0,0:0:0:0:
192,192,99626,1,0,0:0:0:0:
448,192,99737,1,0,0:0:0:0:
320,192,99737,1,0,0:0:0:0:
64,192,99848,1,0,0:0:0:0:
192,192,99959,1,0,0:0:0:0:
448,192,99959,1,0,0:0:0:0:
320,192,100070,1,0,0:0:0:0:
64,192,100181,1,0,0:0:0:0:
448,192,100181,1,0,0:0:0:0:
64,192,100292,1,0,0:0:0:0:
320,192,100292,1,0,0:0:0:0:
192,192,100403,1,0,0:0:0:0:
448,192,100403,1,0,0:0:0:0:
64,192,100515,1,0,0:0:0:0:
320,192,100626,1,0,0:0:0:0:
192,192,100626,1,0,0:0:0:0:
448,192,100737,1,0,0:0:0:0:
192,192,100737,1,0,0:0:0:0:
64,192,100848,1,0,0:0:0:0:
320,192,100848,1,0,0:0:0:0:
64,192,100959,1,0,0:0:0:0:
448,192,100959,1,0,0:0:0:0:
192,192,101070,1,0,0:0:0:0:
448,192,101070,1,0,0:0:0:0:
64,192,101181,1,0,0:0:0:0:
320,192,101181,1,0,0:0:0:0:
448,192,101403,1,0,0:0:0:0:
64,192,101515,1,0,0:0:0:0:
320,192,101515,1,0,0:0:0:0:
192,192,101626,1,0,0:0:0:0:
64,192,101737,1,0,0:0:0:0:
448,192,101737,1,0,0:0:0:0:
192,192,101848,1,0,0:0:0:0:
448,192,101848,1,0,0:0:0:0:
64,192,101959,1,0,0:0:0:0:
320,192,101959,1,0,0:0:0:0:
448,192,102070,1,0,0:0:0:0:
192,192,102070,1,0,0:0:0:0:
320,192,102181,1,0,0:0:0:0:
64,192,102181,1,0,0:0:0:0:
192,192,102181,1,0,0:0:0:0:
448,192,102292,1,0,0:0:0:0:
64,192,102403,1,0,0:0:0:0:
192,192,102403,1,0,0:0:0:0:
320,192,102515,1,0,0:0:0:0:
448,192,102626,1,0,0:0:0:0:
64,192,102626,1,0,0:0:0:0:
192,192,102737,1,0,0:0:0:0:
448,192,102848,1,0,0:0:0:0:
64,192,102848,1,0,0:0:0:0:
320,192,102959,1,0,0:0:0:0:
64,192,103070,1,0,0:0:0:0:
192,192,103070,1,0,0:0:0:0:
448,192,103181,1,0,0:0:0:0:
320,192,103292,1,0,0:0:0:0:
192,192,103292,1,0,0:0:0:0:
64,192,103403,1,0,0:0:0:0:
448,192,103515,1,0,0:0:0:0:
320,192,103515,1,0,0:0:0:0:
192,192,103626,1,0,0:0:0:0:
64,192,103737,1,0,0:0:0:0:
448,192,103737,1,0,0:0:0:0:
320,192,103848,1,0,0:0:0:0:
64,192,103959,1,0,0:0:0:0:
192,192,103959,1,0,0:0:0:0:
448,192,103959,1,0,0:0:0:0:
320,192,104070,1,0,0:0:0:0:
64,192,104181,1,0,0:0:0:0:
448,192,104181,1,0,0:0:0:0:
192,192,104292,1,0,0:0:0:0:
64,192,104403,1,0,0:0:0:0:
320,192,104403,1,0,0:0:0:0:
192,192,104515,1,0,0:0:0:0:
448,192,104626,1,0,0:0:0:0:
320,192,104626,1,0,0:0:0:0:
64,192,104737,1,0,0:0:0:0:
192,192,104848,1,0,0:0:0:0:
448,192,104848,1,0,0:0:0:0:
64,192,104959,1,0,0:0:0:0:
320,192,105070,1,0,0:0:0:0:
448,192,105070,1,0,0:0:0:0:
192,192,105181,1,0,0:0:0:0:
64,192,105292,1,0,0:0:0:0:
448,192,105292,1,0,0:0:0:0:
320,192,105403,1,0,0:0:0:0:
192,192,105515,1,0,0:0:0:0:
64,192,105515,1,0,0:0:0:0:
448,192,105626,1,0,0:0:0:0:
64,192,105737,1,0,0:0:0:0:
192,192,105737,1,0,0:0:0:0:
320,192,105737,1,0,0:0:0:0:
448,192,105848,1,0,0:0:0:0:
320,192,105959,1,0,0:0:0:0:
192,192,105959,1,0,0:0:0:0:
64,192,106070,1,0,0:0:0:0:
448,192,106181,1,0,0:0:0:0:
320,192,106181,1,0,0:0:0:0:
64,192,106292,1,0,0:0:0:0:
192,192,106403,1,0,0:0:0:0:
320,192,106403,1,0,0:0:0:0:
448,192,106515,1,0,0:0:0:0:
320,192,106626,1,0,0:0:0:0:
64,192,106626,1,0,0:0:0:0:
192,192,106737,1,0,0:0:0:0:
448,192,106848,1,0,0:0:0:0:
320,192,106848,1,0,0:0:0:0:
192,192,106959,1,0,0:0:0:0:
64,192,107070,5,0,0:0:0:0:
192,192,107126,1,0,0:0:0:0:
448,192,107181,1,0,0:0:0:0:
320,192,107237,1,0,0:0:0:0:
64,192,107292,1,0,0:0:0:0:
192,192,107292,1,0,0:0:0:0:
320,192,107403,1,0,0:0:0:0:
64,192,107515,1,0,0:0:0:0:
192,192,107515,1,0,0:0:0:0:
448,192,107515,1,0,0:0:0:0:
320,192,107626,1,0,0:0:0:0:
192,192,107737,1,0,0:0:0:0:
448,192,107737,1,0,0:0:0:0:
320,192,107848,1,0,0:0:0:0:
64,192,107959,1,0,0:0:0:0:
192,192,107959,1,0,0:0:0:0:
448,192,108070,1,0,0:0:0:0:
320,192,108181,1,0,0:0:0:0:
192,192,108181,1,0,0:0:0:0:
64,192,108292,1,0,0:0:0:0:
192,192,108403,1,0,0:0:0:0:
448,192,108403,1,0,0:0:0:0:
320,192,108515,1,0,0:0:0:0:
192,192,108626,1,0,0:0:0:0:
448,192,108626,1,0,0:0:0:0:
64,192,108737,1,0,0:0:0:0:
320,192,108848,1,0,0:0:0:0:
192,192,108848,1,0,0:0:0:0:
448,192,108959,1,0,0:0:0:0:
64,192,109070,1,0,0:0:0:0:
320,192,109070,1,0,0:0:0:0:
192,192,109181,1,0,0:0:0:0:
448,192,109292,1,0,0:0:0:0:
64,192,109292,1,0,0:0:0:0:
320,192,109292,1,0,0:0:0:0:
192,192,109403,1,0,0:0:0:0:
448,192,109515,1,0,0:0:0:0:
64,192,109515,1,0,0:0:0:0:
320,192,109626,1,0,0:0:0:0:
448,192,109737,1,0,0:0:0:0:
64,192,109737,1,0,0:0:0:0:
192,192,109848,1,0,0:0:0:0:
448,192,109959,1,0,0:0:0:0:
64,192,109959,1,0,0:0:0:0:
320,192,110070,1,0,0:0:0:0:
448,192,110070,1,0,0:0:0:0:
192,192,110070,1,0,0:0:0:0:
448,192,110403,1,0,0:0:0:0:
64,192,110403,1,0,0:0:0:0:
192,192,110403,1,0,0:0:0:0:
320,192,110515,1,0,0:0:0:0:
448,192,110626,1,0,0:0:0:0:
192,192,110626,1,0,0:0:0:0:
320,192,110737,1,0,0:0:0:0:
448,192,110848,1,0,0:0:0:0:
64,192,110848,1,0,0:0:0:0:
192,192,110959,1,0,0:0:0:0:
320,192,110959,1,0,0:0:0:0:
320,192,111070,1,0,0:0:0:0:
64,192,111070,1,0,0:0:0:0:
448,192,111070,1,0,0:0:0:0:
192,192,111292,1,0,0:0:0:0:
320,192,111403,1,0,0:0:0:0:
448,192,111515,1,0,0:0:0:0:
64,192,111515,1,0,0:0:0:0:
192,192,111515,1,0,0:0:0:0:
320,192,111626,1,0,0:0:0:0:
192,192,111737,1,0,0:0:0:0:
448,192,111737,1,0,0:0:0:0:
320,192,111848,1,0,0:0:0:0:
64,192,111959,1,0,0:0:0:0:
192,192,111959,1,0,0:0:0:0:
448,192,112070,1,0,0:0:0:0:
448,192,112181,1,0,0:0:0:0:
192,192,112181,1,0,0:0:0:0:
320,192,112292,1,0,0:0:0:0:
64,192,112403,1,0,0:0:0:0:
448,192,112403,1,0,0:0:0:0:
192,192,112515,1,0,0:0:0:0:
320,192,112626,5,0,0:0:0:0:
64,192,112626,1,0,0:0:0:0:
192,192,112737,1,0,0:0:0:0:
64,192,112848,5,0,0:0:0:0:
448,192,112848,1,0,0:0:0:0:
320,192,112848,1,0,0:0:0:0:
192,192,112959,1,0,0:0:0:0:
448,192,113070,1,0,0:0:0:0:
320,192,113070,1,0,0:0:0:0:
64,192,113181,1,0,0:0:0:0:
192,192,113292,1,0,0:0:0:0:
448,192,113292,1,0,0:0:0:0:
320,192,113403,1,0,0:0:0:0:
64,192,113515,1,0,0:0:0:0:
192,192,113515,1,0,0:0:0:0:
448,192,113626,1,0,0:0:0:0:
64,192,113626,1,0,0:0:0:0:
192,192,113737,5,0,0:0:0:0:
320,192,113792,1,0,0:0:0:0:
448,192,113848,1,0,0:0:0:0:
192,192,113959,1,0,0:0:0:0:
320,192,113959,1,0,0:0:0:0:
64,192,113959,1,0,0:0:0:0:
64,192,114070,1,0,0:0:0:0:
192,192,114126,1,0,0:0:0:0:
320,192,114181,1,0,0:0:0:0:
448,192,114181,1,0,0:0:0:0:
64,192,114292,1,0,0:0:0:0:
192,192,114348,1,0,0:0:0:0:
448,192,114403,1,0,0:0:0:0:
320,192,114459,1,0,0:0:0:0:
192,192,114515,1,0,0:0:0:0:
448,192,114626,1,0,0:0:0:0:
320,192,114626,1,0,0:0:0:0:
64,192,114626,1,0,0:0:0:0:
192,192,114737,1,0,0:0:0:0:
448,192,114848,1,0,0:0:0:0:
64,192,114848,1,0,0:0:0:0:
320,192,114959,1,0,0:0:0:0:
64,192,115070,1,0,0:0:0:0:
448,192,115070,1,0,0:0:0:0:
192,192,115070,1,0,0:0:0:0:
320,192,115181,1,0,0:0:0:0:
64,192,115292,1,0,0:0:0:0:
192,192,115292,1,0,0:0:0:0:
448,192,115403,1,0,0:0:0:0:
320,192,115515,1,0,0:0:0:0:
64,192,115515,1,0,0:0:0:0:
192,192,115626,1,0,0:0:0:0:
64,192,115737,1,0,0:0:0:0:
320,192,115737,1,0,0:0:0:0:
448,192,115848,1,0,0:0:0:0:
64,192,115959,1,0,0:0:0:0:
320,192,115959,1,0,0:0:0:0:
192,192,115959,1,0,0:0:0:0:
448,192,116070,1,0,0:0:0:0:
320,192,116181,1,0,0:0:0:0:
64,192,116181,1,0,0:0:0:0:
192,192,116292,1,0,0:0:0:0:
448,192,116403,1,0,0:0:0:0:
320,192,116403,1,0,0:0:0:0:
64,192,116403,1,0,0:0:0:0:
192,192,116515,1,0,0:0:0:0:
448,192,116626,1,0,0:0:0:0:
64,192,116626,1,0,0:0:0:0:
320,192,116737,1,0,0:0:0:0:
64,192,116848,1,0,0:0:0:0:
192,192,116848,1,0,0:0:0:0:
448,192,116848,1,0,0:0:0:0:
320,192,116959,1,0,0:0:0:0:
64,192,117070,1,0,0:0:0:0:
448,192,117070,1,0,0:0:0:0:
320,192,117181,1,0,0:0:0:0:
192,192,117292,1,0,0:0:0:0:
64,192,117292,1,0,0:0:0:0:
448,192,117403,1,0,0:0:0:0:
320,192,117515,1,0,0:0:0:0:
64,192,117515,1,0,0:0:0:0:
448,192,117626,1,0,0:0:0:0:
192,192,117626,1,0,0:0:0:0:
448,192,117737,1,0,0:0:0:0:
192,192,117737,1,0,0:0:0:0:
64,192,117737,1,0,0:0:0:0:
320,192,117848,1,0,0:0:0:0:
64,192,117848,1,0,0:0:0:0:
192,192,117959,1,0,0:0:0:0:
448,192,117959,1,0,0:0:0:0:
320,192,118070,1,0,0:0:0:0:
448,192,118181,1,0,0:0:0:0:
192,192,118181,1,0,0:0:0:0:
64,192,118181,1,0,0:0:0:0:
320,192,118403,1,0,0:0:0:0:
192,192,118515,1,0,0:0:0:0:
64,192,118626,1,0,0:0:0:0:
448,192,118626,1,0,0:0:0:0:
320,192,118737,1,0,0:0:0:0:
64,192,118848,1,0,0:0:0:0:
448,192,118848,1,0,0:0:0:0:
192,192,118959,1,0,0:0:0:0:
320,192,119070,1,0,0:0:0:0:
64,192,119070,1,0,0:0:0:0:
448,192,119181,1,0,0:0:0:0:
320,192,119292,1,0,0:0:0:0:
64,192,119292,1,0,0:0:0:0:
192,192,119403,1,0,0:0:0:0:
448,192,119515,1,0,0:0:0:0:
320,192,119515,1,0,0:0:0:0:
64,192,119515,1,0,0:0:0:0:
192,192,119626,1,0,0:0:0:0:
448,192,119737,1,0,0:0:0:0:
320,192,119737,1,0,0:0:0:0:
64,192,119848,1,0,0:0:0:0:
448,192,119959,1,0,0:0:0:0:
192,192,119959,1,0,0:0:0:0:
320,192,119959,1,0,0:0:0:0:
64,192,120070,1,0,0:0:0:0:
448,192,120181,1,0,0:0:0:0:
192,192,120181,1,0,0:0:0:0:
320,192,120292,1,0,0:0:0:0:
64,192,120403,1,0,0:0:0:0:
192,192,120403,1,0,0:0:0:0:
448,192,120515,1,0,0:0:0:0:
320,192,120626,1,0,0:0:0:0:
192,192,120626,1,0,0:0:0:0:
64,192,120737,1,0,0:0:0:0:
448,192,120848,1,0,0:0:0:0:
320,192,120848,1,0,0:0:0:0:
192,192,120959,1,0,0:0:0:0:
64,192,121070,1,0,0:0:0:0:
320,192,121070,1,0,0:0:0:0:
192,192,121181,1,0,0:0:0:0:
448,192,121292,1,0,0:0:0:0:
64,192,121292,1,0,0:0:0:0:
320,192,121292,1,0,0:0:0:0:
192,192,121403,1,0,0:0:0:0:
64,192,121515,1,0,0:0:0:0:
320,192,121515,1,0,0:0:0:0:
448,192,121515,1,0,0:0:0:0:
192,192,121626,1,0,0:0:0:0:
448,192,121737,1,0,0:0:0:0:
320,192,121737,1,0,0:0:0:0:
64,192,121737,1,0,0:0:0:0:
192,192,121848,1,0,0:0:0:0:
448,192,121959,1,0,0:0:0:0:
320,192,121959,1,0,0:0:0:0:
64,192,122070,1,0,0:0:0:0:
192,192,122181,1,0,0:0:0:0:
448,192,122181,1,0,0:0:0:0:
320,192,122292,1,0,0:0:0:0:
64,192,122403,1,0,0:0:0:0:
192,192,122403,1,0,0:0:0:0:
448,192,122515,1,0,0:0:0:0:
320,192,122626,1,0,0:0:0:0:
192,192,122626,1,0,0:0:0:0:
64,192,122737,1,0,0:0:0:0:
448,192,122848,1,0,0:0:0:0:
192,192,122848,1,0,0:0:0:0:
320,192,122959,1,0,0:0:0:0:
448,192,123070,1,0,0:0:0:0:
64,192,123070,1,0,0:0:0:0:
192,192,123070,1,0,0:0:0:0:
320,192,123181,1,0,0:0:0:0:
192,192,123292,1,0,0:0:0:0:
448,192,123292,1,0,0:0:0:0:
64,192,123292,1,0,0:0:0:0:
320,192,123403,1,0,0:0:0:0:
64,192,123515,1,0,0:0:0:0:
192,192,123515,1,0,0:0:0:0:
448,192,123515,1,0,0:0:0:0:
320,192,123626,1,0,0:0:0:0:
64,192,123626,1,0,0:0:0:0:
448,192,123848,1,0,0:0:0:0:
192,192,123848,1,0,0:0:0:0:
320,192,123959,1,0,0:0:0:0:
64,192,123959,1,0,0:0:0:0:
448,192,123959,1,0,0:0:0:0:
320,192,124181,1,0,0:0:0:0:
192,192,124181,1,0,0:0:0:0:
64,192,124292,1,0,0:0:0:0:
448,192,124292,1,0,0:0:0:0:
320,192,124292,1,0,0:0:0:0:
448,192,124515,1,0,0:0:0:0:
192,192,124515,1,0,0:0:0:0:
320,192,124626,1,0,0:0:0:0:
64,192,124626,1,0,0:0:0:0:
192,192,124626,1,0,0:0:0:0:
448,192,124848,1,0,0:0:0:0:
192,192,124848,1,0,0:0:0:0:
192,192,124959,1,0,0:0:0:0:
448,192,124959,1,0,0:0:0:0:
320,192,125070,1,0,0:0:0:0:
64,192,125070,1,0,0:0:0:0:
320,192,125181,1,0,0:0:0:0:
64,192,125181,1,0,0:0:0:0:
192,192,125292,1,0,0:0:0:0:
448,192,125292,1,0,0:0:0:0:
64,192,125403,1,0,0:0:0:0:
320,192,125403,1,0,0:0:0:0:
448,192,125403,1,0,0:0:0:0:
192,192,125626,1,0,0:0:0:0:
320,192,125626,1,0,0:0:0:0:
448,192,125626,1,0,0:0:0:0:
64,192,125737,1,0,0:0:0:0:
192,192,125737,1,0,0:0:0:0:
448,192,125959,1,0,0:0:0:0:
320,192,125959,1,0,0:0:0:0:
64,192,125959,1,0,0:0:0:0:
192,192,126070,1,0,0:0:0:0:
448,192,126070,1,0,0:0:0:0:
64,192,126292,1,0,0:0:0:0:
448,192,126292,1,0,0:0:0:0:
192,192,126292,1,0,0:0:0:0:
448,192,126403,1,0,0:0:0:0:
192,192,126403,1,0,0:0:0:0:
320,192,126626,1,0,0:0:0:0:
64,192,126626,1,0,0:0:0:0:
64,192,126737,1,0,0:0:0:0:
320,192,126737,1,0,0:0:0:0:
448,192,126848,1,0,0:0:0:0:
192,192,126848,1,0,0:0:0:0:
64,192,126959,1,0,0:0:0:0:
448,192,126959,1,0,0:0:0:0:
320,192,127070,1,0,0:0:0:0:
192,192,127070,1,0,0:0:0:0:
64,192,127070,1,0,0:0:0:0:
448,192,127181,1,0,0:0:0:0:
320,192,127292,1,0,0:0:0:0:
64,192,127292,1,0,0:0:0:0:
192,192,127403,1,0,0:0:0:0:
448,192,127403,1,0,0:0:0:0:
320,192,127515,1,0,0:0:0:0:
64,192,127626,1,0,0:0:0:0:
192,192,127737,5,0,0:0:0:0:
448,192,127737,1,0,0:0:0:0:
320,192,127737,1,0,0:0:0:0:
64,192,127848,1,0,0:0:0:0:
320,192,127959,1,0,0:0:0:0:
448,192,127959,1,0,0:0:0:0:
64,192,128070,1,0,0:0:0:0:
192,192,128070,1,0,0:0:0:0:
448,192,128181,1,0,0:0:0:0:
64,192,128181,1,0,0:0:0:0:
192,192,128292,1,0,0:0:0:0:
448,192,128292,1,0,0:0:0:0:
320,192,128403,1,0,0:0:0:0:
64,192,128403,1,0,0:0:0:0:
64,192,128515,1,0,0:0:0:0:
448,192,128515,1,0,0:0:0:0:
192,192,128626,1,0,0:0:0:0:
320,192,128626,1,0,0:0:0:0:
64,192,128737,1,0,0:0:0:0:
448,192,128737,1,0,0:0:0:0:
64,192,128848,5,0,0:0:0:0:
320,192,128848,1,0,0:0:0:0:
448,192,128848,1,0,0:0:0:0:
192,192,128959,1,0,0:0:0:0:
64,192,129070,1,0,0:0:0:0:
448,192,129070,1,0,0:0:0:0:
320,192,129181,1,0,0:0:0:0:
192,192,129292,1,0,0:0:0:0:
64,192,129292,1,0,0:0:0:0:
448,192,129403,1,0,0:0:0:0:
192,192,129515,1,0,0:0:0:0:
64,192,129515,1,0,0:0:0:0:
320,192,129626,1,0,0:0:0:0:
448,192,129737,1,0,0:0:0:0:
64,192,129737,1,0,0:0:0:0:
192,192,129848,1,0,0:0:0:0:
320,192,129959,1,0,0:0:0:0:
64,192,129959,1,0,0:0:0:0:
192,192,130070,1,0,0:0:0:0:
448,192,130181,1,0,0:0:0:0:
320,192,130181,1,0,0:0:0:0:
64,192,130292,1,0,0:0:0:0:
192,192,130403,1,0,0:0:0:0:
448,192,130403,1,0,0:0:0:0:
320,192,130515,1,0,0:0:0:0:
64,192,130626,5,0,0:0:0:0:
192,192,130626,1,0,0:0:0:0:
448,192,130626,1,0,0:0:0:0:
320,192,130737,1,0,0:0:0:0:
192,192,130848,1,0,0:0:0:0:
448,192,130848,1,0,0:0:0:0:
64,192,130959,1,0,0:0:0:0:
192,192,131070,1,0,0:0:0:0:
448,192,131070,1,0,0:0:0:0:
320,192,131181,1,0,0:0:0:0:
64,192,131292,1,0,0:0:0:0:
192,192,131292,1,0,0:0:0:0:
320,192,131403,1,0,0:0:0:0:
448,192,131515,1,0,0:0:0:0:
64,192,131515,1,0,0:0:0:0:
192,192,131626,1,0,0:0:0:0:
64,192,131737,5,0,0:0:0:0:
448,192,131737,1,0,0:0:0:0:
192,192,131792,1,0,0:0:0:0:
448,192,131848,1,0,0:0:0:0:
320,192,131903,1,0,0:0:0:0:
64,192,131959,1,0,0:0:0:0:
192,192,131959,1,0,0:0:0:0:
448,192,132070,1,0,0:0:0:0:
320,192,132181,1,0,0:0:0:0:
192,192,132181,1,0,0:0:0:0:
64,192,132292,1,0,0:0:0:0:
448,192,132403,1,0,0:0:0:0:
192,192,132403,1,0,0:0:0:0:
320,192,132403,1,0,0:0:0:0:
64,192,132515,1,0,0:0:0:0:
192,192,132626,1,0,0:0:0:0:
320,192,132626,1,0,0:0:0:0:
64,192,132737,1,0,0:0:0:0:
320,192,132848,1,0,0:0:0:0:
448,192,132848,1,0,0:0:0:0:
192,192,132959,1,0,0:0:0:0:
64,192,133070,1,0,0:0:0:0:
448,192,133070,1,0,0:0:0:0:
320,192,133181,1,0,0:0:0:0:
64,192,133292,1,0,0:0:0:0:
192,192,133292,1,0,0:0:0:0:
448,192,133403,1,0,0:0:0:0:
320,192,133515,1,0,0:0:0:0:
192,192,133515,1,0,0:0:0:0:
448,192,133626,1,0,0:0:0:0:
192,192,133737,1,0,0:0:0:0:
64,192,133737,1,0,0:0:0:0:
320,192,133848,1,0,0:0:0:0:
64,192,133959,1,0,0:0:0:0:
192,192,133959,1,0,0:0:0:0:
448,192,134070,1,0,0:0:0:0:
64,192,134181,1,0,0:0:0:0:
192,192,134181,1,0,0:0:0:0:
320,192,134181,1,0,0:0:0:0:
448,192,134292,1,0,0:0:0:0:
320,192,134403,1,0,0:0:0:0:
64,192,134403,1,0,0:0:0:0:
64,192,134515,1,0,0:0:0:0:
192,192,134626,1,0,0:0:0:0:
448,192,134626,1,0,0:0:0:0:
448,192,134737,1,0,0:0:0:0:
320,192,134848,1,0,0:0:0:0:
64,192,134848,1,0,0:0:0:0:
192,192,134959,1,0,0:0:0:0:
448,192,135070,1,0,0:0:0:0:
320,192,135070,1,0,0:0:0:0:
64,192,135181,1,0,0:0:0:0:
192,192,135292,1,0,0:0:0:0:
448,192,135292,1,0,0:0:0:0:
320,192,135403,1,0,0:0:0:0:
64,192,135515,5,0,0:0:0:0:
192,192,135515,1,0,0:0:0:0:
192,192,135626,1,0,0:0:0:0:
64,192,135626,1,0,0:0:0:0:
64,192,135737,1,0,0:0:0:0:
192,192,135737,1,0,0:0:0:0:
192,192,135848,1,0,0:0:0:0:
64,192,135848,1,0,0:0:0:0:
448,192,135959,1,0,0:0:0:0:
320,192,135959,1,0,0:0:0:0:
192,192,136070,1,0,0:0:0:0:
64,192,136181,1,0,0:0:0:0:
320,192,136181,1,0,0:0:0:0:
448,192,136292,1,0,0:0:0:0:
320,192,136403,1,0,0:0:0:0:
64,192,136403,1,0,0:0:0:0:
192,192,136515,1,0,0:0:0:0:
320,192,136626,1,0,0:0:0:0:
64,192,136626,1,0,0:0:0:0:
448,192,136737,1,0,0:0:0:0:
448,192,136848,1,0,0:0:0:0:
320,192,136848,1,0,0:0:0:0:
64,192,136848,1,0,0:0:0:0:
192,192,136848,1,0,0:0:0:0:
192,192,136959,1,0,0:0:0:0:
64,192,137070,1,0,0:0:0:0:
320,192,137070,1,0,0:0:0:0:
448,192,137181,1,0,0:0:0:0:
320,192,137292,1,0,0:0:0:0:
192,192,137292,1,0,0:0:0:0:
64,192,137403,1,0,0:0:0:0:
448,192,137515,1,0,0:0:0:0:
192,192,137515,1,0,0:0:0:0:
320,192,137626,1,0,0:0:0:0:
64,192,137737,1,0,0:0:0:0:
192,192,137737,1,0,0:0:0:0:
320,192,137737,1,0,0:0:0:0:
448,192,137737,1,0,0:0:0:0:
64,192,137848,1,0,0:0:0:0:
448,192,137959,1,0,0:0:0:0:
192,192,137959,1,0,0:0:0:0:
320,192,138070,1,0,0:0:0:0:
64,192,138181,1,0,0:0:0:0:
192,192,138181,1,0,0:0:0:0:
448,192,138292,1,0,0:0:0:0:
320,192,138403,1,0,0:0:0:0:
192,192,138403,1,0,0:0:0:0:
64,192,138515,1,0,0:0:0:0:
448,192,138626,1,0,0:0:0:0:
320,192,138626,1,0,0:0:0:0:
64,192,138626,1,0,0:0:0:0:
192,192,138626,1,0,0:0:0:0:
448,192,138737,1,0,0:0:0:0:
64,192,138848,1,0,0:0:0:0:
320,192,138848,1,0,0:0:0:0:
448,192,138959,1,0,0:0:0:0:
192,192,139070,1,0,0:0:0:0:
64,192,139070,1,0,0:0:0:0:
320,192,139181,1,0,0:0:0:0:
448,192,139181,1,0,0:0:0:0:
192,192,139292,1,0,0:0:0:0:
64,192,139292,1,0,0:0:0:0:
320,192,139403,1,0,0:0:0:0:
448,192,139403,1,0,0:0:0:0:
64,192,139515,1,0,0:0:0:0:
192,192,139515,1,0,0:0:0:0:
448,192,139515,1,0,0:0:0:0:
320,192,139626,1,0,0:0:0:0:
64,192,139737,1,0,0:0:0:0:
192,192,139737,1,0,0:0:0:0:
320,192,139848,1,0,0:0:0:0:
192,192,139959,1,0,0:0:0:0:
448,192,139959,1,0,0:0:0:0:
64,192,140070,1,0,0:0:0:0:
320,192,140181,1,0,0:0:0:0:
448,192,140181,1,0,0:0:0:0:
192,192,140292,1,0,0:0:0:0:
448,192,140403,1,0,0:0:0:0:
320,192,140403,1,0,0:0:0:0:
64,192,140403,1,0,0:0:0:0:
192,192,140515,1,0,0:0:0:0:
448,192,140626,1,0,0:0:0:0:
320,192,140626,1,0,0:0:0:0:
64,192,140737,1,0,0:0:0:0:
320,192,140848,1,0,0:0:0:0:
448,192,140848,1,0,0:0:0:0:
192,192,140959,1,0,0:0:0:0:
64,192,141070,1,0,0:0:0:0:
320,192,141070,1,0,0:0:0:0:
192,192,141181,1,0,0:0:0:0:
448,192,141292,1,0,0:0:0:0:
320,192,141292,1,0,0:0:0:0:
64,192,141292,1,0,0:0:0:0:
320,192,141515,1,0,0:0:0:0:
64,192,141626,1,0,0:0:0:0:
448,192,141626,1,0,0:0:0:0:
192,192,141626,1,0,0:0:0:0:
192,192,141848,1,0,0:0:0:0:
448,192,141959,1,0,0:0:0:0:
320,192,141959,1,0,0:0:0:0:
64,192,141959,1,0,0:0:0:0:
192,192,142181,1,0,0:0:0:0:
320,192,142181,1,0,0:0:0:0:
64,192,142292,1,0,0:0:0:0:
448,192,142292,1,0,0:0:0:0:
64,192,142403,1,0,0:0:0:0:
320,192,142403,1,0,0:0:0:0:
320,192,142515,1,0,0:0:0:0:
192,192,142515,1,0,0:0:0:0:
64,192,142626,1,0,0:0:0:0:
448,192,142626,1,0,0:0:0:0:
192,192,142737,1,0,0:0:0:0:
448,192,142737,1,0,0:0:0:0:
320,192,142848,1,0,0:0:0:0:
64,192,142848,1,0,0:0:0:0:
192,192,142959,1,0,0:0:0:0:
448,192,142959,1,0,0:0:0:0:
320,192,143070,1,0,0:0:0:0:
192,192,143070,1,0,0:0:0:0:
64,192,143070,1,0,0:0:0:0:
448,192,143181,1,0,0:0:0:0:
192,192,143292,1,0,0:0:0:0:
64,192,143292,1,0,0:0:0:0:
320,192,143403,1,0,0:0:0:0:
448,192,143515,1,0,0:0:0:0:
64,192,143515,1,0,0:0:0:0:
192,192,143515,1,0,0:0:0:0:
320,192,143626,1,0,0:0:0:0:
64,192,143737,1,0,0:0:0:0:
448,192,143737,1,0,0:0:0:0:
192,192,143848,1,0,0:0:0:0:
64,192,143959,1,0,0:0:0:0:
320,192,143959,1,0,0:0:0:0:
448,192,143959,1,0,0:0:0:0:
192,192,144070,1,0,0:0:0:0:
64,192,144181,1,0,0:0:0:0:
448,192,144181,1,0,0:0:0:0:
320,192,144292,1,0,0:0:0:0:
448,192,144403,1,0,0:0:0:0:
192,192,144403,1,0,0:0:0:0:
64,192,144403,1,0,0:0:0:0:
320,192,144515,1,0,0:0:0:0:
448,192,144626,1,0,0:0:0:0:
192,192,144626,1,0,0:0:0:0:
320,192,144737,1,0,0:0:0:0:
64,192,144848,1,0,0:0:0:0:
192,192,144848,1,0,0:0:0:0:
448,192,144848,1,0,0:0:0:0:
320,192,144959,1,0,0:0:0:0:
64,192,145070,1,0,0:0:0:0:
192,192,145070,1,0,0:0:0:0:
448,192,145181,1,0,0:0:0:0:
320,192,145292,1,0,0:0:0:0:
192,192,145292,1,0,0:0:0:0:
64,192,145292,1,0,0:0:0:0:
448,192,145403,1,0,0:0:0:0:
320,192,145515,1,0,0:0:0:0:
192,192,145515,1,0,0:0:0:0:
64,192,145626,1,0,0:0:0:0:
320,192,145737,1,0,0:0:0:0:
448,192,145737,1,0,0:0:0:0:
192,192,145737,1,0,0:0:0:0:
64,192,145848,1,0,0:0:0:0:
192,192,145959,1,0,0:0:0:0:
448,192,145959,1,0,0:0:0:0:
320,192,146070,1,0,0:0:0:0:
64,192,146181,1,0,0:0:0:0:
192,192,146181,1,0,0:0:0:0:
320,192,146237,1,0,0:0:0:0:
448,192,146237,1,0,0:0:0:0:
192,192,146292,1,0,0:0:0:0:
64,192,146292,1,0,0:0:0:0:
320,192,146348,1,0,0:0:0:0:
448,192,146348,1,0,0:0:0:0:
192,192,146403,1,0,0:0:0:0:
64,192,146403,1,0,0:0:0:0:
448,192,146515,1,0,0:0:0:0:
320,192,146626,1,0,0:0:0:0:
64,192,146626,1,0,0:0:0:0:
192,192,146626,1,0,0:0:0:0:
448,192,146737,1,0,0:0:0:0:
320,192,146848,1,0,0:0:0:0:
64,192,146848,1,0,0:0:0:0:
192,192,146959,1,0,0:0:0:0:
448,192,147070,1,0,0:0:0:0:
192,192,147070,1,0,0:0:0:0:
320,192,147181,1,0,0:0:0:0:
64,192,147292,1,0,0:0:0:0:
448,192,147292,1,0,0:0:0:0:
192,192,147403,1,0,0:0:0:0:
320,192,147515,1,0,0:0:0:0:
448,192,147515,1,0,0:0:0:0:
64,192,147626,1,0,0:0:0:0:
192,192,147737,1,0,0:0:0:0:
448,192,147737,1,0,0:0:0:0:
320,192,147848,1,0,0:0:0:0:
448,192,147959,1,0,0:0:0:0:
192,192,147959,1,0,0:0:0:0:
64,192,148070,1,0,0:0:0:0:
320,192,148181,1,0,0:0:0:0:
448,192,148181,1,0,0:0:0:0:
192,192,148292,1,0,0:0:0:0:
64,192,148403,1,0,0:0:0:0:
320,192,148403,1,0,0:0:0:0:
448,192,148403,1,0,0:0:0:0:
192,192,148515,1,0,0:0:0:0:
64,192,148626,1,0,0:0:0:0:
320,192,148626,1,0,0:0:0:0:
192,192,148737,1,0,0:0:0:0:
448,192,148848,5,0,0:0:0:0:
192,192,148848,1,0,0:0:0:0:
448,192,148959,1,0,0:0:0:0:
320,192,149070,1,0,0:0:0:0:
64,192,149070,1,0,0:0:0:0:
192,192,149181,1,0,0:0:0:0:
64,192,149292,1,0,0:0:0:0:
448,192,149292,1,0,0:0:0:0:
320,192,149292,1,0,0:0:0:0:
192,192,149403,1,0,0:0:0:0:
448,192,149515,1,0,0:0:0:0:
64,192,149515,1,0,0:0:0:0:
192,192,149626,1,0,0:0:0:0:
64,192,149737,5,0,0:0:0:0:
320,192,149737,1,0,0:0:0:0:
64,192,149848,1,0,0:0:0:0:
320,192,149848,1,0,0:0:0:0:
192,192,149959,1,0,0:0:0:0:
448,192,149959,1,0,0:0:0:0:
448,192,150070,1,0,0:0:0:0:
192,192,150070,1,0,0:0:0:0:
64,192,150181,1,0,0:0:0:0:
192,192,150181,1,0,0:0:0:0:
320,192,150181,1,0,0:0:0:0:
448,192,150181,1,0,0:0:0:0:
192,192,150292,1,0,0:0:0:0:
64,192,150403,1,0,0:0:0:0:
320,192,150403,1,0,0:0:0:0:
192,192,150515,1,0,0:0:0:0:
448,192,150626,1,0,0:0:0:0:
320,192,150626,1,0,0:0:0:0:
64,192,150737,1,0,0:0:0:0:
192,192,150848,1,0,0:0:0:0:
448,192,150848,1,0,0:0:0:0:
320,192,150959,1,0,0:0:0:0:
448,192,151070,1,0,0:0:0:0:
320,192,151070,1,0,0:0:0:0:
192,192,151070,1,0,0:0:0:0:
64,192,151070,1,0,0:0:0:0:
64,192,151181,1,0,0:0:0:0:
448,192,151292,1,0,0:0:0:0:
320,192,151292,1,0,0:0:0:0:
192,192,151403,1,0,0:0:0:0:
64,192,151515,1,0,0:0:0:0:
448,192,151515,1,0,0:0:0:0:
320,192,151626,1,0,0:0:0:0:
192,192,151737,1,0,0:0:0:0:
448,192,151737,1,0,0:0:0:0:
320,192,151848,1,0,0:0:0:0:
64,192,151959,1,0,0:0:0:0:
192,192,151959,1,0,0:0:0:0:
320,192,151959,1,0,0:0:0:0:
448,192,151959,1,0,0:0:0:0:
192,192,152070,1,0,0:0:0:0:
64,192,152181,1,0,0:0:0:0:
448,192,152181,1,0,0:0:0:0:
192,192,152292,1,0,0:0:0:0:
320,192,152403,1,0,0:0:0:0:
448,192,152403,1,0,0:0:0:0:
64,192,152515,1,0,0:0:0:0:
192,192,152626,1,0,0:0:0:0:
448,192,152626,1,0,0:0:0:0:
64,192,152737,1,0,0:0:0:0:
448,192,152848,1,0,0:0:0:0:
320,192,152848,1,0,0:0:0:0:
192,192,152848,1,0,0:0:0:0:
64,192,152959,1,0,0:0:0:0:
448,192,153070,1,0,0:0:0:0:
320,192,153070,1,0,0:0:0:0:
192,192,153126,1,0,0:0:0:0:
64,192,153126,1,0,0:0:0:0:
320,192,153181,1,0,0:0:0:0:
448,192,153181,1,0,0:0:0:0:
192,192,153237,1,0,0:0:0:0:
64,192,153237,1,0,0:0:0:0:
320,192,153292,1,0,0:0:0:0:
448,192,153292,1,0,0:0:0:0:
64,192,153403,1,0,0:0:0:0:
192,192,153515,1,0,0:0:0:0:
448,192,153515,1,0,0:0:0:0:
320,192,153626,1,0,0:0:0:0:
64,192,153737,1,0,0:0:0:0:
192,192,153737,1,0,0:0:0:0:
448,192,153737,1,0,0:0:0:0:
192,192,153959,1,0,0:0:0:0:
448,192,153959,1,0,0:0:0:0:
320,192,153959,1,0,0:0:0:0:
64,192,154181,1,0,0:0:0:0:
320,192,154181,1,0,0:0:0:0:
192,192,154292,1,0,0:0:0:0:
448,192,154292,1,0,0:0:0:0:
320,192,154403,1,0,0:0:0:0:
64,192,154403,1,0,0:0:0:0:
64,192,154515,1,4,0:0:0:0:
192,192,154515,1,4,0:0:0:0:
448,192,154515,1,4,0:0:0:0:
320,192,154737,1,0,0:0:0:0:
192,192,154737,1,0,0:0:0:0:
448,192,154848,1,0,0:0:0:0:
192,192,154848,1,0,0:0:0:0:
320,192,154959,1,0,0:0:0:0:
64,192,154959,1,0,0:0:0:0:
448,192,155070,1,0,0:0:0:0:
192,192,155070,1,0,0:0:0:0:
320,192,155181,1,0,0:0:0:0:
64,192,155181,1,0,0:0:0:0:
448,192,155292,1,0,0:0:0:0:
192,192,155292,1,0,0:0:0:0:
192,192,155403,1,0,0:0:0:0:
448,192,155403,1,0,0:0:0:0:
320,192,155515,1,0,0:0:0:0:
64,192,155515,1,0,0:0:0:0:
448,192,155737,1,0,0:0:0:0:
192,192,155737,1,0,0:0:0:0:
320,192,155737,1,0,0:0:0:0:
448,192,155959,1,0,0:0:0:0:
64,192,155959,1,0,0:0:0:0:
64,192,156070,1,0,0:0:0:0:
320,192,156070,1,0,0:0:0:0:
192,192,156181,1,0,0:0:0:0:
448,192,156181,1,0,0:0:0:0:
448,192,156292,1,4,0:0:0:0:
320,192,156292,1,4,0:0:0:0:
64,192,156292,1,4,0:0:0:0:
192,192,156515,1,0,0:0:0:0:
448,192,156515,1,0,0:0:0:0:
64,192,156626,1,0,0:0:0:0:
320,192,156626,1,0,0:0:0:0:
448,192,156737,1,0,0:0:0:0:
192,192,156737,1,0,0:0:0:0:
320,192,156848,1,0,0:0:0:0:
192,192,156848,1,0,0:0:0:0:
64,192,156848,1,0,0:0:0:0:
448,192,156959,1,0,0:0:0:0:
64,192,156959,1,0,0:0:0:0:
192,192,157070,1,0,0:0:0:0:
448,192,157070,1,0,0:0:0:0:
320,192,157181,1,0,0:0:0:0:
64,192,157181,1,0,0:0:0:0:
192,192,157292,1,0,0:0:0:0:
448,192,157292,1,0,0:0:0:0:
320,192,157292,1,0,0:0:0:0:
64,192,157403,1,0,0:0:0:0:
448,192,157403,1,0,0:0:0:0:
320,192,157515,1,4,0:0:0:0:
192,192,157515,1,4,0:0:0:0:
64,192,157515,1,4,0:0:0:0:
64,192,157737,1,0,0:0:0:0:
448,192,157737,1,0,0:0:0:0:
192,192,157848,1,0,0:0:0:0:
448,192,157848,1,0,0:0:0:0:
320,192,157959,1,0,0:0:0:0:
64,192,157959,1,0,0:0:0:0:
448,192,158070,1,4,0:0:0:0:
64,192,158070,1,4,0:0:0:0:
192,192,158070,1,4,0:0:0:0:
320,192,158292,1,0,0:0:0:0:
192,192,158292,1,0,0:0:0:0:
64,192,158403,1,0,0:0:0:0:
192,192,158403,1,0,0:0:0:0:
448,192,158515,1,0,0:0:0:0:
64,192,158515,1,0,0:0:0:0:
192,192,158626,1,0,0:0:0:0:
448,192,158626,1,0,0:0:0:0:
320,192,158737,1,0,0:0:0:0:
64,192,158737,1,0,0:0:0:0:
192,192,158848,1,0,0:0:0:0:
448,192,158848,1,0,0:0:0:0:
320,192,158959,1,0,0:0:0:0:
64,192,158959,1,0,0:0:0:0:
64,192,159070,1,4,0:0:0:0:
192,192,159070,1,0,0:0:0:0:
448,192,159070,1,0,0:0:0:0:
320,192,159292,1,0,0:0:0:0:
64,192,159292,1,0,0:0:0:0:
448,192,159403,1,0,0:0:0:0:
192,192,159403,1,0,0:0:0:0:
64,192,159478,1,0,0:0:0:0:
448,192,159626,1,0,0:0:0:0:
320,192,159737,1,0,0:0:0:0:
192,192,159737,1,0,0:0:0:0:
64,192,159737,1,0,0:0:0:0:
448,192,160181,1,0,0:0:0:0:
192,192,160181,1,0,0:0:0:0:
320,192,160403,1,0,0:0:0:0:
448,192,160403,1,0,0:0:0:0:
64,192,160403,1,0,0:0:0:0:
64,192,160626,1,0,0:0:0:0:
192,192,160626,1,0,0:0:0:0:
448,192,160848,1,0,0:0:0:0:
320,192,160848,1,0,0:0:0:0:
192,192,160848,1,0,0:0:0:0:
64,192,161070,1,0,0:0:0:0:
192,192,161070,1,0,0:0:0:0:
320,192,161181,1,0,0:0:0:0:
448,192,161181,1,0,0:0:0:0:
64,192,161292,1,0,0:0:0:0:
192,192,161292,1,0,0:0:0:0:
320,192,161348,1,0,0:0:0:0:
448,192,161348,1,0,0:0:0:0:
192,192,161403,1,0,0:0:0:0:
64,192,161403,1,0,0:0:0:0:
320,192,161459,1,0,0:0:0:0:
448,192,161459,1,0,0:0:0:0:
64,192,161515,1,0,0:0:0:0:
192,192,161515,1,0,0:0:0:0:
192,192,161848,1,0,0:0:0:0:
448,192,161848,1,0,0:0:0:0:
64,192,161959,1,0,0:0:0:0:
448,192,161959,1,0,0:0:0:0:
320,192,161959,1,0,0:0:0:0:
448,192,162181,5,0,0:0:0:0:
192,192,162181,1,0,0:0:0:0:
64,192,162181,1,0,0:0:0:0:
320,192,162292,1,0,0:0:0:0:
192,192,162403,1,0,0:0:0:0:
448,192,162403,1,0,0:0:0:0:
320,192,162515,1,0,0:0:0:0:
64,192,162626,1,0,0:0:0:0:
192,192,162626,1,0,0:0:0:0:
448,192,162626,1,0,0:0:0:0:
320,192,162737,1,0,0:0:0:0:
64,192,162848,1,0,0:0:0:0:
192,192,162848,1,0,0:0:0:0:
448,192,162959,1,0,0:0:0:0:
64,192,163070,1,0,0:0:0:0:
192,192,163070,1,0,0:0:0:0:
320,192,163181,1,0,0:0:0:0:
64,192,163292,1,0,0:0:0:0:
192,192,163292,1,0,0:0:0:0:
448,192,163292,1,0,0:0:0:0:
320,192,163403,1,0,0:0:0:0:
448,192,163515,1,0,0:0:0:0:
192,192,163515,1,0,0:0:0:0:
64,192,163626,1,0,0:0:0:0:
320,192,163737,1,0,0:0:0:0:
448,192,163737,1,0,0:0:0:0:
192,192,163848,1,0,0:0:0:0:
64,192,163959,1,0,0:0:0:0:
448,192,163959,1,0,0:0:0:0:
320,192,164070,1,0,0:0:0:0:
64,192,164181,1,0,0:0:0:0:
192,192,164181,1,0,0:0:0:0:
448,192,164292,1,0,0:0:0:0:
64,192,164403,1,0,0:0:0:0:
192,192,164403,1,0,0:0:0:0:
320,192,164403,1,0,0:0:0:0:
448,192,164515,1,0,0:0:0:0:
64,192,164626,1,0,0:0:0:0:
192,192,164626,1,0,0:0:0:0:
320,192,164737,1,0,0:0:0:0:
64,192,164848,1,0,0:0:0:0:
448,192,164848,1,0,0:0:0:0:
192,192,164959,1,0,0:0:0:0:
448,192,164959,1,0,0:0:0:0:
64,192,165070,1,0,0:0:0:0:
320,192,165070,1,0,0:0:0:0:
320,192,165181,1,0,0:0:0:0:
64,192,165292,1,0,0:0:0:0:
448,192,165292,1,0,0:0:0:0:
192,192,165403,1,0,0:0:0:0:
320,192,165515,5,0,0:0:0:0:
448,192,165515,1,0,0:0:0:0:
320,192,165626,1,0,0:0:0:0:
448,192,165626,1,0,0:0:0:0:
320,192,165737,1,0,0:0:0:0:
448,192,165737,1,0,0:0:0:0:
320,192,165848,1,0,0:0:0:0:
448,192,165848,1,0,0:0:0:0:
64,192,165959,1,0,0:0:0:0:
192,192,165959,1,0,0:0:0:0:
64,192,166070,1,0,0:0:0:0:
192,192,166070,1,0,0:0:0:0:
448,192,166181,1,0,0:0:0:0:
320,192,166181,1,0,0:0:0:0:
192,192,166292,1,0,0:0:0:0:
64,192,166403,1,0,0:0:0:0:
448,192,166403,1,0,0:0:0:0:
320,192,166515,1,0,0:0:0:0:
192,192,166626,1,0,0:0:0:0:
64,192,166626,1,0,0:0:0:0:
320,192,166737,1,0,0:0:0:0:
64,192,166848,1,0,0:0:0:0:
192,192,166848,1,0,0:0:0:0:
448,192,166848,1,0,0:0:0:0:
320,192,166959,1,0,0:0:0:0:
448,192,167070,1,0,0:0:0:0:
64,192,167070,1,0,0:0:0:0:
192,192,167181,1,0,0:0:0:0:
320,192,167292,1,0,0:0:0:0:
448,192,167292,1,0,0:0:0:0:
64,192,167403,1,0,0:0:0:0:
192,192,167515,1,0,0:0:0:0:
448,192,167515,1,0,0:0:0:0:
320,192,167626,1,0,0:0:0:0:
64,192,167737,1,0,0:0:0:0:
192,192,167737,1,0,0:0:0:0:
320,192,167848,1,0,0:0:0:0:
64,192,167959,1,0,0:0:0:0:
192,192,167959,1,0,0:0:0:0:
448,192,167959,1,0,0:0:0:0:
320,192,168070,1,0,0:0:0:0:
448,192,168181,1,0,0:0:0:0:
192,192,168181,1,0,0:0:0:0:
320,192,168292,1,0,0:0:0:0:
64,192,168403,1,0,0:0:0:0:
192,192,168403,1,0,0:0:0:0:
448,192,168515,1,0,0:0:0:0:
64,192,168626,1,0,0:0:0:0:
192,192,168626,1,0,0:0:0:0:
320,192,168626,1,0,0:0:0:0:
448,192,168737,1,0,0:0:0:0:
64,192,168848,1,0,0:0:0:0:
320,192,168848,1,0,0:0:0:0:
192,192,168959,1,0,0:0:0:0:
64,192,169070,1,0,0:0:0:0:
448,192,169070,1,0,0:0:0:0:
320,192,169181,1,0,0:0:0:0:
64,192,169292,1,0,0:0:0:0:
192,192,169292,1,0,0:0:0:0:
192,192,169403,1,0,0:0:0:0:
64,192,169403,1,0,0:0:0:0:
320,192,169515,1,0,0:0:0:0:
448,192,169515,1,0,0:0:0:0:
320,192,169626,1,0,0:0:0:0:
448,192,169626,1,0,0:0:0:0:
64,192,169737,1,0,0:0:0:0:
192,192,169737,1,0,0:0:0:0:
448,192,169737,1,0,0:0:0:0:
320,192,169848,1,0,0:0:0:0:
64,192,169959,1,0,0:0:0:0:
448,192,169959,1,0,0:0:0:0:
192,192,170070,1,0,0:0:0:0:
64,192,170181,1,0,0:0:0:0:
192,192,170181,1,0,0:0:0:0:
320,192,170181,1,0,0:0:0:0:
448,192,170181,1,0,0:0:0:0:
320,192,170292,1,0,0:0:0:0:
64,192,170403,1,0,0:0:0:0:
192,192,170403,1,0,0:0:0:0:
448,192,170515,1,0,0:0:0:0:
64,192,170626,1,0,0:0:0:0:
192,192,170626,1,0,0:0:0:0:
320,192,170626,1,0,0:0:0:0:
448,192,170626,1,0,0:0:0:0:
192,192,170737,1,0,0:0:0:0:
64,192,170848,1,0,0:0:0:0:
320,192,170848,1,0,0:0:0:0:
448,192,170959,1,0,0:0:0:0:
64,192,171070,1,0,0:0:0:0:
192,192,171070,1,0,0:0:0:0:
448,192,171070,1,0,0:0:0:0:
320,192,171070,1,0,0:0:0:0:
64,192,171181,1,0,0:0:0:0:
320,192,171292,1,0,0:0:0:0:
448,192,171292,1,0,0:0:0:0:
192,192,171403,1,0,0:0:0:0:
64,192,171515,1,0,0:0:0:0:
192,192,171515,1,0,0:0:0:0:
320,192,171515,1,0,0:0:0:0:
448,192,171515,1,0,0:0:0:0:
448,192,171626,1,0,0:0:0:0:
64,192,171737,1,0,0:0:0:0:
192,192,171737,1,0,0:0:0:0:
320,192,171848,1,0,0:0:0:0:
64,192,171959,1,0,0:0:0:0:
192,192,171959,1,0,0:0:0:0:
320,192,171959,1,0,0:0:0:0:
448,192,171959,1,0,0:0:0:0:
64,192,172070,1,0,0:0:0:0:
320,192,172181,1,0,0:0:0:0:
192,192,172181,1,0,0:0:0:0:
448,192,172292,1,0,0:0:0:0:
64,192,172403,1,0,0:0:0:0:
192,192,172403,1,0,0:0:0:0:
320,192,172403,1,0,0:0:0:0:
448,192,172403,1,0,0:0:0:0:
192,192,172515,1,0,0:0:0:0:
448,192,172626,1,0,0:0:0:0:
64,192,172626,1,0,0:0:0:0:
320,192,172737,1,0,0:0:0:0:
64,192,172848,1,0,0:0:0:0:
192,192,172848,1,0,0:0:0:0:
320,192,172848,1,0,0:0:0:0:
448,192,172848,1,0,0:0:0:0:
192,192,172959,1,0,0:0:0:0:
64,192,173070,1,0,0:0:0:0:
320,192,173070,1,0,0:0:0:0:
192,192,173181,1,0,0:0:0:0:
64,192,173292,1,0,0:0:0:0:
448,192,173292,1,0,0:0:0:0:
320,192,173292,1,0,0:0:0:0:
192,192,173515,1,0,0:0:0:0:
448,192,173515,1,0,0:0:0:0:
320,192,173626,1,0,0:0:0:0:
448,192,173737,1,0,0:0:0:0:
192,192,173737,1,0,0:0:0:0:
64,192,173737,1,0,0:0:0:0:
320,192,173848,1,0,0:0:0:0:
64,192,173848,1,0,0:0:0:0:
192,192,173959,1,0,0:0:0:0:
448,192,174070,1,0,0:0:0:0:
64,192,174070,1,0,0:0:0:0:
320,192,174181,1,0,0:0:0:0:
192,192,174181,1,0,0:0:0:0:
64,192,174292,1,0,0:0:0:0:
320,192,174292,1,0,0:0:0:0:
448,192,174292,1,0,0:0:0:0:
192,192,174515,1,0,0:0:0:0:
448,192,174515,1,0,0:0:0:0:
320,192,174626,1,0,0:0:0:0:
64,192,174626,1,0,0:0:0:0:
192,192,174626,1,0,0:0:0:0:
192,192,174848,1,0,0:0:0:0:
64,192,174848,1,0,0:0:0:0:
448,192,174848,1,0,0:0:0:0:
320,192,174959,1,0,0:0:0:0:
64,192,175070,1,0,0:0:0:0:
192,192,175070,1,0,0:0:0:0:
448,192,175070,1,0,0:0:0:0:
320,192,175292,1,0,0:0:0:0:
64,192,175292,1,0,0:0:0:0:
448,192,175403,1,0,0:0:0:0:
192,192,175403,1,0,0:0:0:0:
320,192,175403,1,0,0:0:0:0:
192,192,175626,1,0,0:0:0:0:
64,192,175626,1,0,0:0:0:0:
320,192,175737,1,0,0:0:0:0:
448,192,175737,1,0,0:0:0:0:
64,192,175737,1,0,0:0:0:0:
192,192,175959,1,0,0:0:0:0:
448,192,175959,1,0,0:0:0:0:
320,192,176070,1,0,0:0:0:0:
64,192,176070,1,0,0:0:0:0:
192,192,176070,1,0,0:0:0:0:
448,192,176181,1,0,0:0:0:0:
320,192,176181,1,0,0:0:0:0:
192,192,176292,1,0,0:0:0:0:
64,192,176403,1,0,0:0:0:0:
448,192,176403,1,0,0:0:0:0:
320,192,176403,1,0,0:0:0:0:
320,192,176515,1,0,0:0:0:0:
448,192,176626,1,0,0:0:0:0:
192,192,176626,1,0,0:0:0:0:
64,192,176626,1,0,0:0:0:0:
192,192,176737,1,0,0:0:0:0:
448,192,176848,1,0,0:0:0:0:
320,192,176848,1,0,0:0:0:0:
64,192,176848,1,0,0:0:0:0:
64,192,177292,1,0,0:0:0:0:
448,192,177292,1,0,0:0:0:0:
192,192,177403,1,0,0:0:0:0:
64,192,177515,1,0,0:0:0:0:
448,192,177515,1,0,0:0:0:0:
320,192,177626,1,0,0:0:0:0:
448,192,177737,1,0,0:0:0:0:
64,192,177737,1,0,0:0:0:0:
192,192,177737,1,0,0:0:0:0:
320,192,177848,1,0,0:0:0:0:
192,192,177959,1,0,0:0:0:0:
448,192,177959,1,0,0:0:0:0:
64,192,178070,1,0,0:0:0:0:
192,192,178181,1,0,0:0:0:0:
448,192,178181,1,0,0:0:0:0:
320,192,178292,1,0,0:0:0:0:
64,192,178403,1,0,0:0:0:0:
448,192,178403,1,0,0:0:0:0:
192,192,178515,1,0,0:0:0:0:
64,192,178626,1,0,0:0:0:0:
320,192,178626,1,0,0:0:0:0:
448,192,178626,1,0,0:0:0:0:
192,192,178737,1,0,0:0:0:0:
448,192,178848,1,0,0:0:0:0:
64,192,178848,1,0,0:0:0:0:
320,192,178959,1,0,0:0:0:0:
192,192,179070,1,0,0:0:0:0:
64,192,179070,1,0,0:0:0:0:
448,192,179181,1,0,0:0:0:0:
320,192,179292,1,0,0:0:0:0:
192,192,179292,1,0,0:0:0:0:
64,192,179403,1,0,0:0:0:0:
448,192,179515,1,0,0:0:0:0:
320,192,179515,1,0,0:0:0:0:
192,192,179626,1,0,0:0:0:0:
64,192,179737,1,0,0:0:0:0:
320,192,179737,1,0,0:0:0:0:
448,192,179848,1,0,0:0:0:0:
64,192,179959,1,0,0:0:0:0:
192,192,179959,1,0,0:0:0:0:
320,192,180070,1,0,0:0:0:0:
448,192,180181,1,0,0:0:0:0:
64,192,180292,1,0,0:0:0:0:
192,192,180403,1,0,0:0:0:0:
320,192,180403,1,0,0:0:0:0:
448,192,180403,1,0,0:0:0:0:
64,192,180515,1,0,0:0:0:0:
192,192,180626,1,0,0:0:0:0:
448,192,180626,1,0,0:0:0:0:
320,192,180737,1,0,0:0:0:0:
64,192,180848,1,0,0:0:0:0:
192,192,180848,1,0,0:0:0:0:
448,192,180959,1,0,0:0:0:0:
320,192,181070,1,0,0:0:0:0:
64,192,181070,1,0,0:0:0:0:
192,192,181181,1,0,0:0:0:0:
448,192,181292,1,0,0:0:0:0:
64,192,181292,1,0,0:0:0:0:
320,192,181403,1,0,0:0:0:0:
64,192,181515,1,0,0:0:0:0:
448,192,181515,1,0,0:0:0:0:
192,192,181626,1,0,0:0:0:0:
64,192,181737,1,0,0:0:0:0:
320,192,181737,1,0,0:0:0:0:
448,192,181848,1,0,0:0:0:0:
320,192,181959,1,0,0:0:0:0:
64,192,181959,1,0,0:0:0:0:
192,192,182070,1,0,0:0:0:0:
448,192,182181,1,0,0:0:0:0:
320,192,182181,1,0,0:0:0:0:
64,192,182181,1,0,0:0:0:0:
192,192,182292,1,0,0:0:0:0:
448,192,182403,1,0,0:0:0:0:
320,192,182403,1,0,0:0:0:0:
64,192,182515,1,0,0:0:0:0:
192,192,182626,1,0,0:0:0:0:
320,192,182626,1,0,0:0:0:0:
448,192,182737,1,0,0:0:0:0:
64,192,182848,1,0,0:0:0:0:
320,192,182848,1,0,0:0:0:0:
448,192,182959,1,0,0:0:0:0:
192,192,183070,1,0,0:0:0:0:
320,192,183070,1,0,0:0:0:0:
64,192,183181,1,0,0:0:0:0:
448,192,183292,1,0,0:0:0:0:
192,192,183292,1,0,0:0:0:0:
320,192,183403,1,0,0:0:0:0:
64,192,183515,1,0,0:0:0:0:
448,192,183515,1,0,0:0:0:0:
192,192,183626,1,0,0:0:0:0:
64,192,183737,1,0,0:0:0:0:
448,192,183737,1,0,0:0:0:0:
320,192,183848,1,0,0:0:0:0:
448,192,183959,5,0,0:0:0:0:
64,192,183959,1,0,0:0:0:0:
192,192,183959,1,0,0:0:0:0:
320,192,184070,1,0,0:0:0:0:
64,192,184181,1,0,0:0:0:0:
192,192,184181,1,0,0:0:0:0:
448,192,184292,1,0,0:0:0:0:
320,192,184403,1,0,0:0:0:0:
192,192,184403,1,0,0:0:0:0:
64,192,184515,1,0,0:0:0:0:
448,192,184626,1,0,0:0:0:0:
192,192,184626,1,0,0:0:0:0:
320,192,184737,1,0,0:0:0:0:
64,192,184848,1,0,0:0:0:0:
448,192,184848,1,0,0:0:0:0:
192,192,184959,1,0,0:0:0:0:
320,192,185070,1,0,0:0:0:0:
448,192,185070,1,0,0:0:0:0:
192,192,185181,1,0,0:0:0:0:
64,192,185292,1,0,0:0:0:0:
448,192,185292,1,0,0:0:0:0:
320,192,185403,1,0,0:0:0:0:
192,192,185515,1,0,0:0:0:0:
448,192,185515,1,0,0:0:0:0:
320,192,185626,1,0,0:0:0:0:
64,192,185626,1,0,0:0:0:0:
448,192,185737,1,0,0:0:0:0:
192,192,185737,1,0,0:0:0:0:
64,192,185737,1,0,0:0:0:0:
320,192,185848,1,0,0:0:0:0:
64,192,185959,1,0,0:0:0:0:
448,192,185959,1,0,0:0:0:0:
192,192,186070,1,0,0:0:0:0:
64,192,186181,1,0,0:0:0:0:
320,192,186181,1,0,0:0:0:0:
448,192,186181,1,0,0:0:0:0:
192,192,186292,1,0,0:0:0:0:
64,192,186403,1,0,0:0:0:0:
448,192,186403,1,0,0:0:0:0:
320,192,186515,1,0,0:0:0:0:
64,192,186626,1,0,0:0:0:0:
448,192,186626,1,0,0:0:0:0:
192,192,186737,1,0,0:0:0:0:
320,192,186737,1,0,0:0:0:0:
64,192,186848,1,0,0:0:0:0:
448,192,186848,1,0,0:0:0:0:
320,192,186959,1,0,0:0:0:0:
64,192,186959,1,0,0:0:0:0:
320,192,187070,1,0,0:0:0:0:
192,192,187070,1,0,0:0:0:0:
448,192,187070,1,0,0:0:0:0:
64,192,187181,1,0,0:0:0:0:
192,192,187292,1,0,0:0:0:0:
448,192,187292,1,0,0:0:0:0:
320,192,187403,1,0,0:0:0:0:
64,192,187515,1,0,0:0:0:0:
192,192,187515,1,0,0:0:0:0:
448,192,187515,1,0,0:0:0:0:
320,192,187626,1,0,0:0:0:0:
192,192,187737,1,0,0:0:0:0:
64,192,187737,1,0,0:0:0:0:
448,192,187848,1,0,0:0:0:0:
320,192,187903,1,0,0:0:0:0:
448,192,187959,1,0,0:0:0:0:
64,192,187959,1,0,0:0:0:0:
192,192,187959,1,0,0:0:0:0:
64,192,188181,1,0,0:0:0:0:
192,192,188237,1,0,0:0:0:0:
448,192,188292,1,0,0:0:0:0:
320,192,188348,1,0,0:0:0:0:
64,192,188403,1,0,0:0:0:0:
192,192,188459,1,0,0:0:0:0:
320,192,188515,1,0,0:0:0:0:
448,192,188570,1,0,0:0:0:0:
64,192,188626,1,0,0:0:0:0:
192,192,188626,1,0,0:0:0:0:
320,192,188737,1,0,0:0:0:0:
448,192,188848,1,0,0:0:0:0:
192,192,188848,1,0,0:0:0:0:
64,192,188848,1,0,0:0:0:0:
192,192,189070,1,0,0:0:0:0:
448,192,189070,1,0,0:0:0:0:
64,192,189070,1,0,0:0:0:0:
320,192,189181,1,0,0:0:0:0:
64,192,189292,1,0,0:0:0:0:
448,192,189292,1,0,0:0:0:0:
192,192,189292,1,0,0:0:0:0:
64,192,189515,1,0,0:0:0:0:
320,192,189515,1,0,0:0:0:0:
192,192,189626,1,0,0:0:0:0:
320,192,189737,1,0,0:0:0:0:
448,192,189737,1,0,0:0:0:0:
64,192,189737,1,0,0:0:0:0:
192,192,189848,1,0,0:0:0:0:
448,192,189959,1,0,0:0:0:0:
320,192,189959,1,0,0:0:0:0:
192,192,190070,1,0,0:0:0:0:
64,192,190181,5,0,0:0:0:0:
320,192,190181,1,0,0:0:0:0:
448,192,190292,1,0,0:0:0:0:
64,192,190403,1,0,0:0:0:0:
192,192,190403,1,0,0:0:0:0:
320,192,190515,1,0,0:0:0:0:
448,192,190626,1,0,0:0:0:0:
192,192,190626,1,0,0:0:0:0:
64,192,190626,1,0,0:0:0:0:
320,192,190737,1,0,0:0:0:0:
192,192,190848,1,0,0:0:0:0:
64,192,190848,1,0,0:0:0:0:
448,192,190959,1,0,0:0:0:0:
320,192,191070,5,0,0:0:0:0:
64,192,191070,1,0,0:0:0:0:
320,192,191181,1,0,0:0:0:0:
448,192,191292,1,0,0:0:0:0:
192,192,191292,1,0,0:0:0:0:
448,192,191403,1,0,0:0:0:0:
192,192,191515,1,0,0:0:0:0:
64,192,191515,1,0,0:0:0:0:
320,192,191515,1,0,0:0:0:0:
192,192,191626,1,0,0:0:0:0:
320,192,191737,1,0,0:0:0:0:
448,192,191737,1,0,0:0:0:0:
320,192,191848,1,0,0:0:0:0:
64,192,191959,1,0,0:0:0:0:
192,192,191959,1,0,0:0:0:0:
64,192,192070,1,0,0:0:0:0:
448,192,192181,1,0,0:0:0:0:
192,192,192181,1,0,0:0:0:0:
448,192,192292,1,0,0:0:0:0:
192,192,192403,1,0,0:0:0:0:
320,192,192403,1,0,0:0:0:0:
64,192,192403,1,0,0:0:0:0:
192,192,192515,1,0,0:0:0:0:
320,192,192626,1,0,0:0:0:0:
64,192,192626,1,0,0:0:0:0:
320,192,192737,1,0,0:0:0:0:
192,192,192848,1,0,0:0:0:0:
448,192,192848,1,0,0:0:0:0:
64,192,192959,1,0,0:0:0:0:
320,192,193070,1,0,0:0:0:0:
192,192,193070,1,0,0:0:0:0:
448,192,193181,1,0,0:0:0:0:
320,192,193292,1,0,0:0:0:0:
192,192,193292,1,0,0:0:0:0:
64,192,193292,1,0,0:0:0:0:
448,192,193403,1,0,0:0:0:0:
320,192,193515,1,0,0:0:0:0:
64,192,193515,1,0,0:0:0:0:
192,192,193626,1,0,0:0:0:0:
448,192,193737,1,0,0:0:0:0:
320,192,193737,1,0,0:0:0:0:
64,192,193848,1,0,0:0:0:0:
192,192,193959,1,0,0:0:0:0:
448,192,193959,1,0,0:0:0:0:
320,192,194070,1,0,0:0:0:0:
64,192,194181,1,0,0:0:0:0:
192,192,194181,1,0,0:0:0:0:
448,192,194181,1,0,0:0:0:0:
320,192,194292,1,0,0:0:0:0:
192,192,194403,1,0,0:0:0:0:
64,192,194403,1,0,0:0:0:0:
448,192,194515,1,0,0:0:0:0:
192,192,194626,1,0,0:0:0:0:
320,192,194626,1,0,0:0:0:0:
64,192,194626,1,0,0:0:0:0:
448,192,194737,1,0,0:0:0:0:
64,192,194848,1,0,0:0:0:0:
192,192,194848,1,0,0:0:0:0:
320,192,194959,1,0,0:0:0:0:
448,192,195070,1,0,0:0:0:0:
64,192,195070,1,0,0:0:0:0:
192,192,195070,1,0,0:0:0:0:
320,192,195181,1,0,0:0:0:0:
448,192,195292,1,0,0:0:0:0:
192,192,195292,1,0,0:0:0:0:
64,192,195403,1,0,0:0:0:0:
192,192,195515,1,0,0:0:0:0:
448,192,195515,1,0,0:0:0:0:
320,192,195626,1,0,0:0:0:0:
448,192,195737,1,0,0:0:0:0:
64,192,195737,1,0,0:0:0:0:
192,192,195848,1,0,0:0:0:0:
448,192,195959,1,0,0:0:0:0:
64,192,195959,1,0,0:0:0:0:
320,192,195959,1,0,0:0:0:0:
192,192,196070,1,0,0:0:0:0:
64,192,196181,1,0,0:0:0:0:
448,192,196181,1,0,0:0:0:0:
320,192,196292,1,0,0:0:0:0:
64,192,196403,1,0,0:0:0:0:
192,192,196403,1,0,0:0:0:0:
448,192,196403,1,0,0:0:0:0:
320,192,196515,1,0,0:0:0:0:
64,192,196626,1,0,0:0:0:0:
192,192,196626,1,0,0:0:0:0:
448,192,196737,1,0,0:0:0:0:
320,192,196848,1,0,0:0:0:0:
192,192,196848,1,0,0:0:0:0:
64,192,196959,1,0,0:0:0:0:
448,192,197070,1,0,0:0:0:0:
192,192,197070,1,0,0:0:0:0:
320,192,197181,1,0,0:0:0:0:
64,192,197292,1,0,0:0:0:0:
448,192,197292,1,0,0:0:0:0:
192,192,197403,1,0,0:0:0:0:
64,192,197515,1,0,0:0:0:0:
448,192,197515,1,0,0:0:0:0:
320,192,197626,1,0,0:0:0:0:
448,192,197737,1,0,0:0:0:0:
192,192,197737,1,0,0:0:0:0:
320,192,197848,1,0,0:0:0:0:
192,192,197959,1,0,0:0:0:0:
448,192,197959,1,0,0:0:0:0:
64,192,198070,1,0,0:0:0:0:
448,192,198181,1,0,0:0:0:0:
192,192,198181,1,0,0:0:0:0:
320,192,198181,1,0,0:0:0:0:
64,192,198329,1,0,0:0:0:0:
192,192,198329,1,0,0:0:0:0:
320,192,198403,1,0,0:0:0:0:
448,192,198478,1,0,0:0:0:0:
192,192,198552,1,0,0:0:0:0:
64,192,198552,1,0,0:0:0:0:
320,192,198552,1,0,0:0:0:0:
448,192,198626,1,0,0:0:0:0:
320,192,198700,1,0,0:0:0:0:
64,192,198774,1,0,0:0:0:0:
192,192,198848,1,0,0:0:0:0:
448,192,198848,1,0,0:0:0:0:
320,192,198922,1,0,0:0:0:0:
64,192,198996,1,0,0:0:0:0:
192,192,199070,1,0,0:0:0:0:
448,192,199070,1,0,0:0:0:0:
320,192,199144,1,0,0:0:0:0:
192,192,199218,1,0,0:0:0:0:
64,192,199292,1,0,0:0:0:0:
320,192,199292,1,0,0:0:0:0:
448,192,199292,1,0,0:0:0:0:
64,192,199515,1,0,0:0:0:0:
192,192,199515,1,0,0:0:0:0:
448,192,199515,1,0,0:0:0:0:
320,192,199589,1,0,0:0:0:0:
448,192,199663,1,0,0:0:0:0:
64,192,199737,1,0,0:0:0:0:
192,192,199737,1,0,0:0:0:0:
320,192,199737,1,0,0:0:0:0:
448,192,199959,1,0,0:0:0:0:
64,192,199959,1,0,0:0:0:0:
192,192,199959,1,0,0:0:0:0:
320,192,200070,1,0,0:0:0:0:
448,192,200181,1,0,0:0:0:0:
64,192,200181,1,0,0:0:0:0:
192,192,200292,1,0,0:0:0:0:
448,192,200403,1,0,0:0:0:0:
320,192,200403,1,0,0:0:0:0:
64,192,200403,1,0,0:0:0:0:
320,192,200515,1,0,0:0:0:0:
192,192,200626,1,0,0:0:0:0:
448,192,200626,1,0,0:0:0:0:
64,192,200737,1,0,0:0:0:0:
448,192,200848,1,0,0:0:0:0:
320,192,200848,1,0,0:0:0:0:
192,192,200959,1,0,0:0:0:0:
64,192,201070,1,0,0:0:0:0:
320,192,201070,1,0,0:0:0:0:
192,192,201181,1,0,0:0:0:0:
320,192,201292,1,0,0:0:0:0:
64,192,201292,1,0,0:0:0:0:
448,192,201292,1,0,0:0:0:0:
192,192,201403,1,0,0:0:0:0:
448,192,201515,1,0,0:0:0:0:
320,192,201515,1,0,0:0:0:0:
64,192,201626,1,0,0:0:0:0:
192,192,201737,1,0,0:0:0:0:
320,192,201737,1,0,0:0:0:0:
448,192,201737,1,0,0:0:0:0:
64,192,201848,1,0,0:0:0:0:
320,192,201959,1,0,0:0:0:0:
448,192,201959,1,0,0:0:0:0:
192,192,202070,1,0,0:0:0:0:
64,192,202181,1,0,0:0:0:0:
320,192,202181,1,0,0:0:0:0:
448,192,202181,1,0,0:0:0:0:
192,192,202292,1,0,0:0:0:0:
448,192,202403,5,0,0:0:0:0:
64,192,202403,1,0,0:0:0:0:
320,192,202515,1,0,0:0:0:0:
192,192,202626,1,0,0:0:0:0:
64,192,202626,1,0,0:0:0:0:
448,192,202737,1,0,0:0:0:0:
320,192,202848,1,0,0:0:0:0:
192,192,202848,1,0,0:0:0:0:
64,192,202959,1,0,0:0:0:0:
192,192,203070,1,0,0:0:0:0:
448,192,203070,1,0,0:0:0:0:
320,192,203070,1,0,0:0:0:0:
64,192,203181,1,0,0:0:0:0:
320,192,203292,1,0,0:0:0:0:
448,192,203292,1,0,0:0:0:0:
64,192,203403,1,0,0:0:0:0:
320,192,203515,5,0,0:0:0:0:
192,192,203515,1,0,0:0:0:0:
192,192,203626,1,0,0:0:0:0:
448,192,203626,1,0,0:0:0:0:
64,192,203626,1,0,0:0:0:0:
64,192,203848,1,0,0:0:0:0:
320,192,203848,1,0,0:0:0:0:
64,192,203959,1,0,0:0:0:0:
448,192,203959,1,0,0:0:0:0:
192,192,203959,1,0,0:0:0:0:
64,192,204181,1,0,0:0:0:0:
448,192,204181,1,0,0:0:0:0:
192,192,204292,1,0,0:0:0:0:
320,192,204292,1,0,0:0:0:0:
448,192,204292,1,0,0:0:0:0:
64,192,204515,1,0,0:0:0:0:
448,192,204515,1,0,0:0:0:0:
64,192,204626,1,0,0:0:0:0:
320,192,204626,1,0,0:0:0:0:
192,192,204626,1,0,0:0:0:0:
192,192,204848,1,0,0:0:0:0:
320,192,204848,1,0,0:0:0:0:
64,192,205070,1,0,0:0:0:0:
192,192,205070,1,0,0:0:0:0:
320,192,205070,1,0,0:0:0:0:
448,192,205070,1,0,0:0:0:0:
320,192,205292,1,0,0:0:0:0:
64,192,205292,1,0,0:0:0:0:
192,192,205403,1,0,0:0:0:0:
320,192,205403,1,0,0:0:0:0:
448,192,205403,1,0,0:0:0:0:
192,192,205626,1,0,0:0:0:0:
448,192,205626,1,0,0:0:0:0:
320,192,205737,1,0,0:0:0:0:
192,192,205737,1,0,0:0:0:0:
64,192,205737,1,0,0:0:0:0:
64,192,205848,1,0,0:0:0:0:
192,192,205959,1,0,0:0:0:0:
448,192,205959,1,0,0:0:0:0:
448,192,206070,1,0,0:0:0:0:
320,192,206070,1,0,0:0:0:0:
64,192,206070,1,0,0:0:0:0:
192,192,206181,1,0,0:0:0:0:
64,192,206292,1,0,0:0:0:0:
448,192,206292,1,0,0:0:0:0:
448,192,206403,1,0,0:0:0:0:
320,192,206403,1,0,0:0:0:0:
192,192,206403,1,0,0:0:0:0:
320,192,206515,1,0,0:0:0:0:
192,192,206626,1,0,0:0:0:0:
448,192,206626,1,0,0:0:0:0:
64,192,206626,1,0,0:0:0:0:
64,192,206848,1,0,0:0:0:0:
320,192,206848,1,0,0:0:0:0:
448,192,206848,1,0,0:0:0:0:
320,192,207070,1,0,0:0:0:0:
192,192,207070,1,0,0:0:0:0:
64,192,207070,1,0,0:0:0:0:
448,192,207181,1,0,0:0:0:0:
64,192,207292,1,0,0:0:0:0:
192,192,207292,1,0,0:0:0:0:
320,192,207403,1,0,0:0:0:0:
448,192,207515,1,0,0:0:0:0:
64,192,207515,1,0,0:0:0:0:
320,192,207626,1,0,0:0:0:0:
64,192,207737,1,0,0:0:0:0:
448,192,207737,1,0,0:0:0:0:
192,192,207848,1,0,0:0:0:0:
64,192,207959,1,0,0:0:0:0:
448,192,207959,1,0,0:0:0:0:
192,192,208070,1,0,0:0:0:0:
448,192,208181,1,0,0:0:0:0:
320,192,208181,1,0,0:0:0:0:
64,192,208292,1,0,0:0:0:0:
448,192,208403,1,0,0:0:0:0:
320,192,208403,1,0,0:0:0:0:
192,192,208515,1,0,0:0:0:0:
320,192,208515,1,0,0:0:0:0:
448,192,208626,1,0,0:0:0:0:
64,192,208626,1,0,0:0:0:0:
320,192,208737,1,0,0:0:0:0:
192,192,208737,1,0,0:0:0:0:
192,192,208848,1,0,0:0:0:0:
64,192,208848,1,0,0:0:0:0:
448,192,208848,1,0,0:0:0:0:
320,192,208959,1,0,0:0:0:0:
448,192,209070,1,0,0:0:0:0:
192,192,209070,1,0,0:0:0:0:
192,192,209181,1,0,0:0:0:0:
448,192,209292,1,0,0:0:0:0:
64,192,209292,1,0,0:0:0:0:
320,192,209403,1,0,0:0:0:0:
64,192,209515,1,0,0:0:0:0:
320,192,209515,1,0,0:0:0:0:
448,192,209626,1,0,0:0:0:0:
192,192,209737,1,0,0:0:0:0:
64,192,209737,1,0,0:0:0:0:
448,192,209848,1,0,0:0:0:0:
192,192,209848,1,0,0:0:0:0:
320,192,209959,1,0,0:0:0:0:
64,192,209959,1,0,0:0:0:0:
320,192,210070,1,0,0:0:0:0:
64,192,210181,1,0,0:0:0:0:
192,192,210181,1,0,0:0:0:0:
448,192,210181,1,0,0:0:0:0:
320,192,210292,1,0,0:0:0:0:
448,192,210403,1,0,0:0:0:0:
64,192,210403,1,0,0:0:0:0:
192,192,210403,1,0,0:0:0:0:
320,192,210515,1,0,0:0:0:0:
192,192,210626,1,0,0:0:0:0:
64,192,210626,1,0,0:0:0:0:
448,192,210626,1,0,0:0:0:0:
320,192,210737,1,0,0:0:0:0:
448,192,210848,1,0,0:0:0:0:
192,192,210848,1,0,0:0:0:0:
64,192,210959,1,0,0:0:0:0:
448,192,211070,1,0,0:0:0:0:
192,192,211070,1,0,0:0:0:0:
64,192,211181,1,0,0:0:0:0:
320,192,211292,1,0,0:0:0:0:
448,192,211292,1,0,0:0:0:0:
192,192,211403,1,0,0:0:0:0:
64,192,211515,1,0,0:0:0:0:
320,192,211515,1,0,0:0:0:0:
448,192,211515,1,0,0:0:0:0:
192,192,211626,1,0,0:0:0:0:
64,192,211737,1,0,0:0:0:0:
448,192,211737,1,0,0:0:0:0:
320,192,211848,1,0,0:0:0:0:
64,192,211959,1,0,0:0:0:0:
448,192,211959,1,0,0:0:0:0:
192,192,211959,1,0,0:0:0:0:
320,192,212070,1,0,0:0:0:0:
192,192,212181,1,0,0:0:0:0:
64,192,212181,1,0,0:0:0:0:
448,192,212292,1,0,0:0:0:0:
320,192,212403,1,0,0:0:0:0:
192,192,212403,1,0,0:0:0:0:
64,192,212403,1,0,0:0:0:0:
448,192,212515,1,0,0:0:0:0:
64,192,212626,1,0,0:0:0:0:
320,192,212626,1,0,0:0:0:0:
192,192,212737,1,0,0:0:0:0:
64,192,212848,1,0,0:0:0:0:
320,192,212848,1,0,0:0:0:0:
192,192,212959,1,0,0:0:0:0:
64,192,213070,1,0,0:0:0:0:
448,192,213070,1,0,0:0:0:0:
320,192,213070,1,0,0:0:0:0:
192,192,213181,1,0,0:0:0:0:
64,192,213292,1,0,0:0:0:0:
320,192,213292,1,0,0:0:0:0:
448,192,213403,1,0,0:0:0:0:
64,192,213515,1,0,0:0:0:0:
320,192,213515,1,0,0:0:0:0:
448,192,213626,1,0,0:0:0:0:
192,192,213626,1,0,0:0:0:0:
448,192,213737,1,0,0:0:0:0:
320,192,213737,1,0,0:0:0:0:
64,192,213737,1,0,0:0:0:0:
192,192,213848,1,0,0:0:0:0:
64,192,213959,1,0,0:0:0:0:
448,192,213959,1,0,0:0:0:0:
192,192,213959,1,0,0:0:0:0:
320,192,214070,1,0,0:0:0:0:
64,192,214070,1,0,0:0:0:0:
192,192,214181,1,0,0:0:0:0:
448,192,214181,1,0,0:0:0:0:
320,192,214181,1,0,0:0:0:0:
64,192,214237,1,0,0:0:0:0:
192,192,214292,1,0,0:0:0:0:
320,192,214348,1,0,0:0:0:0:
64,192,214403,1,0,0:0:0:0:
448,192,214403,1,0,0:0:0:0:
192,192,214515,1,0,0:0:0:0:
64,192,214626,1,0,0:0:0:0:
320,192,214626,1,0,0:0:0:0:
448,192,214737,1,0,0:0:0:0:
320,192,214792,1,0,0:0:0:0:
192,192,214848,1,0,0:0:0:0:
64,192,214848,1,0,0:0:0:0:
320,192,214959,1,0,0:0:0:0:
448,192,215070,1,0,0:0:0:0:
64,192,215070,1,0,0:0:0:0:
320,192,215181,1,0,0:0:0:0:
64,192,215292,1,0,0:0:0:0:
192,192,215292,1,0,0:0:0:0:
448,192,215292,1,0,0:0:0:0:
320,192,215403,1,0,0:0:0:0:
192,192,215515,1,0,0:0:0:0:
448,192,215515,1,0,0:0:0:0:
64,192,215626,1,0,0:0:0:0:
320,192,215737,1,0,0:0:0:0:
448,192,215737,1,0,0:0:0:0:
192,192,215737,1,0,0:0:0:0:
320,192,215848,1,0,0:0:0:0:
192,192,215959,1,0,0:0:0:0:
448,192,215959,1,0,0:0:0:0:
64,192,215959,1,0,0:0:0:0:
320,192,216070,1,0,0:0:0:0:
64,192,216181,1,0,0:0:0:0:
192,192,216181,1,0,0:0:0:0:
448,192,216181,1,0,0:0:0:0:
320,192,216292,1,0,0:0:0:0:
192,192,216348,1,0,0:0:0:0:
64,192,216403,1,0,0:0:0:0:
448,192,216459,1,0,0:0:0:0:
320,192,216515,1,0,0:0:0:0:
64,192,216626,1,0,0:0:0:0:
192,192,216626,1,0,0:0:0:0:
448,192,216626,1,0,0:0:0:0:
320,192,216737,1,0,0:0:0:0:
64,192,216848,1,0,0:0:0:0:
192,192,216848,1,0,0:0:0:0:
320,192,216959,1,0,0:0:0:0:
64,192,217070,1,0,0:0:0:0:
192,192,217070,1,0,0:0:0:0:
448,192,217070,1,0,0:0:0:0:
320,192,217181,1,0,0:0:0:0:
192,192,217292,1,0,0:0:0:0:
448,192,217292,1,0,0:0:0:0:
64,192,217403,1,0,0:0:0:0:
448,192,217515,1,0,0:0:0:0:
192,192,217515,1,0,0:0:0:0:
192,192,217626,1,0,0:0:0:0:
448,192,217626,1,0,0:0:0:0:
64,192,217737,1,0,0:0:0:0:
320,192,217737,1,0,0:0:0:0:
448,192,217848,1,0,0:0:0:0:
64,192,217959,1,0,0:0:0:0:
192,192,217959,1,0,0:0:0:0:
320,192,217959,1,0,0:0:0:0:
192,192,218070,1,0,0:0:0:0:
64,192,218181,1,0,0:0:0:0:
320,192,218181,1,0,0:0:0:0:
448,192,218181,1,0,0:0:0:0:
320,192,218292,1,0,0:0:0:0:
64,192,218403,1,0,0:0:0:0:
192,192,218403,1,0,0:0:0:0:
448,192,218403,1,0,0:0:0:0:
320,192,218515,1,0,0:0:0:0:
64,192,218626,1,0,0:0:0:0:
192,192,218626,1,0,0:0:0:0:
448,192,218737,1,0,0:0:0:0:
64,192,218848,1,0,0:0:0:0:
192,192,218848,1,0,0:0:0:0:
320,192,218959,1,0,0:0:0:0:
192,192,219070,1,0,0:0:0:0:
448,192,219070,1,0,0:0:0:0:
64,192,219070,1,0,0:0:0:0:
320,192,219181,1,0,0:0:0:0:
64,192,219292,1,0,0:0:0:0:
192,192,219292,1,0,0:0:0:0:
448,192,219292,1,0,0:0:0:0:
192,192,219403,1,0,0:0:0:0:
64,192,219515,1,0,0:0:0:0:
320,192,219515,1,0,0:0:0:0:
448,192,219515,1,0,0:0:0:0:
64,192,219626,1,0,0:0:0:0:
448,192,219737,1,0,0:0:0:0:
320,192,219737,1,0,0:0:0:0:
192,192,219737,1,0,0:0:0:0:
320,192,219848,1,0,0:0:0:0:
448,192,219959,1,0,0:0:0:0:
192,192,219959,1,0,0:0:0:0:
64,192,219959,1,0,0:0:0:0:
192,192,220070,1,0,0:0:0:0:
448,192,220181,1,0,0:0:0:0:
320,192,220181,1,0,0:0:0:0:
64,192,220181,1,0,0:0:0:0:
192,192,220292,1,0,0:0:0:0:
448,192,220403,1,0,0:0:0:0:
320,192,220403,1,0,0:0:0:0:
64,192,220515,1,0,0:0:0:0:
448,192,220626,1,0,0:0:0:0:
320,192,220626,1,0,0:0:0:0:
192,192,220737,1,0,0:0:0:0:
320,192,220848,1,0,0:0:0:0:
64,192,220848,1,0,0:0:0:0:
448,192,220848,1,0,0:0:0:0:
192,192,220959,1,0,0:0:0:0:
448,192,221070,1,0,0:0:0:0:
320,192,221070,1,0,0:0:0:0:
64,192,221070,1,0,0:0:0:0:
320,192,221181,1,0,0:0:0:0:
448,192,221292,1,0,0:0:0:0:
192,192,221292,1,0,0:0:0:0:
64,192,221292,1,0,0:0:0:0:
320,192,221403,1,0,0:0:0:0:
448,192,221515,1,0,0:0:0:0:
192,192,221515,1,0,0:0:0:0:
320,192,221626,1,0,0:0:0:0:
64,192,221626,1,0,0:0:0:0:
192,192,221626,1,0,0:0:0:0:
320,192,221848,1,0,0:0:0:0:
448,192,221959,1,0,0:0:0:0:
192,192,221959,1,0,0:0:0:0:
64,192,221959,1,0,0:0:0:0:
320,192,222181,1,0,0:0:0:0:
64,192,222181,1,0,0:0:0:0:
192,192,222292,1,0,0:0:0:0:
64,192,222292,1,0,0:0:0:0:
448,192,222292,1,0,0:0:0:0:
320,192,222515,1,0,0:0:0:0:
192,192,222515,1,0,0:0:0:0:
320,192,222626,1,0,0:0:0:0:
448,192,222626,1,0,0:0:0:0:
64,192,222626,1,0,0:0:0:0:
192,192,222737,1,0,0:0:0:0:
448,192,222737,1,0,0:0:0:0:
64,192,222848,1,0,0:0:0:0:
320,192,222848,1,0,0:0:0:0:
192,192,222959,1,0,0:0:0:0:
448,192,222959,1,0,0:0:0:0:
320,192,223070,1,0,0:0:0:0:
192,192,223070,1,0,0:0:0:0:
64,192,223070,1,0,0:0:0:0:
448,192,223181,1,0,0:0:0:0:
320,192,223292,1,0,0:0:0:0:
64,192,223403,1,0,0:0:0:0:
448,192,223403,1,0,0:0:0:0:
192,192,223403,1,0,0:0:0:0:
320,192,223515,1,0,0:0:0:0:
64,192,223515,1,0,0:0:0:0:
192,192,223626,1,0,0:0:0:0:
448,192,223737,5,0,0:0:0:0:
64,192,223737,1,0,0:0:0:0:
320,192,223737,1,0,0:0:0:0:
192,192,223848,1,0,0:0:0:0:
64,192,223959,1,0,0:0:0:0:
448,192,223959,1,0,0:0:0:0:
320,192,224070,1,0,0:0:0:0:
64,192,224070,1,0,0:0:0:0:
448,192,224181,1,0,0:0:0:0:
192,192,224181,1,0,0:0:0:0:
64,192,224292,1,0,0:0:0:0:
320,192,224292,1,0,0:0:0:0:
192,192,224403,1,0,0:0:0:0:
448,192,224403,1,0,0:0:0:0:
192,192,224515,1,0,0:0:0:0:
448,192,224515,1,0,0:0:0:0:
320,192,224626,1,0,0:0:0:0:
64,192,224626,1,0,0:0:0:0:
192,192,224737,1,0,0:0:0:0:
448,192,224737,1,0,0:0:0:0:
64,192,224848,5,0,0:0:0:0:
448,192,224848,1,0,0:0:0:0:
320,192,224848,1,0,0:0:0:0:
192,192,224848,1,0,0:0:0:0:
192,192,226626,1,0,0:0:0:0:
320,192,226626,1,0,0:0:0:0:
64,192,226626,1,0,0:0:0:0:
64,192,227515,1,0,0:0:0:0:
320,192,227515,1,0,0:0:0:0:
448,192,227515,1,0,0:0:0:0:
192,192,227737,1,0,0:0:0:0:
448,192,227737,1,0,0:0:0:0:
320,192,227848,1,0,0:0:0:0:
64,192,227848,1,0,0:0:0:0:
448,192,227848,1,0,0:0:0:0:
192,192,228070,1,0,0:0:0:0:
448,192,228070,1,0,0:0:0:0:
64,192,228181,1,0,0:0:0:0:
320,192,228181,1,0,0:0:0:0:
192,192,228181,1,0,0:0:0:0:
448,192,228403,1,0,0:0:0:0:
320,192,228403,1,0,0:0:0:0:
64,192,228403,1,0,0:0:0:0:
192,192,228515,1,0,0:0:0:0:
448,192,228626,1,0,0:0:0:0:
320,192,228626,1,0,0:0:0:0:
64,192,228737,1,0,0:0:0:0:
192,192,228848,1,0,0:0:0:0:
320,192,228848,1,0,0:0:0:0:
448,192,228959,1,0,0:0:0:0:
192,192,229070,1,0,0:0:0:0:
64,192,229070,1,0,0:0:0:0:
320,192,229181,1,0,0:0:0:0:
448,192,229292,1,0,0:0:0:0:
192,192,229292,1,0,0:0:0:0:
64,192,229292,1,0,0:0:0:0:
320,192,229403,1,0,0:0:0:0:
192,192,229515,1,0,0:0:0:0:
448,192,229515,1,0,0:0:0:0:
64,192,229626,1,0,0:0:0:0:
320,192,229737,1,0,0:0:0:0:
192,192,229737,1,0,0:0:0:0:
448,192,229848,1,0,0:0:0:0:
64,192,229959,1,0,0:0:0:0:
320,192,229959,1,0,0:0:0:0:
192,192,230070,1,0,0:0:0:0:
64,192,230181,1,0,0:0:0:0:
448,192,230181,1,0,0:0:0:0:
320,192,230181,1,0,0:0:0:0:
192,192,230292,1,0,0:0:0:0:
448,192,230403,1,0,0:0:0:0:
64,192,230403,1,0,0:0:0:0:
192,192,230515,1,0,0:0:0:0:
64,192,230626,1,0,0:0:0:0:
448,192,230626,1,0,0:0:0:0:
320,192,230626,1,0,0:0:0:0:
192,192,230737,1,0,0:0:0:0:
64,192,230848,1,0,0:0:0:0:
448,192,230848,1,0,0:0:0:0:
320,192,230959,1,0,0:0:0:0:
64,192,231070,1,0,0:0:0:0:
192,192,231070,1,0,0:0:0:0:
448,192,231070,1,0,0:0:0:0:
320,192,231181,1,0,0:0:0:0:
64,192,231292,1,0,0:0:0:0:
192,192,231292,1,0,0:0:0:0:
320,192,231403,1,0,0:0:0:0:
448,192,231403,1,0,0:0:0:0:
64,192,231515,1,0,0:0:0:0:
192,192,231515,1,0,0:0:0:0:
64,192,231626,1,0,0:0:0:0:
192,192,231626,1,0,0:0:0:0:
448,192,231737,1,0,0:0:0:0:
320,192,231737,1,0,0:0:0:0:
448,192,231848,1,0,0:0:0:0:
320,192,231848,1,0,0:0:0:0:
64,192,231959,1,0,0:0:0:0:
192,192,231959,1,0,0:0:0:0:
320,192,232070,1,0,0:0:0:0:
192,192,232181,1,0,0:0:0:0:
448,192,232181,1,0,0:0:0:0:
64,192,232292,1,0,0:0:0:0:
448,192,232403,1,0,0:0:0:0:
320,192,232403,1,0,0:0:0:0:
192,192,232403,1,0,0:0:0:0:
320,192,232515,1,0,0:0:0:0:
448,192,232626,1,0,0:0:0:0:
64,192,232626,1,0,0:0:0:0:
192,192,232626,1,0,0:0:0:0:
320,192,232737,1,0,0:0:0:0:
64,192,232848,1,0,0:0:0:0:
448,192,232848,1,0,0:0:0:0:
192,192,232959,1,0,0:0:0:0:
320,192,233070,1,0,0:0:0:0:
64,192,233070,1,0,0:0:0:0:
192,192,233181,1,0,0:0:0:0:
448,192,233292,1,0,0:0:0:0:
64,192,233292,1,0,0:0:0:0:
320,192,233403,1,0,0:0:0:0:
64,192,233515,1,0,0:0:0:0:
192,192,233515,1,0,0:0:0:0:
448,192,233626,1,0,0:0:0:0:
64,192,233737,1,0,0:0:0:0:
320,192,233737,1,0,0:0:0:0:
448,192,233737,1,0,0:0:0:0:
192,192,233848,1,0,0:0:0:0:
64,192,233959,1,0,0:0:0:0:
448,192,233959,1,0,0:0:0:0:
320,192,234070,1,0,0:0:0:0:
448,192,234181,1,0,0:0:0:0:
192,192,234181,1,0,0:0:0:0:
64,192,234181,1,0,0:0:0:0:
320,192,234292,1,0,0:0:0:0:
64,192,234403,1,0,0:0:0:0:
448,192,234403,1,0,0:0:0:0:
192,192,234515,1,0,0:0:0:0:
320,192,234626,1,0,0:0:0:0:
64,192,234626,1,0,0:0:0:0:
448,192,234737,1,0,0:0:0:0:
192,192,234848,1,0,0:0:0:0:
64,192,234848,1,0,0:0:0:0:
320,192,234959,1,0,0:0:0:0:
448,192,235070,1,0,0:0:0:0:
192,192,235070,1,0,0:0:0:0:
64,192,235070,1,0,0:0:0:0:
320,192,235181,1,0,0:0:0:0:
448,192,235292,1,0,0:0:0:0:
192,192,235292,1,0,0:0:0:0:
320,192,235403,1,0,0:0:0:0:
448,192,235515,1,0,0:0:0:0:
192,192,235515,1,0,0:0:0:0:
64,192,235515,1,0,0:0:0:0:
64,192,235626,1,0,0:0:0:0:
192,192,235737,1,0,0:0:0:0:
448,192,235737,1,0,0:0:0:0:
320,192,235848,1,0,0:0:0:0:
64,192,235959,1,0,0:0:0:0:
192,192,235959,1,0,0:0:0:0:
448,192,236070,1,0,0:0:0:0:
320,192,236181,1,0,0:0:0:0:
192,192,236181,1,0,0:0:0:0:
64,192,236292,1,0,0:0:0:0:
320,192,236403,1,0,0:0:0:0:
192,192,236403,1,0,0:0:0:0:
448,192,236403,1,0,0:0:0:0:
64,192,236515,1,0,0:0:0:0:
192,192,236626,1,0,0:0:0:0:
448,192,236626,1,0,0:0:0:0:
320,192,236737,1,0,0:0:0:0:
64,192,236848,1,0,0:0:0:0:
320,192,236848,1,0,0:0:0:0:
192,192,236959,1,0,0:0:0:0:
448,192,236959,1,0,0:0:0:0:
64,192,237070,1,0,0:0:0:0:
448,192,237070,1,0,0:0:0:0:
320,192,237181,1,0,0:0:0:0:
192,192,237181,1,0,0:0:0:0:
64,192,237292,1,0,0:0:0:0:
192,192,237292,1,0,0:0:0:0:
448,192,237292,1,0,0:0:0:0:
320,192,237515,1,0,0:0:0:0:
64,192,237515,1,0,0:0:0:0:
448,192,237626,1,0,0:0:0:0:
320,192,237626,1,0,0:0:0:0:
192,192,237626,1,0,0:0:0:0:
64,192,237848,1,0,0:0:0:0:
448,192,237848,1,0,0:0:0:0:
192,192,237959,1,0,0:0:0:0:
64,192,237959,1,0,0:0:0:0:
448,192,237959,1,0,0:0:0:0:
448,192,238181,1,0,0:0:0:0:
64,192,238181,1,0,0:0:0:0:
192,192,238292,1,0,0:0:0:0:
64,192,238403,1,0,0:0:0:0:
448,192,238403,1,0,0:0:0:0:
320,192,238515,1,0,0:0:0:0:
192,192,238515,1,0,0:0:0:0:
64,192,238626,5,0,0:0:0:0:
448,192,238626,1,0,0:0:0:0:
320,192,238737,1,0,0:0:0:0:
448,192,238848,1,0,0:0:0:0:
64,192,238848,1,0,0:0:0:0:
192,192,238848,1,0,0:0:0:0:
192,192,239070,1,0,0:0:0:0:
448,192,239070,1,0,0:0:0:0:
320,192,239070,1,0,0:0:0:0:
64,192,239181,1,0,0:0:0:0:
192,192,239292,1,0,0:0:0:0:
448,192,239292,1,0,0:0:0:0:
320,192,239403,1,0,0:0:0:0:
448,192,239515,1,0,0:0:0:0:
320,192,239515,1,0,0:0:0:0:
192,192,239515,1,0,0:0:0:0:
64,192,239515,1,0,0:0:0:0:
192,192,239626,1,0,0:0:0:0:
64,192,239737,1,0,0:0:0:0:
448,192,239737,1,0,0:0:0:0:
192,192,239848,1,0,0:0:0:0:
64,192,239959,1,0,0:0:0:0:
320,192,239959,1,0,0:0:0:0:
448,192,239959,1,0,0:0:0:0:
448,192,240070,1,0,0:0:0:0:
64,192,240181,1,0,0:0:0:0:
192,192,240181,1,0,0:0:0:0:
320,192,240292,1,0,0:0:0:0:
448,192,240403,1,0,0:0:0:0:
320,192,240403,1,0,0:0:0:0:
64,192,240403,1,0,0:0:0:0:
192,192,240403,1,0,0:0:0:0:
192,192,240515,1,0,0:0:0:0:
448,192,240626,1,0,0:0:0:0:
64,192,240626,1,0,0:0:0:0:
320,192,240737,1,0,0:0:0:0:
64,192,240848,1,0,0:0:0:0:
192,192,240848,1,0,0:0:0:0:
320,192,240848,1,0,0:0:0:0:
448,192,240848,1,0,0:0:0:0:
64,192,240959,1,0,0:0:0:0:
448,192,241070,1,0,0:0:0:0:
192,192,241070,1,0,0:0:0:0:
320,192,241181,1,0,0:0:0:0:
448,192,241292,1,0,0:0:0:0:
320,192,241292,1,0,0:0:0:0:
192,192,241292,1,0,0:0:0:0:
64,192,241292,1,0,0:0:0:0:
64,192,241403,1,0,0:0:0:0:
448,192,241515,1,0,0:0:0:0:
320,192,241515,1,0,0:0:0:0:
192,192,241626,1,0,0:0:0:0:
320,192,241737,1,0,0:0:0:0:
192,192,241737,1,0,0:0:0:0:
448,192,241737,1,0,0:0:0:0:
64,192,241737,1,0,0:0:0:0:
448,192,241848,1,0,0:0:0:0:
64,192,241959,1,0,0:0:0:0:
320,192,241959,1,0,0:0:0:0:
192,192,242070,1,0,0:0:0:0:
448,192,242181,1,0,0:0:0:0:
320,192,242181,1,0,0:0:0:0:
192,192,242181,1,0,0:0:0:0:
64,192,242181,1,0,0:0:0:0:
320,192,242292,1,0,0:0:0:0:
192,192,242403,1,0,0:0:0:0:
64,192,242403,1,0,0:0:0:0:
448,192,242515,1,0,0:0:0:0:
64,192,242626,1,0,0:0:0:0:
192,192,242626,1,0,0:0:0:0:
448,192,242626,1,0,0:0:0:0:
320,192,242626,1,0,0:0:0:0:
192,192,242737,1,0,0:0:0:0:
64,192,242848,1,0,0:0:0:0:
448,192,242848,1,0,0:0:0:0:
192,192,242959,1,0,0:0:0:0:
448,192,243070,1,0,0:0:0:0:
320,192,243070,1,0,0:0:0:0:
192,192,243070,1,0,0:0:0:0:
64,192,243070,1,0,0:0:0:0:
320,192,243181,1,0,0:0:0:0:
192,192,243292,1,0,0:0:0:0:
448,192,243292,1,0,0:0:0:0:
64,192,243403,1,0,0:0:0:0:
64,192,243515,1,0,0:0:0:0:
192,192,243515,1,0,0:0:0:0:
320,192,243515,1,0,0:0:0:0:
448,192,243515,1,0,0:0:0:0:
192,192,243626,1,0,0:0:0:0:
320,192,243737,1,0,0:0:0:0:
448,192,243737,1,0,0:0:0:0:
64,192,243848,1,0,0:0:0:0:
448,192,243959,1,0,0:0:0:0:
320,192,243959,1,0,0:0:0:0:
192,192,243959,1,0,0:0:0:0:
64,192,243959,1,0,0:0:0:0:
192,192,244070,1,0,0:0:0:0:
448,192,244181,1,0,0:0:0:0:
64,192,244181,1,0,0:0:0:0:
320,192,244292,1,0,0:0:0:0:
448,192,244403,1,0,0:0:0:0:
192,192,244403,1,0,0:0:0:0:
64,192,244403,1,0,0:0:0:0:
320,192,244515,1,0,0:0:0:0:
448,192,244626,1,0,0:0:0:0:
192,192,244626,1,0,0:0:0:0:
64,192,244626,1,0,0:0:0:0:
192,192,244737,1,0,0:0:0:0:
320,192,244848,1,0,0:0:0:0:
64,192,244848,1,0,0:0:0:0:
448,192,244848,1,0,0:0:0:0:
448,192,244959,1,0,0:0:0:0:
64,192,245070,1,0,0:0:0:0:
192,192,245070,1,0,0:0:0:0:
320,192,245070,1,0,0:0:0:0:
64,192,245181,1,0,0:0:0:0:
448,192,245292,1,0,0:0:0:0:
320,192,245292,1,0,0:0:0:0:
192,192,245292,1,0,0:0:0:0:
64,192,245403,1,0,0:0:0:0:
192,192,245515,1,0,0:0:0:0:
448,192,245515,1,0,0:0:0:0:
320,192,245626,1,0,0:0:0:0:
64,192,245626,1,0,0:0:0:0:
192,192,245737,1,0,0:0:0:0:
448,192,245737,1,0,0:0:0:0:
64,192,245737,1,0,0:0:0:0:
320,192,245848,1,0,0:0:0:0:
448,192,245848,1,0,0:0:0:0:
64,192,245959,1,0,0:0:0:0:
320,192,245959,1,0,0:0:0:0:
192,192,246070,1,0,0:0:0:0:
448,192,246070,1,0,0:0:0:0:
448,192,246181,1,0,0:0:0:0:
320,192,246181,1,0,0:0:0:0:
192,192,246181,1,0,0:0:0:0:
64,192,246181,1,0,0:0:0:0:
320,192,246292,1,0,0:0:0:0:
448,192,246403,1,0,0:0:0:0:
192,192,246403,1,0,0:0:0:0:
320,192,246515,1,0,0:0:0:0:
64,192,246515,1,0,0:0:0:0:
64,192,246626,1,0,0:0:0:0:
192,192,246626,1,0,0:0:0:0:
320,192,246626,1,0,0:0:0:0:
448,192,246626,1,0,0:0:0:0:
192,192,246737,1,0,0:0:0:0:
448,192,246848,1,0,0:0:0:0:
64,192,246848,1,0,0:0:0:0:
192,192,246959,1,0,0:0:0:0:
320,192,246959,1,0,0:0:0:0:
448,192,247070,1,0,0:0:0:0:
320,192,247070,1,0,0:0:0:0:
192,192,247070,1,0,0:0:0:0:
64,192,247070,1,0,0:0:0:0:
64,192,247181,1,0,0:0:0:0:
192,192,247292,1,0,0:0:0:0:
448,192,247292,1,0,0:0:0:0:
320,192,247403,1,0,0:0:0:0:
64,192,247403,1,0,0:0:0:0:
192,192,247515,1,0,0:0:0:0:
64,192,247515,1,0,0:0:0:0:
320,192,247515,1,0,0:0:0:0:
448,192,247515,1,0,0:0:0:0:
448,192,247626,1,0,0:0:0:0:
192,192,247737,1,0,0:0:0:0:
320,192,247737,1,0,0:0:0:0:
64,192,247848,1,0,0:0:0:0:
448,192,247848,1,0,0:0:0:0:
64,192,247959,1,0,0:0:0:0:
192,192,247959,1,0,0:0:0:0:
320,192,247959,1,0,0:0:0:0:
448,192,247959,1,0,0:0:0:0:
192,192,248070,1,0,0:0:0:0:
448,192,248181,1,0,0:0:0:0:
64,192,248181,1,0,0:0:0:0:
192,192,248292,1,0,0:0:0:0:
320,192,248292,1,0,0:0:0:0:
448,192,248403,1,0,0:0:0:0:
320,192,248403,1,0,0:0:0:0:
192,192,248403,1,0,0:0:0:0:
64,192,248403,1,0,0:0:0:0:
64,192,248515,1,0,0:0:0:0:
192,192,248626,1,0,0:0:0:0:
448,192,248626,1,0,0:0:0:0:
320,192,248737,1,0,0:0:0:0:
64,192,248848,1,0,0:0:0:0:
192,192,248848,1,0,0:0:0:0:
448,192,248848,1,0,0:0:0:0:
320,192,248959,1,0,0:0:0:0:
64,192,249070,1,0,0:0:0:0:
192,192,249070,1,0,0:0:0:0:
320,192,249181,1,0,0:0:0:0:
64,192,249292,1,0,0:0:0:0:
448,192,249292,1,0,0:0:0:0:
192,192,249292,1,0,0:0:0:0:
320,192,249403,1,0,0:0:0:0:
448,192,249515,1,0,0:0:0:0:
192,192,249515,1,0,0:0:0:0:
64,192,249626,1,0,0:0:0:0:
192,192,249737,1,0,0:0:0:0:
320,192,249737,1,0,0:0:0:0:
448,192,249737,1,0,0:0:0:0:
64,192,249959,1,0,0:0:0:0:
192,192,249959,1,0,0:0:0:0:
448,192,249959,1,0,0:0:0:0:
320,192,250181,1,0,0:0:0:0:
64,192,250292,1,0,0:0:0:0:
448,192,250292,1,0,0:0:0:0:
192,192,250403,1,0,0:0:0:0:
320,192,250403,1,0,0:0:0:0:
448,192,250515,1,4,0:0:0:0:
64,192,250515,1,4,0:0:0:0:
192,192,250515,1,4,0:0:0:0:
320,192,250737,1,0,0:0:0:0:
64,192,250737,1,0,0:0:0:0:
192,192,250848,1,0,0:0:0:0:
448,192,250848,1,0,0:0:0:0:
64,192,250959,1,0,0:0:0:0:
320,192,250959,1,0,0:0:0:0:
448,192,251070,1,0,0:0:0:0:
64,192,251070,1,0,0:0:0:0:
192,192,251181,1,0,0:0:0:0:
448,192,251181,1,0,0:0:0:0:
320,192,251292,1,0,0:0:0:0:
64,192,251292,1,0,0:0:0:0:
192,192,251403,1,0,0:0:0:0:
448,192,251403,1,0,0:0:0:0:
320,192,251515,1,0,0:0:0:0:
64,192,251515,1,0,0:0:0:0:
448,192,251515,1,0,0:0:0:0:
64,192,251737,1,0,0:0:0:0:
192,192,251737,1,0,0:0:0:0:
448,192,251737,1,0,0:0:0:0:
320,192,251959,1,0,0:0:0:0:
64,192,251959,1,0,0:0:0:0:
448,192,252070,1,0,0:0:0:0:
192,192,252070,1,0,0:0:0:0:
64,192,252181,1,0,0:0:0:0:
320,192,252181,1,0,0:0:0:0:
320,192,252292,1,4,0:0:0:0:
192,192,252292,1,4,0:0:0:0:
448,192,252292,1,4,0:0:0:0:
64,192,252515,1,0,0:0:0:0:
192,192,252515,1,0,0:0:0:0:
320,192,252626,1,0,0:0:0:0:
64,192,252626,1,0,0:0:0:0:
448,192,252737,1,0,0:0:0:0:
192,192,252737,1,0,0:0:0:0:
320,192,252848,1,0,0:0:0:0:
64,192,252848,1,0,0:0:0:0:
448,192,252848,1,0,0:0:0:0:
192,192,252959,1,0,0:0:0:0:
320,192,253070,1,0,0:0:0:0:
64,192,253070,1,0,0:0:0:0:
320,192,253181,1,0,0:0:0:0:
448,192,253292,1,0,0:0:0:0:
64,192,253292,1,0,0:0:0:0:
192,192,253292,1,0,0:0:0:0:
320,192,253403,1,0,0:0:0:0:
64,192,253515,1,0,0:0:0:0:
448,192,253515,1,0,0:0:0:0:
192,192,253626,1,0,0:0:0:0:
64,192,253737,1,0,0:0:0:0:
448,192,253737,1,0,0:0:0:0:
192,192,253848,1,0,0:0:0:0:
448,192,253848,1,0,0:0:0:0:
64,192,253959,1,0,0:0:0:0:
320,192,253959,1,0,0:0:0:0:
64,192,254070,1,4,0:0:0:0:
448,192,254070,1,4,0:0:0:0:
192,192,254070,1,4,0:0:0:0:
448,192,254292,1,0,0:0:0:0:
64,192,254292,1,0,0:0:0:0:
192,192,254403,1,0,0:0:0:0:
320,192,254403,1,0,0:0:0:0:
64,192,254515,1,0,0:0:0:0:
448,192,254515,1,0,0:0:0:0:
192,192,254626,1,0,0:0:0:0:
320,192,254626,1,0,0:0:0:0:
64,192,254626,1,0,0:0:0:0:
320,192,254848,1,0,0:0:0:0:
448,192,254848,1,0,0:0:0:0:
448,192,254959,1,0,0:0:0:0:
320,192,254959,1,0,0:0:0:0:
64,192,255070,1,0,0:0:0:0:
192,192,255070,1,0,0:0:0:0:
320,192,255070,1,0,0:0:0:0:
448,192,255515,1,0,0:0:0:0:
320,192,255515,1,0,0:0:0:0:
192,192,255515,1,0,0:0:0:0:
64,192,255959,1,0,0:0:0:0:
448,192,255959,1,0,0:0:0:0:
192,192,255959,1,0,0:0:0:0:
320,192,256181,1,0,0:0:0:0:
448,192,256181,1,0,0:0:0:0:
192,192,256403,1,0,0:0:0:0:
320,192,256403,1,0,0:0:0:0:
64,192,256403,1,0,0:0:0:0:
64,192,256626,1,0,0:0:0:0:
192,192,256626,1,0,0:0:0:0:
64,192,256737,1,0,0:0:0:0:
192,192,256737,1,0,0:0:0:0:
448,192,256848,1,0,0:0:0:0:
320,192,256848,1,0,0:0:0:0:
64,192,257292,1,0,0:0:0:0:
192,192,257292,1,0,0:0:0:0:
448,192,257292,1,0,0:0:0:0:
320,192,257737,1,0,0:0:0:0:
448,192,257737,1,0,0:0:0:0:
64,192,257737,1,0,0:0:0:0:
192,192,257959,1,0,0:0:0:0:
64,192,258181,1,0,0:0:0:0:
320,192,258181,1,0,0:0:0:0:
192,192,258292,1,0,0:0:0:0:
448,192,258292,1,0,0:0:0:0:
64,192,258403,1,0,0:0:0:0:
448,192,258403,1,0,0:0:0:0:
320,192,258515,1,0,0:0:0:0:
64,192,258515,1,0,0:0:0:0:
192,192,258626,1,0,0:0:0:0:
448,192,258626,1,0,0:0:0:0:
320,192,258737,1,0,0:0:0:0:
64,192,258848,1,0,0:0:0:0:
192,192,258848,1,0,0:0:0:0:
448,192,258959,1,0,0:0:0:0:
64,192,259070,1,0,0:0:0:0:
192,192,259070,1,0,0:0:0:0:
320,192,259070,1,0,0:0:0:0:
192,192,259181,1,0,0:0:0:0:
448,192,259292,1,0,0:0:0:0:
64,192,259292,1,0,0:0:0:0:
320,192,259403,1,0,0:0:0:0:
192,192,259515,1,0,0:0:0:0:
64,192,259515,1,0,0:0:0:0:
448,192,259626,1,0,0:0:0:0:
192,192,259737,1,0,0:0:0:0:
320,192,259737,1,0,0:0:0:0:
64,192,259737,1,0,0:0:0:0:
448,192,259848,1,0,0:0:0:0:
320,192,259959,1,0,0:0:0:0:
64,192,259959,1,0,0:0:0:0:
192,192,260070,1,0,0:0:0:0:
64,192,260181,1,0,0:0:0:0:
320,192,260181,1,0,0:0:0:0:
448,192,260292,1,0,0:0:0:0:
64,192,260403,1,0,0:0:0:0:
192,192,260403,1,0,0:0:0:0:
320,192,260403,1,0,0:0:0:0:
448,192,260515,1,0,0:0:0:0:
64,192,260626,1,0,0:0:0:0:
320,192,260626,1,0,0:0:0:0:
192,192,260737,1,0,0:0:0:0:
448,192,260848,1,0,0:0:0:0:
320,192,260848,1,0,0:0:0:0:
64,192,260848,1,0,0:0:0:0:
192,192,260959,1,0,0:0:0:0:
448,192,261070,1,0,0:0:0:0:
320,192,261070,1,0,0:0:0:0:
64,192,261181,1,0,0:0:0:0:
192,192,261292,1,0,0:0:0:0:
448,192,261292,1,0,0:0:0:0:
320,192,261403,1,0,0:0:0:0:
64,192,261515,1,0,0:0:0:0:
448,192,261515,1,0,0:0:0:0:
320,192,261626,1,0,0:0:0:0:
192,192,261626,1,0,0:0:0:0:
448,192,261737,1,0,0:0:0:0:
64,192,261737,1,0,0:0:0:0:
192,192,261737,1,0,0:0:0:0:
320,192,261848,1,0,0:0:0:0:
64,192,261959,1,0,0:0:0:0:
448,192,261959,1,0,0:0:0:0:
192,192,262070,1,0,0:0:0:0:
320,192,262181,1,0,0:0:0:0:
448,192,262181,1,0,0:0:0:0:
64,192,262181,1,0,0:0:0:0:
192,192,262292,1,0,0:0:0:0:
448,192,262403,1,0,0:0:0:0:
320,192,262403,1,0,0:0:0:0:
64,192,262515,1,0,0:0:0:0:
192,192,262626,1,0,0:0:0:0:
320,192,262626,1,0,0:0:0:0:
448,192,262626,1,0,0:0:0:0:
320,192,262737,1,0,0:0:0:0:
64,192,262848,1,0,0:0:0:0:
192,192,262848,1,0,0:0:0:0:
448,192,262959,1,0,0:0:0:0:
192,192,263070,1,0,0:0:0:0:
320,192,263070,1,0,0:0:0:0:
64,192,263181,1,0,0:0:0:0:
448,192,263292,1,0,0:0:0:0:
192,192,263292,1,0,0:0:0:0:
320,192,263403,1,0,0:0:0:0:
192,192,263515,1,0,0:0:0:0:
64,192,263515,1,0,0:0:0:0:
448,192,263515,1,0,0:0:0:0:
320,192,263626,1,0,0:0:0:0:
192,192,263737,1,0,0:0:0:0:
448,192,263737,1,0,0:0:0:0:
64,192,263848,1,0,0:0:0:0:
320,192,263959,1,0,0:0:0:0:
448,192,263959,1,0,0:0:0:0:
192,192,263959,1,0,0:0:0:0:
64,192,264070,1,0,0:0:0:0:
192,192,264181,1,0,0:0:0:0:
448,192,264181,1,0,0:0:0:0:
320,192,264292,1,0,0:0:0:0:
64,192,264403,1,0,0:0:0:0:
192,192,264403,1,0,0:0:0:0:
448,192,264403,1,0,0:0:0:0:
320,192,264515,1,0,0:0:0:0:
448,192,264626,1,0,0:0:0:0:
192,192,264626,1,0,0:0:0:0:
64,192,264737,1,0,0:0:0:0:
448,192,264848,1,0,0:0:0:0:
320,192,264848,1,0,0:0:0:0:
192,192,264959,1,0,0:0:0:0:
64,192,265070,1,0,0:0:0:0:
320,192,265070,1,0,0:0:0:0:
192,192,265181,1,0,0:0:0:0:
64,192,265292,1,0,0:0:0:0:
448,192,265292,1,0,0:0:0:0:
192,192,265403,1,0,0:0:0:0:
64,192,265515,1,0,0:0:0:0:
448,192,265515,1,0,0:0:0:0:
320,192,265626,1,0,0:0:0:0:
64,192,265737,1,0,0:0:0:0:
448,192,265737,1,0,0:0:0:0:
192,192,265737,1,0,0:0:0:0:
320,192,265848,1,0,0:0:0:0:
192,192,265959,1,0,0:0:0:0:
64,192,265959,1,0,0:0:0:0:
448,192,266070,1,0,0:0:0:0:
320,192,266181,1,0,0:0:0:0:
192,192,266181,1,0,0:0:0:0:
64,192,266292,1,0,0:0:0:0:
448,192,266403,1,0,0:0:0:0:
320,192,266403,1,0,0:0:0:0:
64,192,266515,1,0,0:0:0:0:
192,192,266626,1,0,0:0:0:0:
448,192,266626,1,0,0:0:0:0:
320,192,266737,1,0,0:0:0:0:
64,192,266848,1,0,0:0:0:0:
192,192,266848,1,0,0:0:0:0:
448,192,266959,1,0,0:0:0:0:
320,192,267070,1,0,0:0:0:0:
64,192,267070,1,0,0:0:0:0:
192,192,267181,1,0,0:0:0:0:
448,192,267292,1,0,0:0:0:0:
320,192,267292,1,0,0:0:0:0:
64,192,267403,1,0,0:0:0:0:
192,192,267515,1,0,0:0:0:0:
448,192,267515,1,0,0:0:0:0:
320,192,267515,1,0,0:0:0:0:
64,192,267626,1,0,0:0:0:0:
192,192,267737,1,0,0:0:0:0:
448,192,267737,1,0,0:0:0:0:
320,192,267848,1,0,0:0:0:0:
64,192,267959,1,0,0:0:0:0:
192,192,267959,1,0,0:0:0:0:
448,192,268070,1,0,0:0:0:0:
320,192,268181,1,0,0:0:0:0:
64,192,268181,1,0,0:0:0:0:
192,192,268292,1,0,0:0:0:0:
64,192,268403,1,0,0:0:0:0:
320,192,268403,1,0,0:0:0:0:
64,192,268515,1,0,0:0:0:0:
320,192,268515,1,0,0:0:0:0:
192,192,268626,1,0,0:0:0:0:
448,192,268626,1,0,0:0:0:0:
192,192,268737,1,0,0:0:0:0:
448,192,268737,1,0,0:0:0:0:
64,192,268848,5,0,0:0:0:0:
320,192,268848,1,0,0:0:0:0:
192,192,268959,1,0,0:0:0:0:
448,192,268959,1,0,0:0:0:0:
64,192,269070,1,0,0:0:0:0:
320,192,269070,1,0,0:0:0:0:
448,192,269181,1,0,0:0:0:0:
192,192,269181,1,0,0:0:0:0:
64,192,269181,1,0,0:0:0:0:
192,192,269737,1,0,0:0:0:0:
448,192,269737,1,0,0:0:0:0:
64,192,269737,1,0,0:0:0:0:
320,192,269737,1,0,0:0:0:0:
