osu file format v14

[General]
AudioFilename: audio.mp3
AudioLeadIn: 0
PreviewTime: 50885
Countdown: 1
SampleSet: Soft
StackLeniency: 0.7
Mode: 0
LetterboxInBreaks: 0
WidescreenStoryboard: 0

[Editor]
Bookmarks: 1108,24219,29552,33107,43996,45552,50885,75774,81107
DistanceSpacing: 1.9
BeatDivisor: 4
GridSize: 4
TimelineZoom: 3.499999

[Metadata]
Title:Aozora no Rhapsody
TitleUnicode:Aozora no Rhapsody
Artist:fhana
ArtistUnicode:fhana
Creator:I Hate Smoothie
Version:Dragon
Source:小林さんちのメイドラゴン
Tags:
BeatmapID:1224701
BeatmapSetID:578424

[Difficulty]
HPDrainRate:6
CircleSize:4.1
OverallDifficulty:7
ApproachRate:9
SliderMultiplier:1.8
SliderTickRate:1

[Events]
//Background and Video events
0,0,"visual_01_pc.jpg",0,0
Video,0,"Kobayashi.flv"
//Break Periods
//Storyboard Layer 0 (Background)
//Storyboard Layer 1 (Fail)
//Storyboard Layer 2 (Pass)
//Storyboard Layer 3 (Foreground)
//Storyboard Sound Samples

[TimingPoints]
1108,444.444444444444,4,2,0,100,1,0
1108,-100,4,2,1,65,0,0
13552,-100,4,2,1,70,0,0
17107,-100,4,2,1,64,0,0
33107,-100,4,2,1,60,0,0
50885,-100,4,2,1,60,0,1
63330,-100,4,2,1,60,0,0
65107,-100,4,2,1,60,0,1
75774,-100,4,2,1,60,0,0
81107,-100,4,2,1,60,0,0
84663,-100,4,2,1,60,0,0

[HitObjects]
48,296,663,5,0,0:0:0:0:
48,296,885,1,0,0:0:0:0:
48,296,1108,6,0,P|88:252|120:192,1,90,12|0,0:0|0:0,0:0:0:0:
148,64,1552,2,0,P|184:112|204:156,1,90
240,272,1996,1,8,0:0:0:0:
344,160,2219,1,0,0:0:0:0:
384,332,2441,1,2,0:0:0:0:
484,196,2663,2,0,L|508:152,2,45,0|0|8,0:0|0:0|0:0,0:0:0:0:
316,184,3107,2,0,P|256:168|224:132,1,90
92,76,3552,1,0,0:0:0:0:
92,76,3774,2,0,P|88:128|92:176,1,90
172,267,4219,6,0,P|156:187|168:135,1,135,2|0,0:0|0:0,0:0:0:0:
232,80,4663,1,12,0:0:0:0:
324,240,5107,1,0,0:0:0:0:
480,146,5552,1,8,0:0:0:0:
309,151,5774,1,0,0:0:0:0:
480,146,5996,1,2,0:0:0:0:
350,33,6219,1,0,0:0:0:0:
350,33,6330,1,0,0:0:0:0:
350,33,6441,2,0,P|302:61|294:65,1,45,8|0,0:0|0:0,0:0:0:0:
228,76,6663,6,0,P|168:80|116:100,1,90,8|2,0:0|0:0,0:0:0:0:
126,259,7107,1,0,0:0:0:0:
287,199,7330,2,0,P|290:252|272:320,1,90,8|0,0:0|0:0,0:0:0:0:
52,64,7774,1,2,0:0:0:0:
108,292,7996,1,0,0:0:0:0:
287,199,8219,6,0,P|291:227|332:320,1,90,12|0,0:0|0:0,0:0:0:0:
472,356,8663,6,0,P|472:268|464:212,1,135,2|0,0:0|0:0,0:0:0:0:
448,140,9107,1,8,0:0:0:0:
368,292,9330,1,0,0:0:0:0:
197,292,9552,1,2,0:0:0:0:
136,136,9774,2,0,L|76:140,2,45,0|0|8,0:0|0:0|0:0,0:0:0:0:
304,100,10219,6,0,P|360:96|424:104,1,90,8|2,0:0|0:0,0:0:0:0:
352,264,10663,1,0,0:0:0:0:
352,264,10774,1,0,0:0:0:0:
352,264,10885,1,8,0:0:0:0:
160,268,11107,1,0,0:0:0:0:
160,268,11219,1,0,0:0:0:0:
160,268,11330,2,0,B|80:232|80:232|128:132,1,180,2|12,0:0|0:0,0:0:0:0:
252,80,12219,5,2,0:0:0:0:
452,280,12663,1,8,0:0:0:0:
452,280,12885,1,0,0:0:0:0:
284,264,13107,2,0,L|240:272,3,45,2|0|0|0,0:0|0:0|0:0|0:0,0:0:0:0:
408,228,13552,5,12,0:0:0:0:
120,216,13663,1,10,0:0:0:0:
356,44,13885,5,8,0:0:0:0:
324,336,13996,1,2,0:0:0:0:
108,192,14219,5,8,0:0:0:0:
400,220,14330,1,2,0:0:0:0:
312,40,14552,5,8,0:0:0:0:
280,336,14663,1,2,0:0:0:0:
108,192,14885,5,2,0:0:0:0:
108,192,15107,1,8,0:0:0:0:
348,40,15330,5,8,0:0:0:0:
252,328,15441,1,2,0:0:0:0:
188,132,15663,5,8,0:0:0:0:
420,212,15774,1,2,0:0:0:0:
348,40,15995,5,8,0:0:0:0:
252,328,16107,1,2,0:0:0:0:
176,128,16330,5,8,0:0:0:0:
408,220,16441,1,2,0:0:0:0:
100,76,16663,5,8,0:0:0:0:
84,120,16774,1,2,0:0:0:0:
80,172,16885,1,8,0:0:0:0:
84,220,16996,1,2,0:0:0:0:
92,268,17107,6,0,P|184:292|288:280,1,180,12|10,0:0|0:0,0:0:0:0:
292,116,17774,2,0,P|336:80|356:36,1,90,2|0,0:0|0:0,0:0:0:0:
428,76,18107,2,0,P|428:40|420:8,1,45,2|0,0:0|0:0,0:0:0:0:
396,196,18441,1,10,0:0:0:0:
252,288,18663,5,2,0:0:0:0:
252,288,18774,1,2,0:0:0:0:
252,288,18885,1,0,0:0:0:0:
96,216,19107,1,2,0:0:0:0:
252,288,19330,2,0,P|304:276|372:260,1,90,8|0,0:0|0:0,0:0:0:0:
420,236,19663,1,2,0:0:0:0:
260,176,19885,1,2,0:0:0:0:
364,40,20107,1,0,0:0:0:0:
364,40,20219,6,0,P|308:44|208:40,1,135,8|0,0:0|0:0,0:0:0:0:
108,88,20663,6,0,P|96:184|144:280,1,180,12|8,0:0|0:0,0:0:0:0:
272,168,21330,2,0,P|292:216|316:248,1,90,8|0,0:0|0:0,0:0:0:0:
408,320,21663,2,0,L|480:232,1,90,8|0,0:0|0:0,0:0:0:0:
510,149,21996,1,8,0:0:0:0:
361,63,22219,5,0,0:0:0:0:
361,63,22330,1,0,0:0:0:0:
365,67,22441,2,0,P|293:55|261:55,1,90,8|0,0:0|0:0,0:0:0:0:
191,63,22774,2,0,P|147:63|87:55,1,90,2|0,0:0|0:0,0:0:0:0:
102,229,23219,5,12,0:0:0:0:
245,321,23441,2,0,P|297:325|325:325,1,45,2|2,0:0|0:0,0:0:0:0:
432,236,23774,1,8,0:0:0:0:
432,236,23885,1,2,0:0:0:0:
432,236,23996,1,8,0:0:0:0:
432,236,24107,1,2,0:0:0:0:
432,236,24219,6,0,P|420:168|408:120,1,90,8|0,0:0|0:0,0:0:0:0:
280,248,24663,2,0,L|296:296,2,45,8|0|0,0:0|0:0|0:0,0:0:0:0:
196,256,24996,2,0,P|168:208|156:176,1,90,2|0,0:0|0:0,0:0:0:0:
212,112,25330,2,0,P|276:100|328:104,1,90,2|8,0:0|0:0,0:0:0:0:
464,152,25774,6,0,L|460:228,1,45
465,294,25996,2,0,P|418:294|375:286,1,90,2|0,0:0|0:0,0:0:0:0:
305,130,26441,1,8,0:0:0:0:
305,130,26552,1,0,0:0:0:0:
140,177,26774,2,0,P|172:109|196:65,1,90,8|8,0:0|0:0,0:0:0:0:
388,80,27219,2,0,P|336:88|236:76,1,135,8|0,0:0|0:0,0:0:0:0:
368,212,27774,6,0,B|376:312|368:348|380:336,1,90,8|0,0:0|0:0,0:0:0:0:
212,244,28219,1,2,0:0:0:0:
212,244,28330,1,2,0:0:0:0:
212,244,28441,2,0,P|204:192|224:128,1,90,8|0,0:0|0:0,0:0:0:0:
296,176,28774,2,0,P|312:100|288:32,1,135,8|0,0:0|0:0,0:0:0:0:
424,308,29330,5,2,0:0:0:0:
424,308,29441,1,2,0:0:0:0:
424,308,29552,2,0,P|356:312|307:307,1,90,12|0,0:0|0:0,0:0:0:0:
248,300,29885,1,10,0:0:0:0:
164,152,30107,1,10,0:0:0:0:
252,304,30330,1,12,0:0:0:0:
364,120,30552,1,2,0:0:0:0:
364,120,30663,1,8,0:0:0:0:
140,312,30885,2,0,P|132:264|128:200,1,90,6|0,0:0|0:0,0:0:0:0:
136,52,31330,5,12,0:0:0:0:
304,88,31552,2,0,L|352:112,4,45,2|2|2|2|2,0:0|0:0|0:0|0:0|0:0,0:0:0:0:
252,156,32107,1,12,0:0:0:0:
252,156,32441,1,8,0:0:0:0:
124,268,32663,2,0,P|120:204|120:156,1,90,2|8,0:0|0:0,0:0:0:0:
444,68,33330,5,2,0:0:0:0:
444,68,33552,2,0,P|456:140|456:140,2,45,8|0|0,0:0|0:0|0:0,0:0:0:0:
364,96,33885,2,0,P|368:160|372:252,1,135,2|0,0:0|0:0,0:0:0:0:
220,152,34441,2,0,P|228:200|236:260,1,90,10|0,0:0|0:0,0:0:0:0:
372,340,34885,6,0,L|248:332,1,90,2|0,0:0|0:0,0:0:0:0:
112,316,35330,1,8,0:0:0:0:
72,148,35552,2,0,P|124:112|148:80,1,90,2|0,0:0|0:0,0:0:0:0:
240,232,35996,1,2,0:0:0:0:
380,208,36219,2,0,L|440:216,1,45,8|0,0:0|0:0,0:0:0:0:
484,152,36441,1,0,0:0:0:0:
328,84,36663,1,0,0:0:0:0:
60,124,36885,6,0,P|56:212|60:224,1,90,2|8,0:0|0:0,0:0:0:0:
104,284,37219,1,0,0:0:0:0:
192,136,37441,2,0,P|248:188|272:248,1,135
424,316,37996,2,0,B|436:268|444:216|448:196,1,90,8|0,0:0|0:0,0:0:0:0:
396,64,38441,6,0,P|348:80|292:80,1,90,2|0,0:0|0:0,0:0:0:0:
288,164,38774,2,0,P|352:156|412:164,1,90,2|0,0:0|0:0,0:0:0:0:
348,264,39107,2,0,L|304:272,1,45
244,288,39330,1,0,0:0:0:0:
76,228,39552,2,0,L|68:156,1,45
188,128,39774,2,0,L|184:76,1,45
0,64,39996,2,0,L|56:56,1,45
128,40,40219,1,2,0:0:0:0:
300,36,40441,5,0,0:0:0:0:
344,180,40663,2,0,P|416:196|424:196,1,45,10|0,0:0|0:0,0:0:0:0:
252,296,40996,2,0,P|176:284|112:264,1,135,2|0,0:0|0:0,0:0:0:0:
88,100,41552,1,8,0:0:0:0:
88,100,41774,1,0,0:0:0:0:
108,268,41996,6,0,P|208:296|228:296,1,90,8|0,0:0|0:0,0:0:0:0:
224,216,42330,2,0,P|288:228|332:244,1,90,8|0,0:0|0:0,0:0:0:0:
392,260,42663,1,8,0:0:0:0:
392,260,43107,1,8,0:0:0:0:
220,268,43330,2,0,L|116:260,1,90,2|8,0:0|0:0,0:0:0:0:
428,96,43996,5,8,0:0:0:0:
428,96,44107,1,8,0:0:0:0:
428,96,44219,1,8,0:0:0:0:
272,168,44441,1,8,0:0:0:0:
272,168,44552,1,8,0:0:0:0:
272,168,44663,1,8,0:0:0:0:
396,284,44885,1,8,0:0:0:0:
224,296,45107,2,0,P|160:296|104:288,1,90,8|0,0:0|0:0,0:0:0:0:
216,44,45663,5,8,0:0:0:0:
224,296,45774,1,8,0:0:0:0:
436,232,45996,5,8,0:0:0:0:
176,240,46107,1,8,0:0:0:0:
392,128,46330,5,8,0:0:0:0:
232,304,46441,1,8,0:0:0:0:
296,64,46663,5,8,0:0:0:0:
232,304,46774,1,8,0:0:0:0:
464,320,46885,6,0,P|448:252|444:208,1,90,2|0,0:0|0:0,0:0:0:0:
268,52,47441,5,8,0:0:0:0:
260,304,47552,1,8,0:0:0:0:
48,240,47774,5,8,0:0:0:0:
308,248,47885,1,8,0:0:0:0:
92,136,48108,5,8,0:0:0:0:
252,312,48219,1,8,0:0:0:0:
188,72,48441,5,8,0:0:0:0:
252,312,48552,1,8,0:0:0:0:
400,300,48663,2,0,P|404:228|400:168,1,90,8|0,0:0|0:0,0:0:0:0:
196,52,49107,5,0,0:0:0:0:
272,204,49330,1,0,0:0:0:0:
304,124,49441,1,0,0:0:0:0:
376,280,49663,1,0,0:0:0:0:
392,196,49774,2,0,B|408:128|420:44|440:88|476:172|468:172|472:364,1,360
304,312,50885,6,0,P|216:300|144:280,1,135,12|0,0:0|0:0,0:0:0:0:
128,144,51330,2,0,P|132:80|136:68,1,45,2|0,0:0|0:0,0:0:0:0:
240,136,51552,2,0,P|240:192|240:216,1,45,2|0,0:0|0:0,0:0:0:0:
188,304,51774,5,8,0:0:0:0:
188,304,51885,2,0,P|248:312|308:308,1,90
440,216,52219,2,0,P|440:160|432:136,1,45,2|0,0:0|0:0,0:0:0:0:
340,156,52441,2,0,P|336:220|340:236,1,45,2|0,0:0|0:0,0:0:0:0:
212,76,52663,5,8,0:0:0:0:
212,76,52774,2,0,P|188:160|192:196,1,90
168,296,53107,2,0,P|236:300|248:296,1,45,2|0,0:0|0:0,0:0:0:0:
288,224,53330,2,0,P|236:220|204:208,1,45,2|0,0:0|0:0,0:0:0:0:
80,192,53552,2,0,P|100:108|204:72,1,180,8|6,0:0|0:0,0:0:0:0:
288,80,54219,6,0,L|320:136,1,45
420,136,54441,2,0,P|432:192|432:304,1,135,12|0,0:0|0:0,0:0:0:0:
304,144,54885,2,0,P|308:168|308:200,1,45,2|0,0:0|0:0,0:0:0:0:
216,236,55107,2,0,P|208:192|208:168,1,45,2|0,0:0|0:0,0:0:0:0:
96,76,55330,5,8,0:0:0:0:
96,76,55441,2,0,P|88:160|100:216,1,135,0|2,0:0|0:0,0:0:0:0:
232,184,55996,1,0,0:0:0:0:
452,79,56219,6,0,L|452:135,1,45,8|0,0:0|0:0,0:0:0:0:
472,296,56441,2,0,L|428:260,1,45
280,100,56663,2,0,L|360:108,1,45,2|0,0:0|0:0,0:0:0:0:
320,252,56885,2,0,L|276:292,1,45
228,328,57107,2,0,P|144:304|120:268,1,135,8|12,0:0|0:0,0:0:0:0:
88,144,57774,1,2,0:0:0:0:
260,160,57996,6,0,P|326:163|420:172,1,135,12|2,0:0|0:0,0:0:0:0:
172,296,58663,1,2,0:0:0:0:
88,144,58885,2,0,B|108:88|108:88|132:60,1,90,8|0,0:0|0:0,0:0:0:0:
180,132,59219,2,0,B|187:158|187:158|128:256,1,135,8|0,0:0|0:0,0:0:0:0:
64,196,59774,5,2,0:0:0:0:
304,284,60107,1,2,0:0:0:0:
464,84,60441,1,0,0:0:0:0:
468,256,60663,1,2,0:0:0:0:
332,160,60885,2,0,L|272:168,2,45,2|0|6,0:0|0:0|0:0,0:0:0:0:
468,260,61330,1,0,0:0:0:0:
264,264,61552,6,8,P|240:224|236:116,2,135,12|8|12,0:0|0:0|0:0,0:0:0:0:
96,304,62441,2,8,P|64:228|52:136,2,135,12|8|12,0:0|0:0|0:0,0:0:0:0:
380,267,63330,6,0,L|368:153,1,90,8|0,0:0|0:0,0:0:0:0:
226,156,63663,2,0,L|211:53,1,90,8|2,0:0|0:0,0:0:0:0:
54,155,63996,2,0,L|69:258,1,90,8|0,0:0|0:0,0:0:0:0:
233,227,64330,2,0,L|254:320,1,90,8|2,0:0|0:0,0:0:0:0:
328,257,64663,2,2,L|399:214,3,45
249,289,65107,6,0,P|182:296|109:289,1,135,12|0,0:0|0:0,0:0:0:0:
120,192,65552,2,0,P|116:128|112:116,1,45,2|0,0:0|0:0,0:0:0:0:
200,148,65774,2,0,P|200:204|200:228,1,45
324,304,65996,5,8,0:0:0:0:
324,304,66107,2,0,P|264:312|204:308,1,90
72,216,66441,2,0,P|72:160|80:136,1,45,2|0,0:0|0:0,0:0:0:0:
172,156,66663,2,0,P|176:220|172:236,1,45
300,76,66885,5,8,0:0:0:0:
300,76,66996,2,0,P|324:160|320:196,1,90
344,296,67329,2,0,P|276:300|264:296,1,45,2|0,0:0|0:0,0:0:0:0:
224,224,67552,2,0,P|276:220|308:208,1,45
432,192,67774,2,0,P|412:108|308:72,1,180,8|2,0:0|0:0,0:0:0:0:
224,80,68441,6,0,L|192:136,1,45
92,136,68663,2,0,P|80:192|80:304,1,135,12|0,0:0|0:0,0:0:0:0:
296,224,69107,2,0,P|304:204|300:179,1,45,2|0,0:0|0:0,0:0:0:0:
208,128,69329,2,0,P|205:150|208:184,1,45
400,84,69552,5,8,0:0:0:0:
400,84,69663,2,0,P|408:168|396:224,1,135,0|2,0:0|0:0,0:0:0:0:
284,328,70218,1,0,0:0:0:0:
220,84,70441,6,0,L|164:80,1,45,8|0,0:0|0:0,0:0:0:0:
36,152,70663,2,0,L|48:208,1,45
216,168,70885,2,0,L|148:172,1,45,2|0,0:0|0:0,0:0:0:0:
120,296,71107,2,0,L|168:308,1,45
284,328,71329,2,0,P|368:304|392:268,1,135,8|10,0:0|0:0,0:0:0:0:
246,55,71996,5,0,0:0:0:0:
246,55,72107,1,0,0:0:0:0:
246,55,72219,2,0,P|210:91|202:159,1,90,8|0,0:0|0:0,0:0:0:0:
348,128,72552,2,0,P|368:172|364:228,1,90,2|0,0:0|0:0,0:0:0:0:
283,200,72885,1,8,0:0:0:0:
248,328,73107,5,2,0:0:0:0:
208,324,73219,1,8,0:0:0:0:
164,316,73330,1,2,0:0:0:0:
124,308,73441,1,8,0:0:0:0:
84,296,73552,2,0,P|76:240|96:176,1,90,2|0,0:0|0:0,0:0:0:0:
160,103,73996,5,8,0:0:0:0:
244,231,74219,1,2,0:0:0:0:
300,180,74330,1,2,0:0:0:0:
336,320,74663,1,8,0:0:0:0:
336,320,74885,2,0,P|408:268|460:152,1,180,2|0,0:0|0:0,0:0:0:0:
328,80,75774,5,8,0:0:0:0:
224,180,75996,1,2,0:0:0:0:
360,320,76219,1,8,0:0:0:0:
360,320,76330,1,2,0:0:0:0:
360,320,76441,1,8,0:0:0:0:
168,312,76552,2,0,P|160:248|160:192,1,90,8|2,0:0|0:0,0:0:0:0:
169,141,76885,1,2,0:0:0:0:
308,60,77107,2,0,P|356:68|408:88,1,90,8|0,0:0|0:0,0:0:0:0:
364,304,77552,5,8,0:0:0:0:
248,140,77774,1,0,0:0:0:0:
140,303,77997,1,8,0:0:0:0:
140,303,78108,1,2,0:0:0:0:
140,303,78219,1,8,0:0:0:0:
64,194,78330,2,0,P|72:134|89:78,1,90,2|8,0:0|0:0,0:0:0:0:
113,34,78663,1,2,0:0:0:0:
344,88,78885,2,0,P|392:96|444:116,1,90,8|0,0:0|0:0,0:0:0:0:
442,273,79330,5,8,0:0:0:0:
259,181,79552,1,2,0:0:0:0:
304,339,79775,1,8,0:0:0:0:
304,339,79886,1,2,0:0:0:0:
304,339,79997,1,8,0:0:0:0:
385,217,80108,2,0,P|399:169|407:110,1,90,8|2,0:0|0:0,0:0:0:0:
416,35,80441,1,8,0:0:0:0:
176,122,80663,2,0,P|224:126|276:146,1,90,8|8,0:0|0:0,0:0:0:0:
395,237,81107,6,8,P|404:170|396:104,1,135,12|0,0:0|0:0,0:0:0:0:
176,120,81552,2,0,P|164:200|176:272,1,135,12|0,0:0|0:0,0:0:0:0:
360,304,81996,2,8,P|408:228|412:152,1,135,12|0,0:0|0:0,0:0:0:0:
104,180,82441,1,14,0:0:0:0:
232,284,82663,1,2,0:0:0:0:
232,284,82774,1,8,0:0:0:0:
232,284,82885,6,0,P|260:196|264:152,1,135,12|0,0:0|0:0,0:0:0:0:
408,136,83330,2,0,P|408:228|396:292,1,135,12|0,0:0|0:0,0:0:0:0:
215,223,83774,2,0,P|214:156|229:91,1,135,12|0,0:0|0:0,0:0:0:0:
408,60,84219,5,8,0:0:0:0:
364,220,84441,1,8,0:0:0:0:
252,92,84663,2,0,P|204:96|152:108,1,90,6|8,0:0|0:0,0:0:0:0:
32,168,85107,2,0,L|56:288,1,90,10|2,0:0|0:0,0:0:0:0:
112,292,85441,2,0,P|172:304|216:308,1,90,2|8,0:0|0:0,0:0:0:0:
336,320,85774,5,8,0:0:0:0:
312,220,85996,1,2,0:0:0:0:
379,76,86219,1,2,0:0:0:0:
379,76,86330,1,8,0:0:0:0:
379,76,86441,2,0,P|331:104|323:108,1,45,8|0,0:0|0:0,0:0:0:0:
260,122,86663,2,0,P|200:126|148:146,1,90,8|2,0:0|0:0,0:0:0:0:
62,238,87107,1,8,0:0:0:0:
134,279,87330,2,0,P|200:273|246:271,1,90,8|2,0:0|0:0,0:0:0:0:
404,180,87774,5,10,0:0:0:0:
408,184,87885,1,0,0:0:0:0:
252,196,88663,1,12,0:0:0:0:
