osu file format v14

[General]
AudioFilename: audio.mp3
AudioLeadIn: 0
PreviewTime: 101376
Countdown: 0
SampleSet: Soft
StackLeniency: 0.7
Mode: 0
LetterboxInBreaks: 0
WidescreenStoryboard: 1

[Editor]
Bookmarks: 550,6810,18810,20897,52202,77245,102289,114810,127332,157071,158636,171158,172723,178723
DistanceSpacing: 0.5
BeatDivisor: 6
GridSize: 32
TimelineZoom: 2.400005

[Metadata]
Title:Anemone no Hana
TitleUnicode:アネモネの花
Artist:fhana
ArtistUnicode:fhana
Creator:Sotarks
Version:Reform's Insane
Source:
Tags:japanese female vocalist Junichi Sato yuxuki waga kevin mitsunaga towana lantis world atlast kalibe iljaaz reform kujinn akitoshi -laura- corinn kowari
BeatmapID:2349544
BeatmapSetID:1124422

[Difficulty]
HPDrainRate:5
CircleSize:4
OverallDifficulty:7.5
ApproachRate:9
SliderMultiplier:2.02
SliderTickRate:1

[Events]
//Background and Video events
0,0,"bg.jpg",0,0
//Break Periods
2,102489,113428
//Storyboard Layer 0 (Background)
//Storyboard Layer 1 (Fail)
//Storyboard Layer 2 (Pass)
//Storyboard Layer 3 (Foreground)
//Storyboard Layer 4 (Overlay)
//Storyboard Sound Samples

[TimingPoints]
550,521.739130434783,3,2,0,52,1,0
3680,-121.951219512195,3,2,0,52,0,0
6810,-89.2857142857142,3,2,22,52,0,0
19332,-89.2857142857142,3,2,0,52,0,0
20636,-192.307692307692,3,2,0,52,0,0
20897,-98.0392156862745,3,2,22,52,0,0
31854,-89.2857142857143,3,2,22,52,0,0
45941,-454.545454545455,3,2,22,52,0,0
47506,-312.5,3,2,22,52,0,0
51419,-98.0392156862745,3,2,22,52,0,0
52202,-65.7894736842105,3,1,22,82,0,1
77245,-70.4225352112676,3,1,22,82,0,0
99158,-65.7894736842105,3,2,22,82,0,0
99550,-61.7283950617284,3,2,22,82,0,0
100723,-54.9450549450549,3,2,22,82,0,0
101115,-52.0833333333333,3,2,22,82,0,0
101506,-49.5049504950495,3,2,22,82,0,0
102289,-454.545454545455,3,2,22,52,0,0
108550,-238.095238095238,3,2,22,52,0,0
114810,-121.951219512195,3,2,22,62,0,0
121071,-108.695652173913,3,2,22,72,0,0
124202,-81.9672131147541,3,1,22,82,0,0
125767,-75.7575757575758,3,2,22,82,0,0
127332,-58.1395348837209,3,1,22,92,0,1
157071,-833.333333333333,3,2,22,82,0,0
157136,-833.333333333333,3,2,22,32,0,0
158376,-192.307692307692,3,2,22,42,0,0
158636,-89.2857142857142,3,2,22,52,0,0
169854,-81.9672131147541,3,1,22,52,0,0
171158,-121.951219512195,3,2,0,52,0,0
171941,-75.7575757575758,3,2,22,52,0,0
172202,-65.7894736842105,3,2,22,52,0,0
172463,-58.1395348837209,3,2,22,52,0,0
172723,-454.545454545455,3,2,22,52,0,0
172789,-454.545454545455,3,2,22,12,0,0

[Colours]
Combo1 : 69,113,226
Combo2 : 255,91,13
Combo3 : 252,255,117
Combo4 : 132,224,255

[HitObjects]
76,83,550,5,8,0:2:0:0:
68,95,941,1,8,0:2:0:0:
77,104,1332,5,8,0:2:0:0:
155,66,1593,1,8,0:2:0:0:
228,117,1854,1,8,0:2:0:0:
315,77,2115,5,8,0:2:0:0:
323,87,2506,1,8,0:2:0:0:
313,98,2897,5,8,0:2:0:0:
257,168,3158,1,8,0:2:0:0:
306,238,3419,1,8,0:2:0:0:
299,257,3680,6,0,P|264:259|208:272,1,82.8200012637329,8|0,1:2|0:2,0:2:0:0:
155,309,4071,2,0,P|114:299|73:297,1,82.8200012637329,8|0,0:2|0:2,0:2:0:0:
27,218,4463,2,0,P|32:180|45:125,2,82.8200012637329,8|8|8,0:2|0:2|0:2,0:2:0:0:
147,76,5245,6,0,P|174:59|231:60,1,82.8200012637329,8|0,0:2|0:2,0:2:0:0:
287,127,5636,2,0,P|314:144|371:143,1,82.8200012637329,8|0,0:2|0:2,0:2:0:0:
427,93,6028,5,8,0:2:0:0:
342,70,6158,1,8,0:2:0:0:
442,175,6289,5,8,0:2:0:0:
512,158,6419,1,8,0:3:0:0:
501,264,6550,5,4,0:3:0:0:
474,257,6680,1,4,0:3:0:0:
378,302,6810,6,0,P|370:334|381:375,2,56.5600006904297,6|0|0,1:2|0:2|1:2,0:2:0:0:
303,192,7202,2,0,P|280:184|194:224,1,113.120001380859,10|0,0:2|1:2,0:2:0:0:
181,242,7528,1,0,1:2:0:0:
181,242,7593,2,0,P|193:288|200:320,1,56.5600006904297,10|0,0:2|0:2,0:2:0:0:
105,164,7854,2,0,P|93:210|86:242,1,56.5600006904297,2|0,1:2|0:2,0:2:0:0:
215,96,8115,2,0,P|227:142|234:174,1,56.5600006904297,2|0,1:2|0:2,0:2:0:0:
143,47,8376,5,10,0:2:0:0:
214,11,8506,1,2,1:2:0:0:
286,57,8636,1,2,1:2:0:0:
364,21,8767,2,0,P|403:48|477:42,1,113.120001380859,10|0,0:2|1:2,0:2:0:0:
487,163,9158,5,10,0:2:0:0:
403,135,9289,1,8,0:2:0:0:
345,242,9419,1,10,0:2:0:0:
424,214,9550,1,8,0:2:0:0:
480,285,9680,1,2,1:2:0:0:
484,294,9810,1,0,3:2:0:0:
372,370,9941,6,0,P|322:352|240:343,1,113.120001380859,6|0,1:2|0:2,0:2:0:0:
245,254,10332,2,0,P|189:262|135:280,1,113.120001380859,10|0,0:2|1:2,0:2:0:0:
100,297,10658,1,0,1:2:0:0:
100,297,10723,2,0,P|89:258|90:227,1,56.5600006904297,10|0,0:2|0:2,0:2:0:0:
146,141,10984,2,0,P|155:167|157:195,1,56.5600006904297,2|0,1:2|1:2,0:2:0:0:
53,126,11245,2,0,P|55:97|64:71,1,56.5600006904297,2|0,1:2|0:2,0:2:0:0:
140,19,11506,5,6,1:2:0:0:
170,46,11593,1,8,0:2:0:0:
213,54,11680,1,8,0:2:0:0:
249,39,11767,1,8,0:2:0:0:
322,114,11897,6,0,P|310:158|291:243,1,113.120001380859,10|0,0:2|0:2,0:2:0:0:
326,321,12289,2,0,P|353:339|396:346,1,56.5600006904297,10|0,1:3|0:2,0:2:0:0:
214,270,12550,2,0,P|187:278|164:294,1,56.5600006904297,6|0,1:3|0:2,0:2:0:0:
374,255,12810,2,0,P|400:246|423:230,1,56.5600006904297,6|0,1:3|0:2,0:2:0:0:
240,170,13071,6,0,P|215:153|177:145,2,56.5600006904297,6|0|0,1:2|0:2|1:2,0:2:0:0:
282,348,13463,2,0,P|279:303|309:226,1,113.120001380859,10|0,0:2|1:2,0:2:0:0:
358,108,13854,6,0,P|330:122|296:126,1,56.5600006904297,10|0,0:2|0:2,0:2:0:0:
379,0,14115,2,0,P|406:5|431:18,1,56.5600006904297,2|8,1:2|0:2,0:2:0:0:
284,43,14376,2,0,P|257:38|232:25,1,56.5600006904297,2|0,1:2|0:2,0:2:0:0:
388,104,14636,5,10,0:2:0:0:
434,169,14767,1,2,1:2:0:0:
390,233,14897,1,2,1:2:0:0:
308,240,15028,2,0,P|271:243|225:315,1,113.120001380859,10|0,0:2|1:2,0:2:0:0:
32,289,15419,5,10,0:2:0:0:
105,336,15550,1,8,0:2:0:0:
179,204,15680,1,10,0:2:0:0:
106,251,15811,1,8,0:2:0:0:
50,184,15941,1,2,1:2:0:0:
41,177,16071,1,0,3:2:0:0:
87,65,16202,6,0,P|118:34|204:29,1,113.120001380859,6|0,1:2|0:2,0:2:0:0:
220,100,16593,2,0,P|277:109|326:168,1,113.120001380859,10|0,0:2|1:2,0:2:0:0:
291,231,16984,6,0,P|301:267|310:311,1,56.5600006904297,14|0,0:2|0:2,0:2:0:0:
443,183,17245,2,0,P|433:219|424:263,1,56.5600006904297,2|0,1:2|1:2,0:2:0:0:
302,90,17506,2,0,P|312:126|321:170,1,56.5600006904297,2|0,1:2|0:2,0:2:0:0:
396,90,17767,5,2,1:2:0:0:
424,64,17854,1,8,0:2:0:0:
455,59,17941,1,8,0:2:0:0:
489,69,18028,1,8,0:2:0:0:
410,198,18158,6,0,P|369:179|283:170,1,113.120001380859,10|0,0:2|0:2,0:2:0:0:
186,260,18550,2,0,P|193:287|202:315,1,56.5600006904297,10|0,1:3|0:2,0:2:0:0:
182,178,18810,2,0,P|190:151|198:124,1,56.5600006904297,6|0,1:3|0:2,0:2:0:0:
109,263,19071,2,0,P|116:290|124:317,1,56.5600006904297,6|0,1:3|0:2,0:2:0:0:
58,182,19332,5,8,0:2:0:0:
58,169,19723,1,8,0:2:0:0:
58,156,20115,5,8,0:2:0:0:
142,213,20376,1,8,0:2:0:0:
221,155,20636,1,10,0:2:0:0:
309,206,20897,6,0,P|373:213|413:129,1,154.530000943176,6|8,1:2|0:2,0:2:0:0:
415,143,21550,5,0,1:2:0:0:
330,52,21680,2,0,P|356:36|387:31,1,51.5100003143921,8|0,0:2|0:2,0:2:0:0:
281,177,21941,2,0,P|256:170|234:156,1,51.5100003143921,0|8,1:2|0:2,0:2:0:0:
152,42,22202,2,0,L|137:102,1,51.5100003143921,0|0,1:2|1:2,0:0:0:0:
17,230,22463,6,0,P|40:193|148:207,1,154.530000943176,2|8,1:2|0:2,0:2:0:0:
139,197,23115,5,0,1:2:0:0:
124,323,23245,2,0,P|95:337|59:336,1,51.5100003143921,8|0,0:2|0:2,0:2:0:0:
229,250,23506,2,0,P|254:253|276:265,1,51.5100003143921,0|8,1:2|0:2,0:2:0:0:
385,369,23767,2,0,L|377:306,1,51.5100003143921,0|0,1:2|1:2,0:0:0:0:
480,80,24028,6,0,P|470:150|458:240,1,154.530000943176,2|8,1:2|0:2,0:2:0:0:
459,234,24680,5,0,1:2:0:0:
385,183,24810,2,0,P|344:165|280:188,2,103.020000628784,8|0|8,0:2|1:2|0:2,0:2:0:0:
333,243,25463,1,0,1:2:0:0:
217,171,25593,6,0,P|223:121|245:53,1,103.020000628784,2|0,1:2|1:2,0:2:0:0:
81,40,25984,2,0,P|95:89|101:140,1,103.020000628784,8|0,0:2|1:2,0:2:0:0:
145,207,26376,2,0,P|119:222|80:226,2,51.5100003143921,10|0|0,0:2|1:2|1:2,0:2:0:0:
307,142,26767,1,8,0:2:0:0:
307,142,26897,2,0,P|331:148|353:161,1,51.5100003143921,0|0,1:2|1:2,0:0:0:0:
261,332,27158,6,0,P|190:318|88:295,1,154.530000943176,2|0,1:2|3:2,0:2:0:0:
109,300,27810,5,0,1:2:0:0:
209,295,27941,2,0,P|247:292|320:284,2,103.020000628784,8|0|0,0:2|1:2|1:2,0:2:0:0:
143,237,28593,1,0,1:2:0:0:
218,185,28723,6,0,P|236:146|155:62,1,154.530000943176,2|0,1:2|1:2,0:2:0:0:
178,63,29376,1,0,1:2:0:0:
269,104,29506,2,0,P|307:100|335:87,1,51.5100003143921,8|0,0:2|1:2,0:0:0:0:
171,169,29767,2,0,P|146:161|120:160,1,51.5100003143921,0|0,3:2|0:0,0:2:0:0:
260,236,30028,2,0,P|284:243|310:244,1,51.5100003143921,0|0,0:0|1:2,0:0:0:0:
171,268,30289,6,0,P|129:260|63:351,1,154.530000943176,2|0,3:2|1:2,0:2:0:0:
61,333,30941,1,0,1:2:0:0:
106,228,31071,2,0,P|97:188|86:159,1,51.5100003143921,8|0,0:2|0:0,0:2:0:0:
203,327,31332,2,0,P|195:351|190:376,1,51.5100003143921,0|8,1:2|0:2,0:0:0:0:
286,238,31593,1,0,1:2:0:0:
286,238,31723,1,0,1:2:0:0:
357,333,31854,6,0,P|401:335|479:372,1,113.120001380859,10|4,0:2|1:3,0:0:0:0:
410,212,32245,2,0,P|450:229|509:292,1,113.120001380859,8|4,0:2|1:3,0:2:0:0:
293,189,32636,2,0,P|307:225|310:263,1,56.5600006904297,10|8,1:3|1:3,0:2:0:0:
237,95,32897,2,0,P|227:132|207:164,1,56.5600006904297,6|4,1:3|0:3,0:0:0:0:
241,1,33158,2,0,P|204:13|166:15,1,56.5600006904297,6|4,1:3|0:3,0:0:0:0:
341,69,33419,6,0,P|386:99|464:98,1,113.120001380859,6|0,1:2|0:2,0:2:0:0:
269,125,33810,2,0,P|234:136|204:167,1,56.5600006904297,8|0,0:2|0:2,0:2:0:0:
272,213,34071,1,0,1:2:0:0:
143,175,34202,2,0,P|135:138|124:95,1,56.5600006904297,8|0,0:2|0:2,0:2:0:0:
201,255,34463,2,0,P|194:282|188:310,1,56.5600006904297,0|0,3:2|0:2,0:2:0:0:
73,205,34723,2,0,P|65:168|54:125,1,56.5600006904297,0|0,1:2|1:2,0:0:0:0:
188,310,34984,6,0,P|230:319|366:358,1,169.680002071289,2|0,1:2|3:2,0:2:0:0:
351,353,35636,1,0,1:2:0:0:
451,283,35767,2,0,P|462:246|473:211,1,56.5600006904297,8|0,0:2|0:2,0:2:0:0:
376,232,36028,2,0,P|387:195|398:160,1,56.5600006904297,0|0,3:2|0:2,0:2:0:0:
299,185,36289,2,0,P|310:148|321:113,1,56.5600006904297,0|0,3:2|3:2,0:0:0:0:
207,27,36550,6,0,P|165:18|101:70,1,113.120001380859,2|0,1:2|0:0,0:2:0:0:
8,68,36941,2,0,P|33:108|55:188,1,113.120001380859,8|0,0:2|1:2,0:0:0:0:
154,141,37332,2,0,P|186:121|231:118,1,56.5600006904297,8|0,0:2|0:0,0:2:0:0:
50,249,37593,2,0,P|22:241|0:224,1,56.5600006904297,0|0,0:0|0:2,0:0:0:0:
215,191,37854,2,0,P|251:199|285:229,1,56.5600006904297,0|0,1:2|3:2,0:0:0:0:
401,345,38115,6,0,L|419:221,2,113.120001380859,8|8|4,3:3|3:3|1:3,0:2:0:0:
336,230,38767,1,4,1:3:0:0:
275,291,38897,2,0,P|243:305|204:304,1,56.5600006904297,8|0,0:2|0:2,0:2:0:0:
171,250,39158,2,0,P|203:236|242:237,1,56.5600006904297,8|0,0:2|0:2,0:2:0:0:
347,329,39419,2,0,P|379:343|418:342,1,56.5600006904297,6|6,3:3|3:3,0:0:0:0:
479,251,39680,6,0,L|459:78,1,169.680002071289,2|0,1:2|3:2,0:2:0:0:
461,83,40332,1,0,1:2:0:0:
403,175,40463,2,0,P|371:197|330:205,1,56.5600006904297,8|0,0:2|0:2,0:2:0:0:
282,32,40723,2,0,P|308:42|330:59,1,56.5600006904297,0|8,1:2|0:2,0:2:0:0:
255,188,40984,2,0,L|270:118,1,56.5600006904297,0|0,1:2|1:2,0:0:0:0:
128,286,41245,6,0,L|105:164,1,113.120001380859,0|0,1:2|0:2,0:2:0:0:
127,63,41636,2,0,L|106:174,1,113.120001380859,8|0,0:2|1:2,0:2:0:0:
48,254,42028,1,8,0:2:0:0:
45,244,42158,1,8,0:2:0:0:
128,286,42289,1,0,1:2:0:0:
131,276,42419,1,8,0:2:0:0:
208,241,42550,2,0,L|193:168,1,56.5600006904297,2|0,3:3|0:2,0:2:0:0:
297,294,42810,6,0,P|352:283|439:375,1,169.680002071289,0|0,1:2|3:2,0:2:0:0:
435,350,43463,1,0,1:2:0:0:
458,248,43593,2,0,P|468:202|479:172,1,56.5600006904297,8|0,0:2|0:2,0:2:0:0:
363,310,43854,1,0,1:2:0:0:
386,208,43984,2,0,P|396:162|407:132,2,56.5600006904297,8|0|0,0:2|0:2|1:2,0:2:0:0:
333,101,44376,5,10,0:2:0:0:
333,101,44636,1,8,0:2:0:0:
173,149,44767,1,8,0:2:0:0:
173,149,45028,1,0,1:2:0:0:
97,94,45158,6,0,L|88:31,1,56.5600006904297,8|8,0:2|0:2,0:0:0:0:
88,185,45419,2,0,L|80:240,1,56.5600006904297,8|0,1:3|1:0,0:0:0:0:
7,135,45680,2,0,L|-2:72,1,56.5600006904297,4|4,1:3|1:3,0:0:0:0:
27,297,45941,5,2,1:2:0:0:
288,184,46723,5,2,1:2:0:0:
90,89,47506,5,2,1:2:0:0:
393,183,48289,5,2,1:2:0:0:
218,355,49071,5,10,1:2:0:0:
190,310,49332,1,4,0:3:0:0:
202,235,49593,1,4,0:3:0:0:
292,191,49854,1,8,1:3:0:0:
398,231,50115,1,4,2:3:0:0:
455,130,50376,1,4,2:3:0:0:
361,22,50636,5,14,1:2:0:0:
116,160,50897,1,4,1:3:0:0:
116,160,51028,1,8,0:2:0:0:
358,306,51289,1,8,1:3:0:0:
358,306,51419,6,0,P|365:263|373:235,1,51.5100003143921,10|0,0:2|1:2,0:2:0:0:
275,145,51680,2,0,P|280:170|283:195,1,51.5100003143921,10|8,0:2|1:3,0:0:0:0:
376,102,51941,1,6,0:3:0:0:
376,102,52071,1,4,0:3:0:0:
253,294,52202,6,0,P|191:295|95:355,1,153.519998125977,6|4,0:2|2:3,0:2:0:0:
16,171,52593,2,0,P|79:157|126:237,1,153.519998125977,10|8,0:2|2:3,0:2:0:0:
194,133,52984,2,0,P|201:81|211:43,1,76.7599990629883,10|0,0:2|2:2,0:2:0:0:
355,184,53245,1,2,0:2:0:0:
238,235,53376,1,8,0:2:0:0:
279,114,53506,1,6,0:3:0:0:
279,114,53636,1,4,0:3:0:0:
457,233,53767,6,0,P|440:289|409:396,1,153.519998125977,6|8,0:2|2:3,0:2:0:0:
279,114,54158,2,0,P|296:170|327:277,1,153.519998125977,10|4,0:2|2:3,0:2:0:0:
409,86,54550,2,0,P|453:100|491:128,1,76.7599990629883,10|0,0:2|2:2,0:2:0:0:
238,30,54810,2,0,P|282:16|320:-12,1,76.7599990629883,10|8,0:3|2:2,0:2:0:0:
96,109,55071,2,0,P|140:123|178:151,1,76.7599990629883,2|4,0:2|0:3,0:2:0:0:
46,360,55332,6,0,P|36:288|11:193,1,153.519998125977,6|0,0:2|2:2,0:2:0:0:
149,311,55723,2,0,P|157:265|170:225,1,76.7599990629883,8|2,0:2|0:2,0:0:0:0:
288,323,55984,1,8,0:3:0:0:
264,160,56115,6,0,P|209:132|83:121,1,153.519998125977,10|8,0:2|0:3,0:2:0:0:
380,46,56506,2,0,P|333:60|285:61,1,76.7599990629883,8|2,0:2|2:2,0:2:0:0:
446,138,56767,1,4,0:3:0:0:
221,36,56897,6,0,P|206:88|274:162,1,153.519998125977,6|8,0:2|2:2,0:2:0:0:
306,283,57289,2,0,P|321:231|253:157,1,153.519998125977,10|4,0:2|0:3,0:0:0:0:
184,257,57680,2,0,P|196:303|208:356,1,76.7599990629883,14|0,0:2|0:0,0:0:0:0:
37,162,57941,2,0,P|25:208|13:261,1,76.7599990629883,14|8,0:2|2:3,0:2:0:0:
154,26,58202,2,0,P|166:72|178:125,1,76.7599990629883,6|4,0:3|0:3,0:0:0:0:
427,224,58463,6,0,P|398:177|283:196,1,153.519998125977,6|8,0:2|2:3,0:2:0:0:
345,348,58854,2,0,P|399:329|522:304,1,153.519998125977,10|4,0:2|2:3,0:2:0:0:
247,260,59245,2,0,P|199:249|141:237,1,76.7599990629883,10|0,0:2|2:2,0:2:0:0:
274,86,59506,1,6,0:3:0:0:
314,204,59636,1,8,0:2:0:0:
198,174,59767,1,2,2:2:0:0:
198,174,59897,1,8,0:3:0:0:
387,92,60028,6,0,P|406:159|436:272,1,153.519998125977,6|0,0:2|2:2,0:2:0:0:
238,25,60419,2,0,P|219:92|189:205,1,153.519998125977,10|0,0:2|0:2,0:2:0:0:
115,66,60810,2,0,P|67:47|24:40,1,76.7599990629883,10|0,0:2|2:2,0:2:0:0:
202,271,61071,2,0,P|239:262|274:246,1,76.7599990629883,6|0,0:3|2:2,0:2:0:0:
73,141,61332,2,0,P|35:149|0:165,1,76.7599990629883,2|0,0:2|0:2,0:2:0:0:
336,295,61593,6,0,P|346:205|276:168,1,153.519998125977,14|8,0:2|2:3,0:2:0:0:
102,234,61984,2,0,P|121:292|154:393,1,153.519998125977,12|4,0:2|2:3,0:2:0:0:
220,104,62376,2,0,L|196:206,1,76.7599990629883,10|0,0:2|2:2,0:2:0:0:
125,71,62636,1,8,0:2:0:0:
222,5,62767,2,0,L|274:16,2,38.3799995314941,0|0|10,0:2|0:2|0:2,0:2:0:0:
315,145,63028,1,0,0:2:0:0:
315,145,63093,1,0,0:2:0:0:
315,145,63158,6,0,L|373:131,4,38.3799995314941,14|4|4|4|8,0:2|0:3|0:3|0:3|0:2,0:2:0:0:
256,262,63550,2,0,P|219:234|222:102,1,153.519998125977,10|8,0:2|0:2,0:2:0:0:
287,36,63941,1,14,0:2:0:0:
359,109,64071,1,8,0:3:0:0:
429,45,64202,1,14,0:2:0:0:
440,40,64332,1,8,0:3:0:0:
485,203,64463,2,0,P|436:190|390:183,1,76.7599990629883,6|4,0:3|0:3,0:0:0:0:
261,351,64723,6,0,P|308:357|375:277,1,153.519998125977,6|0,0:2|0:0,0:2:0:0:
249,125,65115,2,0,P|270:190|296:286,1,153.519998125977,10|8,2:2|0:3,0:0:0:0:
374,47,65506,2,0,P|359:100|347:149,1,76.7599990629883,10|0,0:2|2:2,0:2:0:0:
137,177,65767,1,2,0:2:0:0:
173,34,65897,1,8,2:2:0:0:
249,125,66028,1,6,0:3:0:0:
249,125,66158,1,4,0:3:0:0:
5,78,66289,6,0,P|22:116|58:250,1,153.519998125977,6|8,0:2|2:3,0:2:0:0:
160,369,66680,2,0,P|128:328|22:334,1,153.519998125977,14|4,0:2|2:3,0:2:0:0:
227,291,67071,2,0,P|267:274|325:257,1,76.7599990629883,10|0,0:2|2:2,0:2:0:0:
172,201,67332,2,0,P|132:184|74:167,1,76.7599990629883,2|8,0:2|0:2,0:0:0:0:
243,111,67593,2,0,P|283:94|341:77,1,76.7599990629883,6|4,0:3|0:3,0:0:0:0:
466,211,67854,6,0,P|453:259|433:379,1,153.519998125977,6|8,0:2|2:3,0:2:0:0:
370,177,68245,2,0,P|347:134|410:36,1,153.519998125977,8|4,0:2|0:3,0:2:0:0:
442,125,68636,2,0,P|490:148|524:152,1,76.7599990629883,10|0,0:2|2:2,0:2:0:0:
289,33,68897,1,0,0:2:0:0:
289,33,69028,2,0,P|251:41|218:59,1,76.7599990629883,8|6,0:2|0:3,0:0:0:0:
370,177,69289,1,4,0:3:0:0:
258,151,69419,6,0,L|289:331,1,153.519998125977,6|8,0:2|2:3,0:2:0:0:
152,127,69810,2,0,L|121:307,1,153.519998125977,8|4,0:2|2:3,0:2:0:0:
15,125,70202,2,0,L|39:213,1,76.7599990629883,10|0,0:2|2:2,0:2:0:0:
163,17,70463,1,8,0:2:0:0:
152,127,70593,1,8,0:2:0:0:
62,64,70723,1,4,0:3:0:0:
51,55,70854,1,4,0:3:0:0:
231,94,70984,6,0,P|290:102|357:26,1,153.519998125977,6|0,0:2|0:0,0:2:0:0:
194,12,71376,2,0,P|209:74|228:178,1,153.519998125977,4|8,2:3|0:3,0:0:0:0:
170,265,71767,2,0,P|214:247|256:242,1,76.7599990629883,10|0,0:2|0:0,0:2:0:0:
406,200,72028,1,0,2:2:0:0:
306,149,72158,1,8,0:2:0:0:
365,291,72289,2,0,P|409:309|451:314,1,76.7599990629883,6|4,0:3|0:3,0:0:0:0:
487,84,72550,6,0,P|438:87|311:128,1,153.519998125977,6|8,0:2|2:3,0:2:0:0:
225,162,72941,2,0,P|182:146|121:134,1,76.7599990629883,8|2,0:2|2:2,0:2:0:0:
272,53,73202,1,4,0:3:0:0:
96,70,73332,6,0,P|69:113|74:150,1,76.7599990629883,14|0,0:2|2:2,0:2:0:0:
138,303,73593,2,0,P|165:260|160:223,1,76.7599990629883,2|8,0:2|2:2,0:2:0:0:
64,248,73854,1,2,0:2:0:0:
64,248,73984,1,0,2:2:0:0:
220,358,74115,6,0,P|280:372|344:290,1,153.519998125977,6|0,0:2|0:0,0:2:0:0:
437,276,74506,2,0,P|377:290|313:208,1,153.519998125977,8|8,2:2|0:3,0:0:0:0:
387,134,74897,2,0,L|397:227,1,76.7599990629883,14|0,0:2|0:0,0:2:0:0:
290,73,75158,2,0,L|280:166,1,76.7599990629883,0|8,2:2|0:2,0:0:0:0:
177,23,75419,2,0,L|187:116,1,76.7599990629883,4|4,0:3|0:3,0:0:0:0:
22,242,75680,6,0,P|50:200|152:215,1,153.519998125977,6|8,0:2|0:3,0:2:0:0:
236,343,76071,2,0,P|183:326|67:303,1,153.519998125977,4|8,0:2|0:3,0:2:0:0:
244,213,76463,2,0,P|290:201|344:195,1,76.7599990629883,10|0,0:2|0:2,0:0:0:0:
442,277,76723,1,8,0:2:0:0:
442,277,76854,1,8,0:3:0:0:
397,168,76984,1,6,0:3:0:0:
397,168,77115,1,4,0:3:0:0:
290,318,77245,6,0,P|224:306|133:268,1,143.419992778229,6|6,0:2|0:3,0:2:0:0:
168,158,77636,2,0,P|122:173|71:179,1,71.7099963891146,8|0,0:2|2:2,0:2:0:0:
263,216,77897,1,14,0:3:0:0:
239,74,78028,2,0,P|193:59|142:53,1,71.7099963891146,14|0,0:2|0:0,0:2:0:0:
259,236,78289,1,0,2:2:0:0:
325,106,78420,2,0,P|371:91|422:85,1,71.7099963891146,8|8,0:2|0:2,0:0:0:0:
411,226,78680,1,8,0:2:0:0:
204,152,78810,6,0,P|169:191|188:294,1,143.419992778229,6|0,0:2|2:2,0:2:0:0:
305,350,79202,2,0,P|344:334|386:325,2,71.7099963891146,8|8|8,0:2|0:2|0:2,0:0:0:0:
399,211,79593,2,0,P|444:218|493:241,1,71.7099963891146,10|0,0:2|2:2,0:2:0:0:
292,136,79854,2,0,P|280:88|293:48,1,71.7099963891146,12|0,0:2|2:2,0:2:0:0:
380,93,80115,1,4,0:3:0:0:
380,93,80245,1,8,0:2:0:0:
265,219,80376,6,0,P|216:216|169:312,1,143.419992778229,6|0,0:2|2:2,0:2:0:0:
37,268,80767,2,0,P|56:323|66:364,1,71.7099963891146,8|0,0:2|2:2,0:2:0:0:
130,141,81028,1,8,0:3:0:0:
130,141,81158,2,0,P|111:196|101:237,1,71.7099963891146,8|0,0:2|0:0,0:0:0:0:
76,55,81419,2,0,P|31:38|-11:28,1,71.7099963891146,4|0,0:2|0:0,0:0:0:0:
23,141,81680,1,8,0:2:0:0:
23,141,81810,1,0,0:2:0:0:
177,67,81941,6,0,P|211:58|235:54,2,35.8549981945573,6|8|8,0:2|0:2|0:2,0:0:0:0:
253,154,82202,1,4,2:3:0:0:
368,77,82332,2,0,P|354:133|333:241,1,143.419992778229,8|8,0:2|0:2,0:2:0:0:
413,342,82723,2,0,P|455:353|504:367,1,71.7099963891146,14|8,0:3|2:2,0:2:0:0:
225,307,82984,2,0,P|259:297|294:288,1,71.7099963891146,4|8,0:3|0:3,0:0:0:0:
113,230,83245,1,4,0:3:0:0:
113,230,83376,1,4,0:3:0:0:
204,118,83506,6,0,P|256:129|369:168,1,143.419992778229,6|0,0:2|2:2,0:0:0:0:
470,34,83897,2,0,P|431:43|387:58,1,71.7099963891146,8|0,0:2|2:2,0:2:0:0:
465,153,84158,1,8,0:3:0:0:
322,68,84289,1,8,0:2:0:0:
322,68,84419,1,8,0:2:0:0:
392,236,84550,2,0,P|426:246|461:254,1,71.7099963891146,4|0,0:2|0:0,0:0:0:0:
231,272,84810,1,8,0:2:0:0:
305,174,84941,1,4,0:2:0:0:
282,357,85071,6,0,P|216:365|140:303,1,143.419992778229,6|8,0:2|2:2,0:2:0:0:
38,209,85463,2,0,P|50:279|69:376,1,143.419992778229,12|8,0:3|0:2,0:2:0:0:
182,138,85854,2,0,P|170:192|160:238,1,71.7099963891146,6|0,0:2|2:2,0:2:0:0:
54,42,86115,2,0,P|66:96|76:142,1,71.7099963891146,8|0,0:2|0:0,0:0:0:0:
159,12,86376,1,0,0:2:0:0:
159,12,86507,1,0,2:2:0:0:
270,85,86636,6,0,P|324:74|418:22,1,143.419992778229,14|8,0:2|0:3,0:2:0:0:
512,137,87028,2,0,P|458:126|364:74,1,143.419992778229,12|4,0:2|0:3,0:2:0:0:
268,173,87419,1,12,0:2:0:0:
268,173,87550,1,8,0:2:0:0:
390,243,87680,1,8,0:2:0:0:
390,243,87810,1,12,0:2:0:0:
270,305,87941,2,0,P|232:323|195:347,1,71.7099963891146,0|8,0:2|0:2,0:0:0:0:
461,365,88202,6,0,L|471:319,2,35.8549981945573,14|0|0,0:3|0:0|0:2,0:0:0:0:
353,264,88463,1,8,0:3:0:0:
463,170,88593,2,0,L|480:265,1,71.7099963891146,10|4,0:2|0:3,0:0:0:0:
311,141,88854,1,8,0:3:0:0:
426,77,88984,2,0,L|480:62,2,47.8066642594097,6|0|8,0:2|0:0|2:2,0:2:0:0:
341,18,89245,2,0,L|300:7,2,35.8549981945573,10|0|0,0:3|0:0|2:2,0:2:0:0:
439,86,89506,2,0,L|480:75,2,35.8549981945573,10|0|4,0:3|0:2|0:3,0:2:0:0:
312,160,89767,6,0,P|272:146|220:130,1,71.7099963891146,6|8,0:2|0:2,0:0:0:0:
169,185,90028,1,0,2:2:0:0:
96,128,90158,2,0,P|61:138|28:150,1,71.7099963891146,8|0,0:2|2:2,0:2:0:0:
0,229,90419,1,8,0:3:0:0:
55,309,90550,2,0,P|88:320|122:331,1,71.7099963891146,12|0,0:2|0:0,0:2:0:0:
197,263,90810,1,0,2:2:0:0:
280,315,90941,2,0,P|314:304|347:292,1,71.7099963891146,8|4,0:2|0:3,0:0:0:0:
449,329,91202,1,4,0:3:0:0:
420,236,91332,6,0,L|439:153,1,71.7099963891146,14|0,0:2|2:2,0:2:0:0:
389,88,91593,1,8,0:3:0:0:
284,179,91723,2,0,L|265:96,1,71.7099963891146,8|0,0:2|2:2,0:2:0:0:
315,16,91984,1,4,0:3:0:0:
215,46,92115,2,0,L|129:27,1,71.7099963891146,8|0,0:2|0:0,0:2:0:0:
66,89,92376,1,0,0:2:0:0:
66,89,92463,1,8,0:2:0:0:
66,89,92550,1,8,0:2:0:0:
66,89,92636,2,0,L|-1:103,2,47.8066642594097,8|8|6,0:2|0:2|0:2,0:0:0:0:
144,141,92897,6,0,P|157:204|169:262,1,71.7099963891146
267,131,93158,1,0,0:0:0:0:
243,236,93289,2,0,P|230:299|218:357,1,71.7099963891146
342,173,93550,1,0,2:2:0:0:
360,264,93680,2,0,P|373:327|385:385,1,71.7099963891146,12|0,0:2|2:2,0:2:0:0:
495,149,93941,1,0,0:2:0:0:
477,240,94071,2,0,P|464:303|452:361,2,71.7099963891146,8|0|4,0:2|2:2|0:3,0:2:0:0:
370,107,94463,6,0,P|337:83|257:88,1,107.564994583672,14|8,0:2|0:2,0:2:0:0:
242,92,94723,1,8,0:2:0:0:
147,139,94854,2,0,P|106:132|75:108,1,71.7099963891146,8|0,0:2|0:0,0:2:0:0:
249,201,95115,1,8,2:2:0:0:
165,269,95245,2,0,P|156:303|171:350,1,71.7099963891146,4|8,0:2|2:2,0:2:0:0:
327,242,95506,2,0,P|336:208|321:161,1,71.7099963891146,8|0,0:3|2:2,0:2:0:0:
268,339,95767,1,4,0:3:0:0:
268,339,95897,1,12,0:3:0:0:
161,253,96028,6,0,P|120:239|72:234,2,71.7099963891146,6|8|0,0:2|0:2|2:2,0:0:0:0:
253,119,96419,2,0,P|217:125|184:137,1,71.7099963891146,8|0,0:2|2:2,0:2:0:0:
318,205,96680,1,4,0:3:0:0:
403,112,96810,2,0,P|414:61|421:23,1,71.7099963891146,12|0,0:2|0:0,0:2:0:0:
457,218,97071,2,0,L|466:271,2,35.8549981945573,0|0|8,2:2|0:0|0:2,0:0:0:0:
308,119,97332,2,0,L|299:66,2,35.8549981945573,4|0|0,0:2|0:0|2:2,0:2:0:0:
198,230,97593,5,8,0:2:0:0:
160,239,97680,1,8,0:2:0:0:
122,231,97767,1,0,0:2:0:0:
92,206,97854,1,8,0:3:0:0:
81,169,97941,1,12,0:3:0:0:
87,131,98028,2,0,P|100:75|122:27,1,95.6133285188194,8|8,0:3|0:2,0:2:0:0:
149,15,98289,2,0,P|162:50|168:84,1,47.8066642594097,8|0,0:3|0:2,0:2:0:0:
274,172,98463,1,8,0:2:0:0:
274,172,98550,1,4,0:3:0:0:
274,172,98636,2,0,P|284:99|315:18,1,143.419992778229,12|0,0:2|0:2,0:2:0:0:
422,145,99028,1,4,0:3:0:0:
327,323,99158,6,0,P|273:305|154:285,1,153.519998125977,6|0,0:2|0:2,0:2:0:0:
1,177,99550,2,0,P|44:156|177:124,1,163.620003994629,12|0,0:2|0:2,0:2:0:0:
357,205,99941,1,14,0:2:0:0:
290,126,100071,1,8,0:2:0:0:
206,192,100202,1,8,0:2:0:0:
129,54,100332,2,0,P|91:34|33:45,2,81.8100019973145,10|8|4,0:2|0:2|0:3,0:0:0:0:
109,290,100723,6,0,P|98:206|68:95,1,183.820006170716,14|0,0:2|0:2,0:2:0:0:
369,264,101115,2,0,P|380:180|411:64,1,193.920004734375,14|0,0:2|0:2,0:2:0:0:
166,5,101506,5,10,0:2:0:0:
434,105,101767,5,8,0:3:0:0:
175,194,102028,5,4,0:3:0:0:
355,294,102289,5,6,0:2:0:0:
211,191,114028,6,0,L|203:149,2,42.4199987054444,2|2|2,0:2|0:2|0:2,0:0:0:0:
274,303,114810,6,0,P|330:300|389:354,1,124.230001895599,6|2,1:2|1:2,0:2:0:0:
382,339,115593,2,0,P|390:299|402:250,2,82.8200012637329,2|2|2,1:2|1:2|1:2,0:2:0:0:
338,212,116376,6,0,P|330:167|311:87,1,124.230001895599,2|2,1:2|1:2,0:2:0:0:
311,90,117158,2,0,P|281:116|225:113,2,82.8200012637329,2|2|2,1:2|1:2|1:2,0:2:0:0:
234,41,117941,6,0,B|206:36|147:28|65:16,1,165.640002527466,2|2,1:2|0:2,0:2:0:0:
38,179,118723,2,0,P|79:169|130:157,2,82.8200012637329,2|0|2,1:2|1:2|1:2,0:2:0:0:
186,337,119506,6,0,P|224:345|298:246,1,165.640002527466,2|0,1:2|0:0,0:2:0:0:
204,172,120289,2,0,L|214:270,2,82.8200012637329,2|0|2,1:2|1:2|1:2,0:2:0:0:
407,51,121071,6,0,L|391:165,1,92.9199968807374,6|0,1:2|0:0,0:2:0:0:
331,189,121463,2,0,L|347:303,1,92.9199968807374,0|0,0:2|0:0,0:0:0:0:
407,331,121854,2,0,P|464:344|505:354,2,92.9199968807374,6|0|0,1:2|1:2|1:2,0:2:0:0:
299,227,122636,6,0,P|259:221|207:266,1,92.9199968807374,6|0,1:2|0:0,0:2:0:0:
169,320,123028,2,0,P|131:345|86:340,1,92.9199968807374,0|0,1:2|0:0,0:0:0:0:
29,286,123419,2,0,L|41:180,2,92.9199968807374,6|2|0,1:2|1:2|1:2,0:2:0:0:
152,206,124136,5,0,1:2:0:0:
152,206,124202,2,0,P|193:207|266:253,1,123.219994923493,14|8,0:2|0:3,0:2:0:0:
410,63,124593,2,0,P|369:64|296:110,1,123.219994923493,12|4,0:2|0:3,0:2:0:0:
360,274,124984,2,0,L|374:199,1,61.6099974617463,10|0,0:2|0:2,0:0:0:0:
202,89,125245,2,0,L|188:166,1,61.6099974617463,8|0,0:2|0:2,0:0:0:0:
367,280,125506,2,0,L|378:219,1,61.6099974617463,8|0,0:2|0:2,0:0:0:0:
209,307,125767,6,0,P|170:341|102:332,1,99.9899996948547,14|0,0:2|0:2,0:2:0:0:
89,328,126028,1,8,0:2:0:0:
200,217,126158,2,0,P|249:220|303:291,1,133.31999959314,8|8,0:2|0:2,0:2:0:0:
113,254,126550,1,6,0:2:0:0:
76,168,126680,1,8,0:2:0:0:
237,131,126810,1,10,0:3:0:0:
200,217,126940,1,4,0:3:0:0:
137,99,127071,1,6,0:3:0:0:
134,84,127202,1,4,0:3:0:0:
331,77,127332,6,0,P|276:75|154:-4,1,173.720002650757,6|4,0:2|2:3,0:2:0:0:
309,192,127723,2,0,P|248:222|123:214,1,173.720002650757,10|8,0:2|2:3,0:2:0:0:
405,247,128115,2,0,P|386:305|346:333,1,86.8600013253784,10|0,0:2|2:2,0:2:0:0:
358,119,128376,1,2,0:2:0:0:
463,196,128506,1,8,0:2:0:0:
324,251,128636,1,6,0:3:0:0:
324,251,128767,1,4,0:3:0:0:
203,171,128897,6,0,P|212:101|236:-6,1,173.720002650757,6|8,0:2|2:3,0:2:0:0:
76,234,129289,2,0,P|56:149|44:63,1,173.720002650757,10|4,0:2|2:3,0:2:0:0:
213,177,129680,2,0,P|219:123|231:75,1,86.8600013253784,10|0,0:2|2:2,0:2:0:0:
308,245,129941,2,0,P|331:195|358:154,1,86.8600013253784,10|8,0:3|2:2,0:2:0:0:
372,342,130202,2,0,P|411:304|451:275,1,86.8600013253784,2|4,0:2|0:3,0:2:0:0:
211,340,130463,6,0,P|179:302|59:308,1,173.720002650757,6|0,0:2|2:2,0:2:0:0:
194,205,130854,2,0,P|162:171|107:149,1,86.8600013253784,8|2,0:2|0:2,0:0:0:0:
293,184,131115,1,8,0:3:0:0:
100,57,131245,6,0,P|57:85|44:219,1,173.720002650757,10|8,0:2|0:3,0:2:0:0:
208,104,131636,2,0,P|226:44|240:7,1,86.8600013253784,8|2,0:2|2:2,0:2:0:0:
240,221,131897,1,4,0:3:0:0:
119,161,132028,6,0,P|146:249|166:331,1,173.720002650757,6|8,0:2|2:2,0:2:0:0:
300,366,132419,2,0,P|276:323|158:336,1,173.720002650757,10|4,0:2|0:3,0:0:0:0:
341,249,132810,2,0,P|384:227|437:225,1,86.8600013253784,14|0,0:2|0:0,0:0:0:0:
289,146,133071,1,14,0:2:0:0:
392,91,133202,1,8,2:3:0:0:
301,42,133332,1,6,0:3:0:0:
291,36,133463,1,4,0:3:0:0:
198,117,133593,6,0,P|147:147|8:162,1,173.720002650757,6|8,0:2|2:3,0:2:0:0:
277,308,133984,2,0,P|226:278|87:263,1,173.720002650757,10|4,0:2|2:3,0:2:0:0:
303,208,134376,2,0,P|328:166|334:104,1,86.8600013253784,10|0,0:2|2:2,0:2:0:0:
345,285,134636,1,6,0:3:0:0:
255,144,134767,1,8,0:2:0:0:
203,249,134897,1,2,2:2:0:0:
198,262,135028,1,8,0:3:0:0:
80,179,135158,6,0,P|70:115|61:61,1,86.8600013253784,6|0,0:2|0:0,0:2:0:0:
50,262,135419,1,8,2:2:0:0:
152,113,135550,2,0,P|162:49|171:-5,1,86.8600013253784,10|8,0:2|0:2,0:2:0:0:
197,185,135810,1,0,0:2:0:0:
76,65,135941,6,0,P|31:70|-8:108,1,86.8600013253784,10|0,0:2|2:2,0:2:0:0:
186,263,136202,2,0,P|231:258|270:220,1,86.8600013253784,6|0,0:3|2:2,0:2:0:0:
78,73,136463,2,0,P|33:78|-6:116,1,86.8600013253784,2|0,0:2|0:2,0:2:0:0:
188,143,136723,5,14,0:2:0:0:
216,136,136810,1,0,0:0:0:0:
244,129,136897,1,0,0:0:0:0:
272,123,136984,1,8,2:3:0:0:
190,269,137158,2,0,P|117:244|51:233,1,115.813335100505
34,175,137419,1,0,0:0:0:0:
47,164,137506,2,0,P|120:139|186:128,1,115.813335100505,10|0,0:2|0:0,0:2:0:0:
246,170,137767,2,0,L|260:233,2,57.9066675502523,8|0|0,0:2|0:0|0:0,0:0:0:0:
300,94,138028,2,0,L|314:31,2,57.9066675502523,10|0|0,0:2|0:0|0:0,0:0:0:0:
362,184,138289,5,14,0:2:0:0:
459,126,138419,1,4,0:3:0:0:
455,241,138550,1,8,0:2:0:0:
384,99,138680,2,0,P|409:62|475:52,2,86.8600013253784,10|0|8,0:2|0:0|0:2,0:2:0:0:
394,289,139071,6,0,P|336:271|282:263,1,86.8600013253784,14|8,0:2|0:3,0:0:0:0:
164,121,139332,2,0,P|222:103|276:95,1,86.8600013253784,14|8,0:2|0:3,0:0:0:0:
130,290,139593,2,0,P|72:272|18:264,1,86.8600013253784,6|4,0:3|0:3,0:0:0:0:
208,216,139854,6,0,P|233:277|253:386,1,173.720002650757,6|0,0:2|0:0,0:2:0:0:
380,140,140245,2,0,P|355:201|335:310,1,173.720002650757,10|8,2:2|0:3,0:0:0:0:
273,103,140636,2,0,P|241:80|184:77,1,86.8600013253784,10|0,0:2|2:2,0:2:0:0:
129,244,140897,2,0,P|171:239|207:215,1,86.8600013253784,2|8,0:2|2:2,0:2:0:0:
103,115,141158,1,6,0:3:0:0:
91,108,141289,1,4,0:3:0:0:
295,191,141419,6,0,P|357:176|501:159,1,173.720002650757,6|8,0:2|2:3,0:2:0:0:
246,263,141810,2,0,P|159:252|75:232,1,173.720002650757,14|4,0:2|2:3,0:2:0:0:
338,256,142202,2,0,P|359:315|372:363,1,86.8600013253784,10|0,0:2|2:2,0:2:0:0:
239,181,142463,1,2,0:2:0:0:
340,131,142593,1,8,0:2:0:0:
256,78,142723,1,6,0:3:0:0:
242,71,142854,1,4,0:3:0:0:
332,16,142984,6,0,P|391:1|475:97,1,173.720002650757,6|8,0:2|2:3,0:2:0:0:
378,80,143376,1,8,0:2:0:0:
452,144,143506,2,0,P|466:192|468:248,1,86.8600013253784,2|4,2:2|0:3,0:0:0:0:
371,362,143767,6,0,P|405:330|462:317,1,86.8600013253784,10|0,0:2|2:2,0:2:0:0:
283,291,144028,2,0,P|242:276|211:246,1,86.8600013253784,0|8,0:2|0:2,0:0:0:0:
310,118,144289,2,0,P|293:165|282:220,1,86.8600013253784,6|4,0:3|0:3,0:0:0:0:
127,51,144550,5,6,0:2:0:0:
196,114,144680,2,0,L|93:144,1,86.8600013253784,0|8,0:0|2:3,0:0:0:0:
190,208,144941,1,8,0:2:0:0:
121,271,145071,2,0,L|224:301,1,86.8600013253784,0|4,0:0|2:3,0:0:0:0:
138,358,145332,1,10,0:2:0:0:
34,290,145463,2,0,L|21:191,1,86.8600013253784,0|8,2:2|0:2,0:0:0:0:
123,52,145723,2,0,L|110:151,2,86.8600013253784,8|4|4,0:2|0:3|0:3,0:0:0:0:
176,194,146115,6,0,P|224:237|350:212,1,173.720002650757,6|0,0:2|0:0,0:2:0:0:
441,202,146506,2,0,P|393:159|267:184,1,173.720002650757,4|8,2:3|0:3,0:0:0:0:
372,340,146897,2,0,P|389:286|402:248,1,86.8600013253784,10|0,0:2|0:0,0:2:0:0:
214,277,147158,1,0,2:2:0:0:
323,229,147289,1,8,0:2:0:0:
290,350,147419,1,6,0:3:0:0:
290,350,147550,1,4,0:3:0:0:
195,187,147680,6,0,P|151:216|158:347,1,173.720002650757,6|8,0:2|2:3,0:2:0:0:
277,225,148071,2,0,P|265:154|242:25,1,173.720002650757,8|4,0:2|0:3,0:2:0:0:
336,140,148463,2,0,P|389:155|447:170,1,86.8600013253784,14|0,0:2|2:2,0:2:0:0:
512,40,148723,2,0,P|459:55|401:70,1,86.8600013253784,2|8,0:2|2:2,0:2:0:0:
489,214,148984,2,0,P|505:164|489:116,1,86.8600013253784,2|0,0:2|2:2,0:2:0:0:
336,140,149245,6,0,P|324:211|301:344,1,173.720002650757,6|0,0:2|0:0,0:2:0:0:
212,378,149636,2,0,P|197:292|182:206,1,173.720002650757,8|8,2:2|0:3,0:0:0:0:
109,135,150028,2,0,L|21:115,1,86.8600013253784,14|0,0:2|0:0,0:2:0:0:
130,45,150289,1,0,2:2:0:0:
201,118,150419,1,8,0:2:0:0:
274,51,150550,1,4,0:3:0:0:
336,130,150680,1,4,0:3:0:0:
336,130,150745,1,0,0:0:0:0:
336,130,150810,6,0,L|445:107,1,86.8600013253784,6|0,0:2|2:2,0:2:0:0:
346,237,151071,1,8,0:3:0:0:
259,223,151202,2,0,L|150:200,1,86.8600013253784,4|0,0:2|2:2,0:2:0:0:
325,347,151463,1,8,0:3:0:0:
412,333,151594,2,0,L|521:310,1,86.8600013253784,10|0,0:2|0:2,0:0:0:0:
339,155,151854,2,0,P|330:202|354:245,1,86.8600013253784,8|8,0:2|0:3,0:0:0:0:
476,148,152115,2,0,P|485:101|461:58,1,86.8600013253784,6|4,0:3|0:3,0:0:0:0:
277,116,152376,6,0,P|256:177|313:305,1,173.720002650757,6|8,0:2|2:3,0:2:0:0:
364,43,152767,2,0,P|278:28|169:5,1,173.720002650757,2|4,0:2|2:3,0:2:0:0:
42,114,153158,2,0,P|91:104|162:92,1,86.8600013253784,14|0,0:2|0:0,0:2:0:0:
208,173,153419,1,0,2:2:0:0:
37,259,153550,2,0,P|86:269|157:281,1,86.8600013253784,8|6,0:2|0:3,0:0:0:0:
195,373,153810,1,4,0:3:0:0:
324,322,153941,6,2,P|374:309|517:282,1,173.720002650757,6|0,0:2|0:0,0:2:0:0:
310,234,154332,2,0,P|260:221|117:194,1,173.720002650757,8|0,2:3|2:2,0:0:0:0:
240,41,154723,2,0,P|251:91|263:151,1,86.8600013253784,14|0,0:2|2:2,0:2:0:0:
337,22,154984,1,2,0:2:0:0:
357,102,155115,2,0,P|368:152|380:212,1,86.8600013253784,8|2,0:2|0:2,0:0:0:0:
441,52,155376,1,4,2:3:0:0:
461,132,155507,6,0,P|472:182|484:242,1,86.8600013253784,6|8,0:2|0:2,0:0:0:0:
446,338,155767,2,8,L|397:352,3,43.4300006626892,8|0|0|0,2:2|0:2|0:2|0:2,0:2:0:0:
336,277,156028,2,8,L|294:265,3,43.4300006626892,8|0|0|0,0:2|0:2|2:2|0:2,0:2:0:0:
204,340,156289,2,8,L|190:398,3,43.4300006626892,10|0|0|0,0:2|0:2|0:2|0:2,0:2:0:0:
102,233,156550,2,8,L|116:291,3,43.4300006626892,12|0|0|0,0:2|0:2|0:2|0:2,0:2:0:0:
202,128,156810,1,12,0:2:0:0:
62,56,157071,5,14,0:2:0:0:
384,317,158376,5,8,0:3:0:0:
384,317,158636,6,0,P|423:305|474:298,2,56.5600006904297,6|0|0,1:2|0:2|1:2,0:2:0:0:
272,362,159028,2,0,P|216:347|126:325,1,113.120001380859,10|0,0:2|1:2,0:2:0:0:
58,212,159419,2,0,L|73:293,1,56.5600006904297,10|0,0:2|0:2,0:2:0:0:
198,124,159680,2,0,L|183:205,1,56.5600006904297,2|8,1:2|0:2,0:2:0:0:
68,47,159941,2,0,L|83:128,1,56.5600006904297,2|0,1:2|0:2,0:2:0:0:
218,37,160202,5,10,0:2:0:0:
291,19,160332,1,2,1:2:0:0:
353,72,160463,1,2,1:2:0:0:
366,152,160593,2,0,P|340:205|270:214,1,113.120001380859,10|0,0:2|1:2,0:2:0:0:
210,176,160984,2,0,P|177:168|142:157,1,56.5600006904297,10|8,0:2|0:2,0:0:0:0:
69,255,161245,1,10,0:2:0:0:
69,255,161376,2,0,P|102:247|137:236,1,56.5600006904297,8|2,0:2|1:2,0:0:0:0:
219,313,161636,1,0,3:2:0:0:
320,246,161767,6,0,P|333:299|352:377,1,113.120001380859,6|0,1:2|0:2,0:2:0:0:
446,177,162158,2,0,P|433:230|414:308,1,113.120001380859,10|0,0:2|1:2,0:2:0:0:
356,106,162550,2,0,P|324:96|288:88,1,56.5600006904297,10|0,0:2|0:2,0:2:0:0:
181,163,162810,2,0,P|213:153|249:145,1,56.5600006904297,2|0,1:2|1:2,0:2:0:0:
343,228,163071,2,0,P|311:218|275:210,1,56.5600006904297,2|0,1:2|0:2,0:2:0:0:
152,355,163332,6,0,P|144:302|135:242,1,113.120001380859,6|8,1:2|0:2,0:0:0:0:
55,190,163723,2,0,P|60:150|65:118,1,56.5600006904297,10|0,0:2|0:0,0:2:0:0:
144,84,163984,1,0,0:2:0:0:
80,28,164115,2,0,P|40:23|11:13,1,56.5600006904297,14|0,1:2|0:2,0:2:0:0:
199,74,164376,2,0,P|159:79|130:89,1,56.5600006904297,6|0,1:3|0:2,0:2:0:0:
317,20,164636,2,0,P|277:15|248:5,1,56.5600006904297,6|0,1:3|0:2,0:2:0:0:
355,96,164897,5,6,1:2:0:0:
424,136,165028,1,0,0:2:0:0:
495,101,165158,1,0,1:2:0:0:
502,18,165289,2,0,P|459:18|370:32,1,113.120001380859,10|0,0:2|1:2,0:2:0:0:
306,106,165680,2,0,P|261:100|227:93,1,56.5600006904297,10|0,0:2|0:2,0:2:0:0:
370,198,165941,2,0,P|397:193|425:189,1,56.5600006904297,2|8,1:2|0:2,0:2:0:0:
296,273,166202,2,0,P|251:267|217:260,1,56.5600006904297,2|0,1:2|0:2,0:2:0:0:
165,334,166463,5,10,0:2:0:0:
135,266,166593,1,2,1:2:0:0:
171,202,166723,1,2,1:2:0:0:
225,150,166854,2,0,P|239:109|200:37,1,113.120001380859,10|0,0:2|1:2,0:2:0:0:
159,110,167245,2,0,P|123:117|87:123,1,56.5600006904297,10|8,0:2|0:2,0:0:0:0:
0,178,167506,2,0,P|36:185|72:191,1,56.5600006904297,10|8,0:2|0:2,0:0:0:0:
153,246,167767,2,0,P|117:253|81:259,1,56.5600006904297,2|0,1:2|3:2,0:2:0:0:
234,180,168028,5,6,1:2:0:0:
299,222,168158,1,8,0:2:0:0:
230,257,168289,1,8,0:2:0:0:
304,146,168419,2,0,L|318:78,2,56.5600006904297,10|0|4,0:3|0:0|1:3,0:2:0:0:
350,281,168810,2,0,L|422:303,1,56.5600006904297,14|0,0:2|0:2,0:2:0:0:
212,186,169071,2,0,L|140:208,1,56.5600006904297,10|0,1:3|1:2,0:2:0:0:
245,334,169332,2,0,L|256:278,1,56.5600006904297,2|0,1:3|0:2,0:2:0:0:
200,97,169593,6,0,P|160:70|80:77,2,113.120001380859,6|8|10,1:2|0:2|0:2,0:0:0:0:
200,97,170376,2,0,P|246:82|273:67,1,61.6099974617463,14|0,0:2|0:0,0:0:0:0:
312,183,170636,2,0,P|354:188|387:185,1,61.6099974617463,2|0,0:2|0:0,0:0:0:0:
384,318,170897,2,0,P|412:338|443:349,1,61.6099974617463,2|0,0:2|0:0,0:0:0:0:
224,360,171158,5,8,0:2:0:0:
210,346,171550,5,8,0:2:0:0:
218,331,171941,5,8,1:2:0:0:
348,233,172202,1,8,1:2:0:0:
238,95,172463,1,8,1:2:0:0:
163,177,172658,6,0,L|174:224,1,43.4300006626892,0|6,1:2|1:2,0:0:0:0:
256,192,172789,12,0,178723,0:2:0:0:
