osu file format v14

[General]
AudioFilename: audio.mp3
AudioLeadIn: 0
PreviewTime: 101376
Countdown: 0
SampleSet: Soft
StackLeniency: 0.7
Mode: 0
LetterboxInBreaks: 0
WidescreenStoryboard: 0

[Editor]
Bookmarks: 550,6810,20897,52202,77245,102289,114810,127332,157071,158636,171158,172723,178723
DistanceSpacing: 1.2
BeatDivisor: 8
GridSize: 8
TimelineZoom: 3.500004

[Metadata]
Title:Anemone no Hana
TitleUnicode:アネモネの花
Artist:fhana
ArtistUnicode:fhana
Creator:Sotarks
Version:Melancholy
Source:
Tags:japanese female vocalist Junichi Sato yuxuki waga kevin mitsunaga towana lantis world atlast kalibe iljaaz reform kujinn akitoshi -laura- corinn kowari
BeatmapID:2349543
BeatmapSetID:1124422

[Difficulty]
HPDrainRate:5
CircleSize:4.2
OverallDifficulty:8.5
ApproachRate:9.2
SliderMultiplier:2.22
SliderTickRate:1

[Events]
//Background and Video events
0,0,"bg.jpg",0,0
//Break Periods
//Storyboard Layer 0 (Background)
//Storyboard Layer 1 (Fail)
//Storyboard Layer 2 (Pass)
//Storyboard Layer 3 (Foreground)
//Storyboard Layer 4 (Overlay)
//Storyboard Sound Samples

[TimingPoints]
550,521.739130434783,3,2,0,22,1,0
3680,-121.951219512195,3,2,0,32,0,0
6028,-121.951219512195,3,2,0,42,0,0
6810,-89.2857142857142,3,2,22,52,0,0
19332,-89.2857142857142,3,2,0,52,0,0
20636,-192.307692307692,3,2,22,52,0,0
20897,-98.0392156862745,3,2,22,52,0,0
31854,-89.2857142857143,3,2,22,52,0,0
45941,-454.545454545455,3,2,22,52,0,0
47506,-312.5,3,2,22,52,0,0
51419,-98.0392156862745,3,2,22,52,0,0
52202,-65.7894736842105,3,1,22,82,0,1
77245,-70.4225352112676,3,1,22,82,0,0
99158,-65.7894736842105,3,2,22,82,0,0
99550,-61.7283950617284,3,2,22,82,0,0
100723,-54.9450549450549,3,2,22,82,0,0
101115,-52.0833333333333,3,2,22,82,0,0
101506,-49.5049504950495,3,2,22,82,0,0
102289,-454.545454545455,3,2,22,52,0,0
108550,-238.095238095238,3,2,22,52,0,0
114810,-121.951219512195,3,2,22,62,0,0
121071,-108.695652173913,3,2,22,72,0,0
124202,-81.9672131147541,3,1,22,82,0,0
125767,-75.7575757575758,3,2,22,82,0,0
127332,-58.1395348837209,3,1,22,92,0,1
157071,-833.333333333333,3,2,22,82,0,0
157136,-833.333333333333,3,2,22,32,0,0
158376,-192.307692307692,3,2,22,42,0,0
158636,-89.2857142857142,3,2,22,52,0,0
169854,-81.9672131147541,3,1,22,42,0,0
171158,-121.951219512195,3,2,0,52,0,0
171941,-75.7575757575758,3,2,22,52,0,0
172202,-65.7894736842105,3,2,22,52,0,0
172463,-58.1395348837209,3,2,22,52,0,0
172723,-454.545454545455,3,2,22,52,0,0
172789,-454.545454545455,3,2,22,12,0,0

[Colours]
Combo1 : 255,81,81
Combo2 : 177,177,177
Combo3 : 108,126,174
Combo4 : 141,137,218
Combo5 : 57,80,187
Combo6 : 240,120,0
Combo7 : 255,222,145
Combo8 : 255,34,34

[HitObjects]
471,350,550,5,8,0:2:0:0:
471,350,941,1,8,0:2:0:0:
451,329,1332,5,8,0:2:0:0:
362,373,1593,1,8,0:2:0:0:
272,355,1854,1,8,0:2:0:0:
41,350,2115,101,8,0:2:0:0:
41,350,2506,1,8,0:2:0:0:
61,329,2897,5,8,0:2:0:0:
150,373,3158,1,8,0:2:0:0:
240,355,3419,1,8,0:2:0:0:
181,303,3550,101,0,3:2:0:0:
181,303,3615,1,0,3:2:0:0:
181,303,3680,2,0,P|187:222|199:183,1,91.020001388855,8|0,1:2|0:2,0:2:0:0:
110,292,4071,2,0,P|116:211|128:172,1,91.020001388855,8|0,0:2|0:2,0:2:0:0:
327,253,4463,6,0,P|325:218|314:172,1,45.5100006944275,8|0,0:2|0:2,0:2:0:0:
396,229,4723,2,0,P|394:194|383:148,1,45.5100006944275,8|0,0:2|0:2,0:2:0:0:
468,240,4984,2,0,P|466:205|455:159,1,45.5100006944275,8|0,0:2|0:2,0:2:0:0:
399,63,5245,102,0,P|363:104|291:111,1,91.020001388855,8|0,0:2|0:2,0:2:0:0:
249,144,5636,2,0,P|213:103|141:96,1,91.020001388855,8|0,0:2|0:2,0:2:0:0:
280,51,6028,5,8,0:2:0:0:
195,200,6158,1,8,0:2:0:0:
86,84,6289,101,8,0:2:0:0:
173,111,6419,1,8,0:3:0:0:
109,161,6550,1,4,0:3:0:0:
109,161,6680,1,4,0:3:0:0:
151,34,6810,22,0,P|182:21|245:22,2,62.1600007587891,6|0|0,1:2|0:2|1:2,0:2:0:0:
18,32,7202,2,0,P|57:97|70:172,1,124.320001517578,10|0,0:2|1:2,0:2:0:0:
64,163,7528,1,0,1:2:0:0:
64,163,7593,2,0,P|94:167|123:179,1,62.1600007587891,10|0,0:2|0:2,0:2:0:0:
232,94,7854,6,0,P|201:98|172:110,1,62.1600007587891,2|0,1:2|0:2,0:2:0:0:
261,161,8115,2,0,P|230:165|201:177,1,62.1600007587891,2|0,1:2|0:2,0:2:0:0:
346,55,8376,101,10,0:2:0:0:
401,15,8506,1,2,1:2:0:0:
445,70,8636,1,2,1:2:0:0:
386,107,8767,2,0,P|372:157|369:240,1,124.320001517578,10|0,0:2|1:2,0:2:0:0:
411,363,9158,5,10,0:2:0:0:
293,235,9289,1,8,0:2:0:0:
224,312,9419,1,10,0:2:0:0:
293,137,9550,1,8,0:2:0:0:
387,260,9680,2,0,P|394:223|408:183,1,62.1600007587891,2|0,1:2|3:2,0:2:0:0:
293,45,9941,102,0,B|215:46|262:94|152:90,1,124.320001517578,6|0,1:2|0:2,0:2:0:0:
3,109,10332,2,0,P|69:113|135:146,1,124.320001517578,10|0,0:2|1:2,0:2:0:0:
139,159,10658,1,0,1:2:0:0:
139,159,10723,6,0,P|127:207|123:242,1,62.1600007587891,10|0,0:2|0:2,0:2:0:0:
210,178,10984,2,0,P|198:226|194:261,1,62.1600007587891,2|0,1:2|1:2,0:2:0:0:
205,265,11180,1,0,1:2:0:0:
205,265,11245,2,0,P|279:243|302:246,1,62.1600007587891,2|0,1:2|0:2,0:2:0:0:
308,64,11506,101,6,1:2:0:0:
276,49,11592,1,8,0:2:0:0:
218,103,11679,1,8,0:2:0:0:
169,46,11766,1,8,0:2:0:0:
99,105,11897,6,0,B|180:109|145:68|248:78,1,124.320001517578,10|0,0:2|0:2,0:2:0:0:
75,174,12289,2,0,P|140:192|161:206,1,62.1600007587891,10|0,1:3|0:2,0:2:0:0:
228,313,12550,102,0,P|163:331|142:345,1,62.1600007587891,6|0,1:3|0:2,0:2:0:0:
214,246,12810,2,0,P|149:264|128:278,1,62.1600007587891,6|0,1:3|0:2,0:2:0:0:
427,346,13071,6,0,P|443:278|437:261,2,62.1600007587891,6|0|0,1:2|0:2|1:2,0:2:0:0:
333,173,13463,2,0,P|369:266|368:328,1,124.320001517578,10|0,0:2|1:2,0:2:0:0:
422,169,13854,1,10,0:2:0:0:
297,253,13984,2,0,P|232:234|212:233,1,62.1600007587891,0|2,0:2|1:2,0:0:0:0:
294,47,14245,2,0,P|258:140|259:202,1,124.320001517578,8|0,0:2|0:2,0:0:0:0:
176,38,14636,101,10,0:2:0:0:
109,29,14767,1,2,1:2:0:0:
55,72,14897,1,2,1:2:0:0:
53,140,15028,2,0,B|74:221|25:190|53:279,1,124.320001517578,10|0,0:2|1:2,0:2:0:0:
123,122,15419,5,10,0:2:0:0:
119,229,15550,2,0,P|126:161|120:132,1,62.1600007587891,8|10,0:2|0:2,0:0:0:0:
140,357,15810,2,0,P|133:326|132:295,1,62.1600007587891,8|2,0:2|1:2,0:0:0:0:
132,295,16071,1,0,3:2:0:0:
329,301,16202,102,0,P|244:305|183:338,1,124.320001517578,6|0,1:2|0:2,0:2:0:0:
320,231,16593,2,0,P|235:235|174:268,1,124.320001517578,10|0,0:2|1:2,0:2:0:0:
389,254,16984,6,0,P|403:185|397:167,1,62.1600007587891,14|0,0:2|0:2,0:2:0:0:
381,65,17245,2,0,P|383:95|396:123,1,62.1600007587891,2|0,1:2|1:2,0:2:0:0:
396,123,17441,1,0,1:2:0:0:
396,123,17506,2,0,P|354:112|318:116,1,62.1600007587891,2|0,1:2|0:2,0:2:0:0:
229,182,17767,101,2,1:2:0:0:
201,166,17854,1,8,0:2:0:0:
148,206,17941,1,8,0:2:0:0:
94,137,18028,1,8,0:2:0:0:
21,168,18158,6,0,P|89:167|154:184,1,124.320001517578,10|0,0:2|0:2,0:2:0:0:
290,68,18550,2,0,P|214:91|197:102,1,62.1600007587891,10|0,1:3|0:2,0:2:0:0:
354,272,18810,2,0,P|324:261|293:257,1,62.1600007587891,6|0,1:3|0:2,0:2:0:0:
372,203,19071,2,0,P|342:192|311:188,1,62.1600007587891,6|0,1:3|0:2,0:2:0:0:
183,374,19332,69,8,0:2:0:0:
183,374,19723,1,8,0:2:0:0:
174,342,20115,5,8,0:2:0:0:
76,377,20376,1,8,0:2:0:0:
337,278,20636,102,0,L|333:317,1,28.8599998238525,10|0,0:2|0:2,0:2:0:0:
273,126,20897,6,0,L|300:315,1,169.83000103656,6|8,1:2|0:2,0:2:0:0:
297,294,21550,5,0,1:2:0:0:
215,216,21680,2,0,L|154:245,1,56.61000034552,8|0,0:2|0:2,0:2:0:0:
120,357,21941,2,0,L|68:332,1,56.61000034552,0|8,1:2|0:2,0:2:0:0:
30,249,22202,1,0,1:2:0:0:
30,249,22332,1,0,1:2:0:0:
232,359,22463,6,0,P|301:313|384:338,1,169.83000103656,2|8,1:2|0:2,0:2:0:0:
379,334,23115,69,0,1:2:0:0:
452,260,23245,2,0,P|430:194|422:185,1,56.61000034552,8|0,0:2|0:2,0:2:0:0:
323,172,23506,2,0,P|326:143|336:117,1,56.61000034552,0|8,1:2|0:2,0:2:0:0:
419,45,23767,1,0,1:2:0:0:
419,45,23897,1,0,1:2:0:0:
249,115,24028,6,0,B|138:134|196:61|82:80,1,169.83000103656,2|8,1:2|0:2,0:2:0:0:
91,78,24680,101,0,1:2:0:0:
31,131,24810,2,0,P|58:211|60:274,2,113.22000069104,8|0|8,0:2|1:2|0:2,0:2:0:0:
60,239,25463,1,0,1:2:0:0:
7,319,25593,6,0,P|89:335|126:358,1,113.22000069104,2|0,1:2|1:2,0:2:0:0:
188,305,25984,2,0,P|270:289|307:266,1,113.22000069104,8|0,0:2|1:2,0:2:0:0:
365,338,26376,2,0,P|380:269|392:244,2,56.61000034552,10|0|0,0:2|1:2|1:2,0:2:0:0:
314,207,26767,5,8,0:2:0:0:
363,134,26897,1,0,1:2:0:0:
329,71,27028,1,0,1:2:0:0:
394,235,27158,6,0,P|327:289|282:278,1,113.22000069104,2|0,1:2|0:2,0:2:0:0:
214,313,27550,2,0,P|147:259|102:270,1,113.22000069104,0|0,3:2|1:2,0:2:0:0:
40,346,27941,102,0,P|18:283|25:250,1,56.61000034552,8|0,0:2|0:2,0:2:0:0:
87,184,28202,2,0,P|109:121|102:88,1,56.61000034552,0|8,1:2|0:2,0:2:0:0:
56,41,28463,1,0,1:2:0:0:
56,41,28593,1,0,1:2:0:0:
201,158,28723,102,0,P|290:118|383:120,1,169.83000103656,2|0,1:2|1:2,0:2:0:0:
361,115,29376,5,0,1:2:0:0:
426,252,29506,1,8,0:2:0:0:
334,212,29636,1,0,1:2:0:0:
454,157,29767,2,0,P|464:234|476:336,1,169.83000103656,0|0,3:2|1:2,0:2:0:0:
263,273,30289,6,0,P|338:289|371:361,1,113.22000069104,2|0,3:2|0:2,0:2:0:0:
95,277,30680,2,0,P|150:272|191:235,1,113.22000069104,0|0,1:2|1:2,0:2:0:0:
25,330,31071,102,0,P|5:265|31:198,1,113.22000069104,8|0,0:2|1:2,0:2:0:0:
83,134,31463,1,8,0:2:0:0:
39,61,31593,1,0,1:2:0:0:
73,3,31723,1,0,1:2:0:0:
7,187,31854,5,10,0:2:0:0:
203,44,32115,101,4,1:3:0:0:
158,99,32245,2,0,L|175:178,1,62.1600007587891,8|0,0:2|0:2,0:2:0:0:
383,87,32506,5,4,1:3:0:0:
428,142,32636,2,0,L|411:221,1,62.1600007587891,10|8,1:3|1:3,0:2:0:0:
265,188,32897,101,6,1:3:0:0:
258,169,33028,1,4,0:3:0:0:
315,125,33158,5,6,1:3:0:0:
323,145,33289,1,4,0:3:0:0:
183,119,33419,86,0,P|106:101|60:133,1,124.320001517578,6|0,1:2|0:2,0:2:0:0:
37,248,33810,2,0,P|19:181|5:163,1,62.1600007587891,8|0,0:2|0:2,0:2:0:0:
105,207,34071,1,0,1:2:0:0:
13,329,34202,102,0,P|82:349|93:358,1,62.1600007587891,8|0,0:2|0:2,0:2:0:0:
214,283,34463,2,0,P|183:285|154:297,1,62.1600007587891,0|0,3:2|0:2,0:2:0:0:
290,349,34723,1,0,1:2:0:0:
290,349,34854,1,0,1:2:0:0:
370,273,34984,6,0,P|353:160|337:107,1,124.320001517578,2|0,1:2|0:2,0:2:0:0:
232,248,35376,2,0,P|249:135|265:82,1,124.320001517578,0|0,3:2|1:2,0:2:0:0:
140,189,35767,6,0,P|125:113|117:95,1,62.1600007587891,8|0,0:2|0:2,0:2:0:0:
11,223,36028,2,0,P|13:192|20:161,1,62.1600007587891,0|0,3:2|0:2,0:2:0:0:
95,289,36289,1,0,3:2:0:0:
95,289,36419,1,0,3:2:0:0:
63,44,36550,6,0,P|140:98|249:78,1,186.480002276367,2|8,1:2|0:2,0:2:0:0:
228,89,37202,85,0,1:2:0:0:
460,84,37332,2,0,P|368:76|294:129,1,186.480002276367,8|0,0:2|0:2,0:2:0:0:
269,210,37854,1,0,1:2:0:0:
269,210,37984,1,0,3:2:0:0:
167,151,38115,102,0,P|154:223|148:246,1,62.1600007587891,8|0,3:3|0:2,0:2:0:0:
294,129,38376,2,0,P|307:201|313:224,1,62.1600007587891,8|0,3:3|0:2,0:2:0:0:
208,298,38636,1,4,1:3:0:0:
208,298,38767,1,4,1:3:0:0:
377,348,38897,6,0,P|390:276|396:253,1,62.1600007587891,8|0,0:2|0:2,0:2:0:0:
250,370,39158,2,0,P|237:298|231:275,1,62.1600007587891,8|0,0:2|0:2,0:2:0:0:
346,208,39419,1,6,3:3:0:0:
205,171,39550,1,6,3:3:0:0:
299,70,39680,6,0,B|185:64|253:152|100:139,1,186.480002276367,2|0,1:2|3:2,0:2:0:0:
135,140,40332,5,0,1:2:0:0:
9,83,40463,2,0,P|28:158|27:181,1,62.1600007587891,8|0,0:2|0:2,0:2:0:0:
176,0,40723,2,0,P|157:75|158:98,1,62.1600007587891,0|8,1:2|0:2,0:2:0:0:
231,206,40984,1,0,1:2:0:0:
231,206,41115,1,0,1:2:0:0:
29,270,41245,86,0,P|129:289|174:344,1,124.320001517578,0|0,1:2|0:2,0:2:0:0:
235,356,41636,2,0,P|335:337|380:282,1,124.320001517578,8|0,0:2|1:2,0:2:0:0:
369,142,42028,5,8,0:2:0:0:
283,183,42158,1,8,0:2:0:0:
346,290,42289,1,0,1:2:0:0:
432,249,42419,1,8,0:2:0:0:
354,213,42550,2,0,P|327:220|297:237,1,62.1600007587891,2|0,3:3|0:2,0:2:0:0:
82,224,42810,86,0,P|161:263|158:362,1,186.480002276367,0|0,1:2|3:2,0:2:0:0:
164,352,43463,5,0,1:2:0:0:
235,260,43593,2,0,P|220:191|210:171,1,62.1600007587891,8|0,0:2|0:2,0:2:0:0:
117,144,43854,1,0,1:2:0:0:
296,187,43984,2,0,P|311:118|321:98,1,62.1600007587891,8|0,0:2|0:2,0:2:0:0:
414,71,44245,1,0,1:2:0:0:
225,0,44376,5,10,0:2:0:0:
408,275,44636,5,8,0:2:0:0:
462,139,44767,1,8,0:2:0:0:
181,337,45028,85,0,1:2:0:0:
127,201,45159,1,8,0:2:0:0:
245,237,45289,5,8,0:2:0:0:
264,155,45419,1,8,1:3:0:0:
323,209,45550,1,0,1:0:0:0:
276,201,45680,5,4,1:3:0:0:
276,201,45810,1,4,1:3:0:0:
430,365,45941,70,0,L|457:358,2,24.4200007452393,2|0|0,1:2|0:2|0:2,0:2:0:0:
65,330,46723,2,0,L|38:323,2,24.4200007452393,2|0|0,1:2|0:2|0:2,0:2:0:0:
404,298,47506,2,0,L|450:281,2,35.52,2|0|0,1:2|0:2|0:2,0:2:0:0:
94,263,48289,2,0,L|48:246,2,35.52,2|0|0,1:2|0:2|0:2,0:2:0:0:
403,221,49071,5,10,1:2:0:0:
209,277,49332,1,4,0:3:0:0:
403,221,49593,1,4,0:3:0:0:
108,177,49854,1,8,1:3:0:0:
302,233,50115,1,4,2:3:0:0:
108,177,50376,1,4,2:3:0:0:
331,66,50636,5,14,1:2:0:0:
273,348,50897,5,4,1:3:0:0:
221,199,51028,1,8,0:2:0:0:
447,303,51289,85,8,1:3:0:0:
499,155,51419,2,0,L|515:238,1,56.61000034552,10|0,0:2|1:2,0:2:0:0:
323,221,51680,5,10,0:2:0:0:
375,105,51810,1,8,1:3:0:0:
422,172,51941,5,6,0:3:0:0:
252,104,52071,1,4,0:3:0:0:
202,154,52202,6,0,B|95:153|165:236|21:224,1,168.71999794043,6|4,0:2|2:3,0:2:0:0:
334,36,52593,2,0,P|456:69|451:155,1,168.71999794043,10|8,0:2|2:3,0:2:0:0:
347,245,52984,6,0,P|331:345|342:385,1,84.3599989702149,10|0,0:2|2:2,0:2:0:0:
202,154,53245,1,2,0:2:0:0:
375,105,53376,1,8,0:2:0:0:
257,237,53506,1,6,0:3:0:0:
275,96,53636,1,4,0:3:0:0:
398,309,53767,102,0,P|485:265|465:176,1,168.71999794043,6|8,0:2|2:3,0:2:0:0:
143,253,54158,2,0,P|279:296|326:366,1,168.71999794043,10|4,0:2|2:3,0:2:0:0:
46,54,54550,6,0,P|19:140|17:160,1,84.3599989702149,10|0,0:2|2:2,0:2:0:0:
211,131,54810,2,0,P|238:217|240:237,1,84.3599989702149,10|8,0:3|2:2,0:2:0:0:
431,62,55071,2,0,P|404:148|402:168,1,84.3599989702149,2|4,0:2|0:3,0:2:0:0:
414,174,55267,101,4,0:3:0:0:
414,174,55332,2,0,B|304:163|374:252|233:239,1,168.71999794043,6|0,0:2|2:2,0:2:0:0:
406,247,55723,1,8,0:2:0:0:
358,336,55854,1,2,0:2:0:0:
267,165,55984,1,8,0:3:0:0:
315,76,56115,6,0,P|329:176|334:195,1,84.3599989702149,10|0,0:2|2:2,0:2:0:0:
176,284,56376,1,8,0:3:0:0:
233,140,56506,2,0,P|229:182|222:223,1,84.3599989702149,8|2,0:2|2:2,0:2:0:0:
130,89,56767,1,4,0:3:0:0:
283,301,56897,102,0,P|373:251|344:158,1,168.71999794043,6|8,0:2|2:2,0:2:0:0:
236,44,57289,1,10,0:2:0:0:
152,176,57419,1,8,0:3:0:0:
293,229,57550,1,4,0:3:0:0:
377,96,57680,1,14,0:2:0:0:
26,288,57941,6,0,P|40:376|40:386,1,84.3599989702149,14|8,0:2|2:3,0:2:0:0:
94,265,58202,1,6,0:3:0:0:
94,265,58332,1,4,0:3:0:0:
279,335,58463,102,0,B|154:326|252:404|77:379,1,168.71999794043,6|8,0:2|2:3,0:2:0:0:
434,243,58854,2,0,P|323:244|287:167,1,168.71999794043,10|4,0:2|2:3,0:2:0:0:
493,333,59245,6,0,P|405:363|397:372,1,84.3599989702149,10|0,0:2|2:2,0:2:0:0:
383,175,59506,1,6,0:3:0:0:
433,52,59636,2,0,P|474:54|512:74,1,84.3599989702149,8|2,0:2|2:2,0:2:0:0:
434,243,59897,1,8,0:3:0:0:
248,73,60028,102,0,P|143:82|60:117,1,168.71999794043,6|0,0:2|2:2,0:2:0:0:
187,306,60419,2,0,P|78:250|14:241,1,168.71999794043,10|0,0:2|0:2,0:2:0:0:
0,252,60745,5,0,0:2:0:0:
0,252,60810,2,0,P|20:165|29:148,1,84.3599989702149,10|0,0:2|2:2,0:2:0:0:
242,188,61071,2,0,P|222:101|213:84,1,84.3599989702149,6|0,0:3|2:2,0:2:0:0:
417,284,61332,2,0,P|437:197|446:180,1,84.3599989702149,2|0,0:2|0:2,0:2:0:0:
453,178,61528,101,0,0:2:0:0:
453,178,61593,2,0,P|361:201|324:151,1,168.71999794043,14|8,0:2|2:3,0:2:0:0:
95,78,61984,2,0,P|187:55|224:105,1,168.71999794043,12|4,0:2|2:3,0:2:0:0:
175,319,62376,2,0,P|149:235|157:222,1,84.3599989702149,10|0,0:2|2:2,0:2:0:0:
352,102,62636,5,8,0:2:0:0:
262,259,62767,2,0,L|222:249,1,42.1799994851074,0|0,0:2|0:2,0:2:0:0:
263,175,62897,1,10,0:2:0:0:
412,293,63028,101,0,0:2:0:0:
412,293,63093,1,0,0:2:0:0:
412,293,63158,2,0,L|452:282,3,42.1799994851074,14|4|4|4,0:2|0:3|0:3|0:3,0:2:0:0:
406,209,63419,5,8,0:2:0:0:
260,367,63550,2,0,L|65:316,1,168.71999794043,10|8,0:2|0:2,0:2:0:0:
248,87,63941,101,14,0:2:0:0:
303,241,64071,1,8,0:3:0:0:
159,304,64202,1,14,0:2:0:0:
104,150,64332,1,8,0:3:0:0:
209,199,64463,1,6,0:3:0:0:
209,199,64593,1,4,0:3:0:0:
32,193,64723,6,0,P|37:107|189:74,1,253.079996910645,6|10,0:2|2:2,0:2:0:0:
178,67,65376,101,8,0:3:0:0:
330,112,65506,2,0,P|248:136|230:147,1,84.3599989702149,10|0,0:2|2:2,0:2:0:0:
446,26,65767,2,0,P|364:2|346:-9,1,84.3599989702149,2|8,0:2|2:2,0:2:0:0:
468,177,66028,1,6,0:3:0:0:
468,177,66158,1,4,0:3:0:0:
162,159,66289,6,0,B|249:149|215:220|329:210,1,168.71999794043,6|8,0:2|2:3,0:2:0:0:
85,359,66680,2,0,P|153:319|263:312,1,168.71999794043,14|4,0:2|2:3,0:2:0:0:
28,162,67071,102,0,P|50:212|62:264,1,84.3599989702149,10|0,0:2|2:2,0:2:0:0:
199,86,67332,1,2,0:2:0:0:
83,44,67463,1,8,0:2:0:0:
174,188,67593,1,6,0:3:0:0:
274,73,67723,1,4,0:3:0:0:
118,117,67854,6,0,P|74:185|110:284,1,168.71999794043,6|8,0:2|2:3,0:2:0:0:
231,343,68245,2,0,P|219:264|197:239,1,84.3599989702149,8|2,0:2|2:2,0:2:0:0:
286,146,68506,1,4,0:3:0:0:
137,293,68636,102,0,P|135:251|150:212,1,84.3599989702149,10|0,0:2|2:2,0:2:0:0:
99,80,68897,1,0,0:2:0:0:
236,210,69028,1,8,0:2:0:0:
201,107,69158,1,6,0:3:0:0:
144,174,69289,1,4,0:3:0:0:
286,146,69419,6,0,B|399:130|326:205|470:191,1,168.71999794043,6|8,0:2|2:3,0:2:0:0:
256,22,69810,2,0,P|174:19|125:84,1,168.71999794043,8|4,0:2|2:3,0:2:0:0:
336,73,70202,102,0,P|389:50|422:51,1,84.3599989702149,10|0,0:2|2:2,0:2:0:0:
313,216,70463,1,8,0:2:0:0:
201,107,70593,1,8,0:2:0:0:
276,130,70723,1,4,0:3:0:0:
206,262,70854,1,4,0:3:0:0:
151,199,70984,6,0,P|243:228|360:359,1,253.079996910645,6|4,0:2|2:3,0:2:0:0:
350,337,71636,101,8,0:3:0:0:
502,156,71767,2,0,P|439:191|429:302,1,168.71999794043,10|0,0:2|2:2,0:2:0:0:
361,172,72158,1,8,0:2:0:0:
258,167,72289,1,6,0:3:0:0:
193,234,72419,1,4,0:3:0:0:
281,182,72550,6,0,P|285:115|227:19,1,168.71999794043,6|8,0:2|2:3,0:2:0:0:
67,148,72941,2,0,P|81:91|116:47,1,84.3599989702149,8|2,0:2|2:2,0:2:0:0:
29,24,73202,1,4,0:3:0:0:
3,194,73332,102,0,P|79:175|108:179,1,84.3599989702149,14|0,0:2|2:2,0:2:0:0:
2,270,73593,2,0,P|78:251|107:255,1,84.3599989702149,2|8,0:2|2:2,0:2:0:0:
245,101,73854,2,0,P|169:82|140:86,1,84.3599989702149,2|0,0:2|2:2,0:2:0:0:
308,318,74115,6,0,P|382:311|387:146,1,253.079996910645,6|8,0:2|2:2,0:2:0:0:
404,160,74767,101,8,0:3:0:0:
179,213,74897,2,0,P|264:216|354:258,1,168.71999794043,14|0,0:2|2:2,0:2:0:0:
282,384,75289,5,8,0:2:0:0:
118,149,75419,1,4,0:3:0:0:
97,239,75550,1,4,0:3:0:0:
143,135,75680,102,0,P|128:72|114:35,1,84.3599989702149,6|0,0:2|2:2,0:2:0:0:
121,53,75941,1,8,0:3:0:0:
218,236,76071,2,0,P|233:173|247:136,1,84.3599989702149,4|0,0:2|2:2,0:2:0:0:
240,154,76332,1,8,0:3:0:0:
106,308,76463,5,10,0:2:0:0:
80,214,76593,1,0,0:2:0:0:
229,335,76723,1,8,0:2:0:0:
255,241,76853,1,8,0:3:0:0:
367,300,76984,1,6,0:3:0:0:
367,300,77115,1,4,0:3:0:0:
451,114,77245,6,0,P|433:64|409:29,1,78.8099960316012,6|8,0:2|2:2,0:2:0:0:
321,190,77506,1,6,0:3:0:0:
185,71,77636,2,0,P|196:33|216:0,1,78.8099960316012,8|0,0:2|2:2,0:2:0:0:
343,116,77897,1,14,0:3:0:0:
151,273,78028,2,0,P|93:269|62:169,1,157.619992063202,14|0,0:2|2:2,0:2:0:0:
229,179,78419,1,8,0:2:0:0:
267,334,78550,1,8,0:2:0:0:
143,199,78680,1,8,0:2:0:0:
323,62,78810,2,0,P|306:155|302:238,1,157.619992063202,6|0,0:2|2:2,0:2:0:0:
238,91,79202,1,8,0:2:0:0:
394,166,79332,1,8,0:2:0:0:
312,319,79463,1,8,0:2:0:0:
156,244,79593,2,0,P|166:183|189:144,1,78.8099960316012,10|0,0:2|2:2,0:2:0:0:
353,225,79854,2,0,P|343:164|320:125,1,78.8099960316012,12|0,0:2|2:2,0:2:0:0:
238,52,80115,1,4,0:3:0:0:
238,52,80245,1,8,0:2:0:0:
288,270,80376,6,0,P|350:313|421:286,1,157.619992063202,6|0,0:2|2:2,0:2:0:0:
323,90,80767,2,0,P|309:126|306:165,1,78.8099960316012,8|0,0:2|2:2,0:2:0:0:
422,93,81028,1,8,0:3:0:0:
259,17,81158,1,8,0:2:0:0:
472,211,81419,1,4,0:2:0:0:
135,323,81680,1,8,0:2:0:0:
258,220,81810,1,0,0:2:0:0:
120,293,81941,101,6,0:2:0:0:
120,293,82006,1,8,0:2:0:0:
120,293,82071,2,0,P|131:228|143:201,1,78.8099960316012,8|4,0:2|2:3,0:2:0:0:
299,310,82332,2,0,P|288:245|276:218,1,78.8099960316012,8|4,0:2|2:3,0:2:0:0:
357,114,82593,1,8,0:2:0:0:
202,240,82723,6,0,P|213:175|225:148,1,78.8099960316012,14|8,0:3|2:2,0:2:0:0:
165,24,82984,1,4,0:3:0:0:
319,98,83115,1,8,0:3:0:0:
204,88,83245,1,4,0:3:0:0:
260,49,83376,1,4,0:3:0:0:
125,182,83506,101,6,0:2:0:0:
208,166,83636,2,0,P|252:181|289:204,1,78.8099960316012,8|0,0:2|2:2,0:2:0:0:
88,302,83897,2,0,P|122:282|159:270,1,78.8099960316012,8|0,0:2|2:2,0:2:0:0:
343,268,84158,1,8,0:3:0:0:
220,346,84289,1,8,0:2:0:0:
416,255,84419,1,8,0:2:0:0:
277,98,84550,1,4,0:2:0:0:
363,369,84810,1,8,0:2:0:0:
470,143,84941,1,4,0:2:0:0:
269,231,85071,6,0,P|169:196|100:194,1,157.619992063202,6|8,0:2|2:2,0:2:0:0:
396,128,85463,2,0,P|338:146|303:164,1,78.8099960316012,12|0,0:3|2:2,0:2:0:0:
431,38,85723,1,8,0:2:0:0:
300,244,85854,102,0,P|269:300|260:327,1,78.8099960316012,6|0,0:2|2:2,0:2:0:0:
257,83,86115,1,8,0:2:0:0:
221,46,86201,1,4,0:3:0:0:
169,39,86288,1,4,0:3:0:0:
125,66,86376,2,0,P|138:152|155:183,1,78.8099960316012,0|0,0:2|2:2,0:2:0:0:
56,353,86636,6,0,P|84:264|81:231,1,78.8099960316012,14|0,0:2|2:2,0:2:0:0:
62,182,86897,1,8,0:3:0:0:
234,299,87028,2,0,P|206:210|209:177,1,78.8099960316012,12|0,0:2|2:2,0:2:0:0:
257,83,87289,1,4,0:3:0:0:
395,218,87419,1,12,0:2:0:0:
462,40,87550,1,8,0:2:0:0:
311,174,87680,1,8,0:2:0:0:
446,316,87810,2,0,P|464:281|473:242,1,78.8099960316012,12|0,0:2|0:2,0:2:0:0:
361,51,88071,1,8,0:2:0:0:
361,51,88136,1,8,0:2:0:0:
361,51,88202,101,14,0:3:0:0:
282,183,88332,1,0,0:2:0:0:
402,123,88463,1,8,0:3:0:0:
237,111,88593,1,10,0:2:0:0:
385,214,88723,1,4,0:3:0:0:
187,272,88854,1,8,0:3:0:0:
297,160,88984,2,0,P|308:218|320:263,1,78.8099960316012,6|8,0:2|2:2,0:2:0:0:
121,50,89245,2,0,P|110:108|98:153,1,78.8099960316012,10|0,0:3|2:2,0:2:0:0:
113,155,89441,1,0,0:2:0:0:
113,155,89506,2,0,L|49:138,1,39.4049980158006,10|0,0:3|0:2,0:2:0:0:
211,88,89636,2,0,L|275:71,1,39.4049980158006,4|0,0:3|0:2,0:2:0:0:
166,237,89767,5,6,0:2:0:0:
262,165,89897,2,0,P|274:224|286:269,1,78.8099960316012,8|0,0:2|2:2,0:2:0:0:
170,345,90158,2,0,P|179:306|186:267,1,78.8099960316012,8|0,0:2|2:2,0:2:0:0:
302,362,90419,1,8,0:3:0:0:
380,146,90550,2,0,P|331:226|311:319,1,157.619992063202,12|0,0:2|2:2,0:2:0:0:
236,128,90941,1,8,0:2:0:0:
406,228,91071,1,4,0:3:0:0:
325,91,91202,1,4,0:3:0:0:
272,281,91332,102,0,P|223:265|166:261,1,78.8099960316012,14|0,0:2|2:2,0:2:0:0:
288,196,91593,1,8,0:3:0:0:
356,351,91723,2,0,P|307:367|250:371,1,78.8099960316012,8|0,0:2|2:2,0:2:0:0:
374,257,91984,1,4,0:3:0:0:
193,383,92115,2,0,P|181:297|166:249,1,105.079994708802,8|8,0:2|0:2,0:2:0:0:
149,198,92376,1,0,0:2:0:0:
172,174,92463,1,8,0:2:0:0:
137,122,92550,1,8,0:2:0:0:
186,77,92636,1,8,0:2:0:0:
156,16,92723,1,8,0:2:0:0:
156,16,92810,6,0,P|153:90|163:143,1,105.079994708802,6|0,0:2|0:2,0:2:0:0:
208,256,93071,2,0,P|263:267|297:247,1,78.8099960316012,8|0,0:2|0:2,0:2:0:0:
391,271,93332,2,0,P|319:281|259:319,1,131.349993386002,8|0,0:2|2:2,0:2:0:0:
389,161,93680,2,0,P|407:243|415:258,1,78.8099960316012,12|0,0:2|2:2,0:2:0:0:
409,79,93941,1,0,0:2:0:0:
300,196,94071,2,0,P|311:158|315:119,1,78.8099960316012,8|0,0:2|2:2,0:2:0:0:
280,21,94332,1,4,0:3:0:0:
191,204,94463,102,0,P|156:222|117:221,1,78.8099960316012,14|0,0:2|0:2,0:2:0:0:
94,207,94658,1,8,0:2:0:0:
94,207,94723,1,8,0:2:0:0:
10,167,94854,2,0,L|182:183,1,157.619992063202,8|8,0:2|2:2,0:2:0:0:
309,114,95245,2,0,L|204:138,1,78.8099960316012,4|8,0:2|2:2,0:2:0:0:
373,268,95506,2,0,L|296:250,1,78.8099960316012,8|0,0:3|2:2,0:2:0:0:
433,164,95767,1,4,0:3:0:0:
433,164,95897,1,12,0:3:0:0:
371,344,96028,5,6,0:2:0:0:
254,247,96158,2,0,P|272:309|279:354,1,78.8099960316012,8|0,0:2|2:2,0:2:0:0:
367,122,96419,2,0,P|349:184|342:229,1,78.8099960316012,8|0,0:2|2:2,0:2:0:0:
289,45,96680,1,4,0:3:0:0:
289,45,96745,1,4,0:3:0:0:
289,45,96810,2,0,B|191:40|245:104|125:95,1,157.619992063202,12|0,0:2|2:2,0:2:0:0:
43,45,97202,1,8,0:2:0:0:
120,125,97332,2,0,P|134:196|131:238,1,78.8099960316012,4|0,0:2|2:2,0:2:0:0:
54,303,97593,1,8,0:2:0:0:
118,341,97680,1,8,0:2:0:0:
178,296,97767,1,0,0:2:0:0:
196,313,97854,1,8,0:3:0:0:
265,295,97941,1,12,0:3:0:0:
265,295,98028,2,0,L|394:323,1,105.079994708802,8|8,0:3|0:2,0:2:0:0:
432,283,98289,2,0,L|357:299,1,52.5399973544008,8|0,0:3|0:2,0:2:0:0:
420,193,98463,1,8,0:2:0:0:
399,180,98550,1,4,0:3:0:0:
399,211,98636,2,0,L|419:11,1,157.619992063202,12|0,0:2|0:2,0:2:0:0:
414,54,99028,1,4,0:3:0:0:
299,148,99158,102,0,B|190:162|253:75|91:114,1,168.71999794043,6|0,0:2|0:2,0:2:0:0:
106,282,99550,2,0,P|192:354|270:294,1,179.820004390137,12|0,0:2|0:2,0:2:0:0:
273,67,99941,5,14,0:2:0:0:
180,262,100071,1,8,0:2:0:0:
150,47,100202,1,8,0:2:0:0:
304,207,100332,1,10,0:2:0:0:
98,157,100463,1,8,0:2:0:0:
218,139,100593,1,4,0:3:0:0:
72,315,100723,102,0,P|203:294|333:290,1,202.020006781677,14|0,0:2|0:2,0:2:0:0:
76,70,101115,2,0,P|205:100|310:158,1,213.120005203125,14|0,0:2|0:2,0:2:0:0:
454,316,101506,6,0,P|485:243|425:271,1,168.164996664208,10|0,0:2|0:2,0:2:0:0:
384,303,101767,102,0,P|377:229|361:121,1,168.164996664208,8|0,0:3|0:2,0:2:0:0:
308,99,102028,6,0,P|314:29|370:70,1,168.164996664208,4|0,0:3|0:2,0:2:0:0:
299,172,102289,6,0,L|272:178,1,24.4200007452393,6|0,0:2|0:2,0:2:0:0:
210,192,102680,2,0,L|233:186,1,24.4200007452393,2|0,0:2|0:2,0:2:0:0:
142,145,103071,6,0,L|144:132,1,12.2100003726196,2|0,0:2|0:2,0:2:0:0:
75,139,103332,2,0,L|77:126,1,12.2100003726196,2|0,0:2|0:2,0:2:0:0:
3,132,103593,2,0,L|5:119,1,12.2100003726196,2|0,0:2|0:2,0:2:0:0:
31,208,103854,102,0,L|28:235,1,24.4200007452393,2|0,0:2|0:2,0:2:0:0:
24,293,104245,2,0,L|26:268,1,24.4200007452393,2|0,0:2|0:2,0:2:0:0:
100,253,104636,6,0,L|98:240,1,12.2100003726196,2|0,0:2|0:2,0:2:0:0:
167,247,104897,2,0,L|165:234,1,12.2100003726196,2|0,0:2|0:2,0:2:0:0:
239,240,105158,2,0,L|237:227,1,12.2100003726196,2|0,0:2|0:2,0:2:0:0:
317,289,105419,102,0,L|357:297,1,36.6300011178589,2|0,0:2|0:2,0:2:0:0:
406,301,105941,2,0,L|391:308,1,12.2100003726196,2|0,0:2|0:2,0:2:0:0:
351,224,106202,6,0,L|391:232,1,36.6300011178589,2|0,0:2|0:2,0:2:0:0:
440,236,106724,2,0,L|425:243,1,12.2100003726196,2|0,0:2|0:2,0:2:0:0:
398,164,106984,102,0,L|390:125,1,36.6300011178589,2|0,0:2|0:2,0:2:0:0:
386,25,107767,6,0,L|373:21,1,12.2100003726196,2|0,0:2|0:2,0:2:0:0:
351,85,108028,2,0,L|339:81,1,12.2100003726196,2|0,0:2|0:2,0:2:0:0:
323,146,108289,2,0,L|311:142,1,12.2100003726196,2|0,0:2|0:2,0:2:0:0:
230,72,108550,101,2,0:2:0:0:
338,270,108810,5,0,3:2:0:0:
467,81,109071,101,0,3:2:0:0:
442,102,109332,5,2,0:2:0:0:
446,117,109463,1,0,3:2:0:0:
477,179,109593,101,0,3:2:0:0:
473,194,109724,1,0,3:2:0:0:
450,257,109854,5,2,3:2:0:0:
466,277,110115,102,0,P|441:283|419:290,1,46.6199985772706,2|0,0:2|3:2,0:2:0:0:
350,319,110506,2,0,P|327:312|305:306,1,46.6199985772706,2|0,0:2|3:2,0:2:0:0:
231,324,110897,1,2,0:2:0:0:
203,331,111158,5,2,3:2:0:0:
207,316,111289,1,0,3:2:0:0:
238,254,111419,101,2,3:2:0:0:
234,239,111550,1,0,3:2:0:0:
207,171,111680,6,0,P|240:155|279:155,1,69.9299978659058,2|0,3:2|3:2,0:2:0:0:
297,167,112332,101,0,3:2:0:0:
353,117,112463,2,0,P|346:98|344:89,1,23.3099992886353,2|0,3:2|0:2,0:2:0:0:
295,37,112723,5,4,3:2:0:0:
354,6,112854,1,0,3:2:0:0:
416,32,112984,2,0,P|412:43|408:53,1,23.3099992886353,6|0,3:2|0:2,0:2:0:0:
225,34,113245,102,0,P|202:22|156:19,1,69.9299978659058,2|0,0:2|0:2,0:2:0:0:
134,39,114028,5,2,0:2:0:0:
113,178,114289,101,2,0:2:0:0:
72,114,114550,5,2,0:2:0:0:
176,271,114810,102,0,P|165:310|155:368,1,91.020001388855,6|0,1:2|0:2,0:2:0:0:
250,224,115202,2,0,P|261:263|271:321,1,91.020001388855,2|0,1:2|0:2,0:2:0:0:
365,293,115593,6,0,P|358:325|355:348,1,45.5100006944275,2|0,1:2|0:2,0:2:0:0:
436,293,115854,2,0,P|429:325|426:348,1,45.5100006944275,2|0,1:2|0:2,0:2:0:0:
318,173,116115,2,0,P|325:205|328:228,1,45.5100006944275,2|0,1:2|0:2,0:2:0:0:
419,83,116376,102,0,P|387:50|337:49,1,91.020001388855,2|0,1:2|0:2,0:2:0:0:
264,44,116767,2,0,P|232:77|182:78,1,91.020001388855,2|0,1:2|0:2,0:2:0:0:
111,37,117158,6,0,P|102:67|99:93,1,45.5100006944275,2|0,1:2|0:2,0:2:0:0:
39,36,117419,2,0,P|30:66|27:92,1,45.5100006944275,2|0,1:2|0:2,0:2:0:0:
178,115,117680,2,0,P|187:145|190:171,1,45.5100006944275,2|0,1:2|0:2,0:2:0:0:
41,267,117941,102,0,P|86:257|151:319,1,136.530002083283,2|0,1:2|1:2,0:2:0:0:
115,377,118463,2,0,P|88:369|71:348,1,45.5100006944275,2|0,0:2|0:2,0:2:0:0:
206,248,118723,6,0,P|238:233|262:237,1,45.5100006944275,2|0,1:2|0:2,0:2:0:0:
269,302,118984,2,0,P|237:317|213:313,1,45.5100006944275,0|0,1:2|0:2,0:2:0:0:
206,248,119245,2,0,P|238:233|262:237,1,45.5100006944275,2|0,1:2|0:2,0:2:0:0:
350,348,119506,102,0,P|352:300|376:249,1,91.020001388855,2|0,1:2|0:2,0:2:0:0:
430,206,119897,2,0,P|428:158|404:107,1,91.020001388855,0|0,1:2|0:2,0:2:0:0:
424,32,120289,6,0,P|395:43|372:48,1,45.5100006944275,2|0,1:2|0:2,0:2:0:0:
319,99,120550,2,0,P|297:93|275:84,1,45.5100006944275,0|0,1:2|0:2,0:2:0:0:
224,19,120810,2,0,P|202:24|180:33,1,45.5100006944275,2|0,1:2|0:2,0:2:0:0:
58,97,121071,102,0,P|104:136|115:234,1,153.179994857849,6|0,1:2|0:2,0:2:0:0:
118,224,121854,6,0,P|74:235|56:249,1,51.0599982859498,6|0,1:2|0:2,0:2:0:0:
239,263,122115,2,0,P|195:252|177:238,1,51.0599982859498,0|0,1:2|0:2,0:2:0:0:
356,227,122376,2,0,P|312:238|294:252,1,51.0599982859498,0|0,1:2|0:2,0:2:0:0:
457,316,122636,102,0,P|462:264|489:163,1,153.179994857849,6|0,1:2|1:2,0:2:0:0:
460,87,123158,1,2,0:2:0:0:
460,87,123419,6,0,P|429:102|414:122,1,51.0599982859498,6|0,1:2|0:2,0:2:0:0:
353,64,123680,2,0,P|341:96|345:121,1,51.0599982859498,2|0,1:2|0:2,0:2:0:0:
265,125,123941,2,0,P|280:156|300:171,1,51.0599982859498,0|0,1:2|1:2,0:2:0:0:
315,188,124136,5,0,1:2:0:0:
318,192,124202,2,0,P|308:247|308:277,1,67.7099972104341,14|0,0:2|0:2,0:2:0:0:
348,348,124463,1,8,0:3:0:0:
212,228,124593,2,0,P|222:283|222:313,1,67.7099972104341,12|0,0:2|0:2,0:2:0:0:
182,384,124854,1,4,0:3:0:0:
239,153,124984,5,10,0:2:0:0:
78,234,125115,1,0,0:2:0:0:
121,171,125245,85,8,0:2:0:0:
282,252,125376,1,0,0:2:0:0:
368,133,125506,5,8,0:2:0:0:
233,314,125636,1,0,0:2:0:0:
170,67,125767,6,0,P|194:135|196:186,1,109.889999664642,14|0,0:2|0:2,0:2:0:0:
189,207,126028,1,8,0:2:0:0:
356,22,126158,102,0,P|332:90|330:141,1,109.889999664642,8|0,0:2|0:2,0:2:0:0:
337,162,126419,1,8,0:2:0:0:
234,40,126550,5,6,0:2:0:0:
318,235,126680,1,8,0:2:0:0:
413,163,126810,101,10,0:3:0:0:
245,222,126941,1,4,0:3:0:0:
296,384,127071,1,6,0:3:0:0:
464,325,127202,1,4,0:3:0:0:
379,292,127332,22,0,B|272:274|322:378|180:363,1,190.920002913208,6|4,0:2|2:3,0:2:0:0:
81,100,127723,2,0,P|188:117|202:224,1,190.920002913208,10|8,0:2|2:3,0:2:0:0:
86,336,128115,5,10,0:2:0:0:
119,183,128245,1,0,2:2:0:0:
275,205,128376,1,2,0:2:0:0:
243,359,128506,1,8,0:2:0:0:
173,263,128636,2,0,P|161:198|156:153,1,95.460001456604,6|4,0:3|0:3,0:0:0:0:
168,130,128832,101,0,0:0:0:0:
168,130,128897,2,0,B|281:99|233:195|364:154,1,190.920002913208,6|8,0:2|2:3,0:2:0:0:
68,32,129289,2,0,P|17:61|17:203,1,190.920002913208,10|4,0:2|2:3,0:2:0:0:
23,211,129615,5,0,0:0:0:0:
23,211,129680,2,0,P|79:189|122:190,1,95.460001456604,10|0,0:2|2:2,0:2:0:0:
196,268,129941,1,10,0:3:0:0:
89,111,130071,1,8,2:2:0:0:
205,182,130202,1,2,0:2:0:0:
312,124,130332,1,4,0:3:0:0:
311,6,130463,102,0,B|260:-33|184:43|289:157,1,190.920002913208,6|0,0:2|2:2,0:2:0:0:
417,255,130854,1,8,0:2:0:0:
294,203,130984,1,2,0:2:0:0:
317,317,131115,1,8,0:3:0:0:
410,132,131245,6,0,P|396:79|370:39,1,95.460001456604,10|0,0:2|2:2,0:2:0:0:
275,181,131506,1,8,0:3:0:0:
142,101,131636,2,0,P|156:48|182:8,1,95.460001456604,8|2,0:2|2:2,0:2:0:0:
277,150,131897,1,4,0:3:0:0:
118,303,132028,102,0,P|32:270|45:171,1,190.920002913208,6|8,0:2|2:2,0:2:0:0:
282,271,132419,1,10,0:2:0:0:
121,201,132550,1,8,0:3:0:0:
198,155,132680,1,4,0:3:0:0:
82,352,132810,6,0,P|132:332|220:332,1,95.460001456604,14|0,0:2|0:0,0:0:0:0:
366,211,133071,2,0,P|322:192|274:185,1,95.460001456604,14|8,0:2|2:3,0:2:0:0:
402,361,133332,1,6,0:3:0:0:
402,361,133463,1,4,0:3:0:0:
196,250,133593,102,0,P|153:136|253:74,1,190.920002913208,6|8,0:2|2:3,0:2:0:0:
364,40,133984,2,0,P|326:143|326:172,1,95.460001456604,10|0,0:2|0:0,0:2:0:0:
242,16,134245,1,4,2:3:0:0:
244,178,134376,6,0,P|282:281|282:310,1,95.460001456604,10|0,0:2|2:2,0:2:0:0:
129,103,134636,2,0,P|82:78|25:88,1,95.460001456604,6|8,0:3|0:2,0:0:0:0:
6,288,134897,2,0,P|53:289|93:265,1,95.460001456604,2|8,2:2|0:3,0:0:0:0:
208,96,135158,101,6,0:2:0:0:
53,200,135289,1,0,0:0:0:0:
162,343,135419,1,8,2:2:0:0:
317,239,135550,1,10,0:2:0:0:
164,163,135680,2,0,P|150:273|145:295,1,95.460001456604,8|0,0:2|0:2,0:0:0:0:
337,314,135941,6,0,P|430:294|441:279,1,95.460001456604,10|0,0:2|2:2,0:2:0:0:
367,75,136202,2,0,P|274:95|263:110,1,95.460001456604,6|0,0:3|2:2,0:2:0:0:
153,257,136463,2,0,P|60:237|49:222,1,95.460001456604,2|0,0:2|0:2,0:2:0:0:
173,55,136723,101,14,0:2:0:0:
189,83,136810,1,8,0:2:0:0:
149,143,136897,1,8,0:2:0:0:
207,192,136984,1,8,2:3:0:0:
157,358,137158,6,0,P|172:273|200:210,1,127.280001942139,8|0,0:2|0:0,0:0:0:0:
104,232,137419,1,0,0:0:0:0:
104,232,137506,2,0,P|89:147|61:84,1,127.280001942139,10|0,0:2|0:0,0:2:0:0:
99,38,137767,1,8,0:2:0:0:
128,55,137854,1,8,0:2:0:0:
187,23,137941,1,8,0:2:0:0:
236,83,138028,1,10,0:2:0:0:
438,6,138202,101,8,0:2:0:0:
438,6,138289,2,0,P|411:120|415:133,1,95.460001456604,14|4,0:2|0:3,0:2:0:0:
277,214,138550,1,8,0:2:0:0:
429,247,138680,2,0,P|308:280|229:348,1,190.920002913208,10|8,0:2|0:2,0:2:0:0:
101,171,139071,6,0,P|127:272|130:291,1,95.460001456604,14|8,0:2|0:3,0:0:0:0:
371,87,139332,2,0,P|345:188|342:207,1,95.460001456604,14|8,0:2|0:3,0:0:0:0:
167,38,139593,1,6,0:3:0:0:
263,81,139723,1,4,0:3:0:0:
39,222,139854,102,0,P|41:90|109:66,1,190.920002913208,6|0,0:2|0:0,0:2:0:0:
258,285,140245,2,0,P|148:301|39:372,1,190.920002913208,10|8,2:2|0:3,0:0:0:0:
312,174,140636,6,0,P|355:263|356:279,1,95.460001456604,10|0,0:2|2:2,0:2:0:0:
173,122,140897,1,2,0:2:0:0:
343,42,141028,1,8,2:2:0:0:
236,206,141158,1,6,0:3:0:0:
88,89,141289,1,4,0:3:0:0:
249,46,141419,102,0,B|172:154|286:118|166:262,1,190.920002913208,6|8,0:2|2:3,0:2:0:0:
9,348,141810,2,0,P|130:303|223:360,1,190.920002913208,14|4,0:2|2:3,0:2:0:0:
368,373,142202,6,0,P|384:265|372:243,1,95.460001456604,10|0,0:2|2:2,0:2:0:0:
292,114,142463,1,2,0:2:0:0:
456,205,142593,1,8,0:2:0:0:
411,70,142723,1,6,0:3:0:0:
329,239,142854,1,4,0:3:0:0:
375,158,142984,102,0,B|340:137|211:120|284:287|111:256,1,286.380004369812,6|8,0:2|0:2,0:2:0:0:
46,182,143506,1,2,2:2:0:0:
60,73,143636,1,4,0:3:0:0:
165,24,143767,6,0,P|141:124|140:148,1,95.460001456604,10|0,0:2|2:2,0:2:0:0:
188,228,144028,1,0,0:2:0:0:
60,73,144158,2,0,P|84:173|85:197,1,95.460001456604,8|6,0:2|0:3,0:0:0:0:
37,277,144419,1,4,0:3:0:0:
100,230,144550,101,6,0:2:0:0:
267,332,144680,5,0,0:0:0:0:
381,192,144810,101,8,2:3:0:0:
310,222,144941,1,8,0:2:0:0:
438,329,145071,2,0,P|456:226|461:212,1,95.460001456604,0|4,0:0|2:3,0:0:0:0:
453,235,145332,1,10,0:2:0:0:
341,325,145463,5,0,2:2:0:0:
208,223,145593,101,8,0:2:0:0:
280,64,145723,5,8,0:2:0:0:
325,135,145854,1,4,0:3:0:0:
167,157,145984,1,4,0:3:0:0:
372,69,146115,102,0,P|428:172|370:256,1,190.920002913208,6|0,0:2|0:0,0:2:0:0:
112,220,146506,2,0,P|86:131|141:57,1,190.920002913208,4|8,2:3|0:3,0:0:0:0:
273,298,146897,6,0,P|149:334|70:381,1,190.920002913208,10|0,0:2|2:2,0:2:0:0:
228,222,147289,1,8,0:2:0:0:
352,233,147419,1,6,0:3:0:0:
396,312,147550,1,4,0:3:0:0:
289,159,147680,102,0,B|159:158|257:242|49:231,1,190.920002913208,6|8,0:2|2:3,0:2:0:0:
339,24,148071,2,0,P|443:75|404:160,1,190.920002913208,8|4,0:2|0:3,0:2:0:0:
165,108,148463,6,0,P|173:55|202:0,1,95.460001456604,14|0,0:2|2:2,0:2:0:0:
366,106,148723,1,2,0:2:0:0:
197,228,148854,1,8,2:2:0:0:
249,124,148984,1,2,0:2:0:0:
312,201,149115,1,0,2:2:0:0:
146,154,149245,102,0,P|70:195|87:315,1,190.920002913208,6|0,0:2|0:0,0:2:0:0:
215,384,149636,2,0,P|225:253|244:178,1,190.920002913208,8|8,2:2|0:3,0:0:0:0:
183,54,150028,5,14,0:2:0:0:
344,104,150158,1,0,0:0:0:0:
196,227,150289,1,0,1:2:0:0:
255,128,150419,1,8,0:2:0:0:
255,128,150484,1,0,0:0:0:0:
255,128,150550,2,0,P|268:211|276:247,1,95.460001456604,4|4,0:3|0:3,0:0:0:0:
333,22,150810,102,0,P|436:5|452:15,2,95.460001456604,6|0|8,0:2|2:2|0:3,0:2:0:0:
179,155,151202,2,0,P|131:155|90:132,2,95.460001456604,4|0|8,0:2|2:2|0:3,0:2:0:0:
376,99,151593,5,10,0:2:0:0:
186,61,151723,1,0,0:2:0:0:
344,185,151854,1,8,0:2:0:0:
236,229,151984,1,8,0:3:0:0:
269,143,152115,1,6,0:3:0:0:
269,143,152245,1,4,0:3:0:0:
94,19,152376,102,0,P|-9:95|31:177,1,190.920002913208,6|8,0:2|2:3,0:2:0:0:
260,253,152767,2,0,B|392:256|278:164|484:175,1,190.920002913208,2|4,0:2|2:3,0:2:0:0:
154,144,153158,6,0,P|129:271|124:354,1,190.920002913208,14|0,0:2|2:2,0:2:0:0:
275,167,153550,1,8,0:2:0:0:
88,98,153680,1,6,0:3:0:0:
197,38,153810,1,4,0:3:0:0:
28,223,153941,102,2,B|205:195|81:349|332:311,1,286.380004369812,6|8,0:2|2:3,0:2:0:0:
461,169,154463,2,0,P|359:206|350:214,1,95.460001456604,2|0,0:2|2:2,0:2:0:0:
88,98,154723,6,0,P|135:105|177:125,1,95.460001456604,14|0,0:2|2:2,0:2:0:0:
293,282,154984,1,2,0:2:0:0:
239,68,155115,1,8,0:2:0:0:
155,220,155245,2,0,P|173:299|179:348,1,95.460001456604,2|4,0:2|2:3,0:2:0:0:
371,119,155506,101,6,0:2:0:0:
234,213,155636,2,0,B|125:184,1,95.460001456604,8|0,0:2|2:2,0:2:0:0:
352,326,155897,1,8,0:2:0:0:
352,326,155963,1,8,0:2:0:0:
352,326,156028,2,0,B|444:301,1,95.460001456604,8|0,0:2|2:2,0:2:0:0:
340,205,156289,5,10,0:2:0:0:
340,205,156354,1,8,0:2:0:0:
340,205,156419,2,0,L|324:140,1,47.730000728302,0|0,0:2|0:2,0:2:0:0:
246,338,156550,1,12,0:2:0:0:
246,338,156615,1,8,0:2:0:0:
246,338,156680,2,0,L|262:403,1,47.730000728302,8|0,0:2|0:2,0:2:0:0:
364,219,156810,2,0,L|348:154,3,47.730000728302,12|8|4|4,0:2|0:3|0:3|0:3,0:2:0:0:
192,46,157071,6,0,L|182:5,1,39.960000975586,14|2,0:2|0:2,0:2:0:0:
182,7,158376,22,0,L|172:57,1,28.8599998238525,8|0,0:3|0:2,0:2:0:0:
127,182,158636,38,0,P|57:159|51:137,2,62.1600007587891,6|0|0,1:2|0:2|1:2,0:2:0:0:
247,113,159028,2,0,P|335:75|394:107,1,124.320001517578,10|0,0:2|1:2,0:2:0:0:
434,220,159419,102,0,P|420:150|420:140,1,62.1600007587891,10|0,0:2|0:2,0:2:0:0:
215,282,159680,2,0,P|229:212|229:202,1,62.1600007587891,2|8,1:2|0:2,0:2:0:0:
282,306,159941,2,0,P|296:236|296:226,1,62.1600007587891,2|0,1:2|0:2,0:2:0:0:
160,103,160202,5,10,0:2:0:0:
89,124,160332,1,2,1:2:0:0:
109,197,160463,1,2,1:2:0:0:
186,177,160593,2,0,B|259:163|220:219|343:187,1,124.320001517578,10|0,0:2|1:2,0:2:0:0:
305,194,160984,101,10,0:2:0:0:
188,262,161115,2,0,L|204:343,1,62.1600007587891,8|10,0:2|0:2,0:0:0:0:
393,179,161376,2,0,L|377:260,1,62.1600007587891,8|2,0:2|1:2,0:0:0:0:
402,305,161636,1,0,3:2:0:0:
284,106,161767,6,0,P|239:63|159:87,1,124.320001517578,6|0,1:2|0:2,0:2:0:0:
82,148,162158,1,10,0:2:0:0:
82,148,162223,1,8,0:0:0:0:
82,148,162289,2,0,P|74:100|64:73,1,62.1600007587891,8|0,0:0|1:2,0:0:0:0:
223,160,162550,102,0,P|214:189|210:220,1,62.1600007587891,10|0,0:2|0:2,0:2:0:0:
166,91,162810,1,2,1:2:0:0:
235,250,162941,1,8,1:2:0:0:
323,106,163071,1,10,1:2:0:0:
164,275,163202,1,4,0:3:0:0:
338,189,163332,6,0,P|348:275|355:307,1,93.2400011381836,6|0,1:2|0:0,0:0:0:0:
330,312,163593,1,8,0:2:0:0:
234,120,163723,2,0,P|169:121|134:166,1,124.320001517578,10|0,0:2|0:2,0:2:0:0:
254,204,164115,101,14,1:2:0:0:
341,135,164245,1,0,0:2:0:0:
423,198,164376,1,6,1:3:0:0:
487,157,164506,1,0,0:2:0:0:
431,143,164636,1,6,1:3:0:0:
478,212,164767,5,0,0:2:0:0:
478,212,164832,1,0,0:0:0:0:
478,212,164897,2,0,P|490:269|490:292,2,62.1600007587891,6|0|0,1:2|0:2|1:2,0:2:0:0:
361,60,165289,2,0,P|309:55|255:113,1,124.320001517578,10|0,0:2|1:2,0:2:0:0:
223,174,165615,1,0,1:2:0:0:
223,174,165680,2,0,P|174:148|113:159,1,93.2400011381836,10|0,0:2|0:0,0:2:0:0:
98,165,165941,1,2,1:2:0:0:
160,297,166071,2,0,P|172:234|175:221,1,62.1600007587891,8|2,0:2|1:2,0:0:0:0:
242,199,166289,2,0,P|246:228|249:246,1,41.4400005058594
379,335,166463,101,10,0:2:0:0:
415,271,166593,1,2,1:2:0:0:
365,211,166723,1,2,1:2:0:0:
391,140,166854,2,0,P|393:65|409:-1,1,124.320001517578,10|0,0:2|1:2,0:2:0:0:
293,120,167245,6,0,P|273:48|268:37,1,62.1600007587891,10|8,0:2|0:2,0:0:0:0:
119,154,167506,2,0,P|139:82|144:71,1,62.1600007587891,10|8,0:2|0:2,0:0:0:0:
187,178,167767,2,0,P|207:106|212:95,1,62.1600007587891,2|0,1:2|3:2,0:2:0:0:
48,98,168028,101,6,1:2:0:0:
131,230,168158,1,8,0:2:0:0:
198,41,168289,1,8,0:2:0:0:
132,118,168419,5,10,0:3:0:0:
333,65,168550,1,0,0:0:0:0:
231,58,168680,1,4,1:3:0:0:
435,204,168810,101,14,0:2:0:0:
234,151,168941,1,0,0:2:0:0:
336,144,169071,1,10,1:3:0:0:
234,236,169202,1,0,1:2:0:0:
340,274,169333,1,2,1:3:0:0:
299,210,169463,1,0,0:2:0:0:
416,352,169593,1,6,1:2:0:0:
416,352,169854,6,0,P|426:280|438:249,1,67.7099972104341,8|0,0:2|0:0,0:0:0:0:
148,202,170115,2,0,P|154:235|156:268,1,67.7099972104341,10|0,0:2|0:0,0:0:0:0:
362,23,170376,102,0,P|420:7|454:13,1,67.7099972104341,14|0,0:2|0:0,0:0:0:0:
286,43,170636,2,0,P|252:40|221:27,1,67.7099972104341,2|0,0:2|0:0,0:0:0:0:
341,95,170897,2,0,P|359:165|357:182,1,67.7099972104341,2|0,0:2|0:0,0:0:0:0:
290,348,171158,86,0,L|272:241,1,91.020001388855,8|0,0:2|0:2,0:2:0:0:
191,299,171550,2,0,L|209:192,1,91.020001388855,8|0,0:2|0:2,0:2:0:0:
355,283,171941,6,0,L|481:245,1,109.889999664642,8|0,1:2|0:2,0:2:0:0:
485,163,172202,102,0,P|429:193|474:233,1,126.539998455322,8|0,1:2|0:2,0:2:0:0:
502,148,172463,6,0,L|390:125,1,95.460001456604,8|0,1:2|1:2,0:2:0:0:
389,109,172658,1,0,1:2:0:0:
414,99,172723,86,0,B|358:34|257:74|214:158|395:229|210:313|9:288|40:123|135:35|208:87|219:102,1,561.660017140503,6|0,1:2|0:2,0:2:0:0:
