osu file format v14

[General]
AudioFilename: audio.mp3
AudioLeadIn: 0
PreviewTime: 101376
Countdown: 0
SampleSet: Soft
StackLeniency: 0.7
Mode: 0
LetterboxInBreaks: 0
WidescreenStoryboard: 1

[Editor]
Bookmarks: 550,6810,18810,20897,52202,77245,102289,114810,127332,157071,158636,171158,172723,178723
DistanceSpacing: 1.4
BeatDivisor: 4
GridSize: 32
TimelineZoom: 2.400005

[Metadata]
Title:Anemone no Hana
TitleUnicode:アネモネの花
Artist:fhana
ArtistUnicode:fhana
Creator:Sotarks
Version:Kowari's Hard
Source:
Tags:japanese female vocalist Junichi Sato yuxuki waga kevin mitsunaga towana lantis world atlast kalibe iljaaz reform kujinn akitoshi -laura- corinn kowari
BeatmapID:2352239
BeatmapSetID:1124422

[Difficulty]
HPDrainRate:4.5
CircleSize:3.8
OverallDifficulty:6.5
ApproachRate:8
SliderMultiplier:2.3
SliderTickRate:1

[Events]
//Background and Video events
0,0,"bg.jpg",0,0
//Break Periods
2,102489,114060
//Storyboard Layer 0 (Background)
//Storyboard Layer 1 (Fail)
//Storyboard Layer 2 (Pass)
//Storyboard Layer 3 (Foreground)
//Storyboard Layer 4 (Overlay)
//Storyboard Sound Samples

[TimingPoints]
550,521.739130434783,3,2,0,52,1,0
3680,-125,3,2,0,52,0,0
6028,-125,3,2,22,42,0,0
6810,-99.9999999999999,3,2,22,52,0,0
19332,-99.9999999999999,3,2,0,52,0,0
20636,-100,3,2,22,52,0,0
20897,-111.111111111111,3,2,22,52,0,0
45941,-125,3,2,22,52,0,0
47506,-111.111111111111,3,2,22,52,0,0
51419,-100,3,2,22,52,0,0
52202,-90.9090909090909,3,1,22,82,0,1
57810,-90.9090909090909,3,2,22,82,0,1
57941,-90.9090909090909,3,1,22,82,0,1
61723,-90.9090909090909,3,2,22,82,0,1
61853,-90.9090909090909,3,1,22,82,0,1
64983,-90.9090909090909,3,2,22,82,0,1
65115,-90.9090909090909,3,1,22,82,0,1
69940,-90.9090909090909,3,2,22,82,0,1
70071,-90.9090909090909,3,1,22,82,0,1
71244,-90.9090909090909,3,2,22,82,0,1
71376,-90.9090909090909,3,1,22,82,0,1
74375,-90.9090909090909,3,2,22,82,0,1
74506,-90.9090909090909,3,1,22,82,0,1
77245,-100,3,1,22,82,0,0
78940,-100,3,2,22,82,0,0
79070,-100,3,1,22,82,0,0
81550,-100,3,2,22,82,0,0
81680,-100,3,1,22,82,0,0
81745,-100,3,2,22,82,0,0
81810,-100,3,1,22,82,0,0
86245,-100,3,2,22,82,0,0
86375,-100,3,1,22,82,0,0
92050,-100,3,2,22,82,0,0
92115,-100,3,1,22,82,0,0
92897,-100,3,2,22,82,0,0
93549,-100,3,1,22,82,0,0
98201,-100,3,1,22,82,0,0
99158,-90.9090909090909,3,2,22,82,0,0
99550,-90.9090909090909,3,2,22,82,0,0
100723,-90.9090909090909,3,2,22,82,0,0
101115,-90.9090909090909,3,2,22,82,0,0
101506,-90.9090909090909,3,2,22,82,0,0
102289,-90.9090909090909,3,2,22,52,0,0
108550,-90.9090909090909,3,2,22,52,0,0
114810,-142.857142857143,3,2,22,62,0,0
121071,-125,3,2,22,72,0,0
124202,-100,3,1,22,82,0,0
125767,-100,3,2,22,82,0,0
127332,-90.9090909090909,3,1,22,92,0,1
136853,-90.9090909090909,3,2,22,92,0,1
136896,-90.9090909090909,3,1,22,92,0,1
136983,-90.9090909090909,3,1,22,92,0,1
137115,-90.9090909090909,3,2,22,92,0,1
137158,-90.9090909090909,3,1,22,92,0,1
137506,-90.9090909090909,3,1,22,92,0,1
137636,-90.9090909090909,3,2,22,92,0,1
137767,-90.9090909090909,3,1,22,92,0,1
138158,-90.9090909090909,3,2,22,92,0,1
138201,-90.9090909090909,3,1,22,92,0,1
138289,-90.9090909090909,3,1,22,92,0,1
138810,-90.9090909090909,3,2,22,92,0,1
139071,-90.9090909090909,3,1,22,92,0,1
143244,-90.9090909090909,3,2,22,92,0,1
143375,-90.9090909090909,3,1,22,92,0,1
154201,-90.9090909090909,3,2,22,92,0,1
154332,-90.9090909090909,3,1,22,92,0,1
156093,-90.9090909090909,3,2,22,92,0,1
156158,-90.9090909090909,3,1,22,92,0,1
156223,-90.9090909090909,3,2,22,92,0,1
156289,-90.9090909090909,3,1,22,92,0,1
157071,-100,3,2,22,82,0,0
157136,-100,3,2,22,32,0,0
158376,-100,3,2,22,42,0,0
158636,-100,3,2,22,52,0,0
169854,-100,3,1,22,42,0,0
171158,-100,3,2,0,52,0,0
171941,-100,3,2,22,52,0,0
172202,-100,3,2,22,52,0,0
172463,-100,3,2,22,52,0,0
172723,-166.666666666667,3,2,22,52,0,0
172789,-166.666666666667,3,2,22,12,0,0

[Colours]
Combo1 : 69,113,226
Combo2 : 255,91,13
Combo3 : 252,255,117
Combo4 : 132,224,255

[HitObjects]
22,367,6028,5,8,0:2:0:0:
22,367,6158,1,8,0:2:0:0:
50,291,6289,2,0,P|67:281|114:278,1,46,8|8,0:2|0:3,0:0:0:0:
107,199,6550,2,0,P|126:203|153:236,1,46,4|4,0:3|0:3,0:0:0:0:
171,295,6810,6,0,P|218:324|281:300,1,115,6|0,1:2|1:2,0:2:0:0:
301,232,7202,2,0,B|297:177|297:177|293:173|293:173|290:106,1,115,10|0,0:2|1:2,0:2:0:0:
290,118,7528,1,0,1:2:0:0:
290,118,7593,1,10,0:2:0:0:
404,4,7854,6,0,P|432:36|437:61,1,57.5,2|0,1:2|0:2,0:2:0:0:
493,106,8115,2,0,P|469:139|466:164,1,57.5,2|0,1:2|0:2,0:2:0:0:
410,213,8376,5,10,0:2:0:0:
410,213,8506,2,0,B|417:245|417:245|416:249|416:249|421:275,1,57.5,2|2,1:2|1:2,0:0:0:0:
464,336,8767,2,0,B|460:353|460:353|350:349,1,115,10|0,0:2|1:2,0:2:0:0:
315,283,9158,6,0,P|288:293|279:324,1,57.5,10|8,0:2|0:2,0:0:0:0:
198,309,9419,2,0,P|202:280|180:257,1,57.5,10|8,0:2|0:2,0:0:0:0:
234,195,9680,2,0,P|256:213|287:205,1,57.5,2|0,1:2|3:2,0:2:0:0:
322,138,9941,6,0,B|308:94|258:76|214:124|214:124,1,115,6|0,1:2|0:2,0:2:0:0:
160,156,10332,2,0,B|149:174|149:174|43:150,1,115,10|0,0:2|1:2,0:2:0:0:
57,153,10658,1,0,1:2:0:0:
57,153,10723,1,10,0:2:0:0:
6,306,10984,6,0,L|70:297,1,57.5,2|0,1:2|1:2,0:2:0:0:
128,251,11245,2,0,L|184:259,1,57.5,2|0,1:2|0:2,0:2:0:0:
248,309,11506,2,0,L|238:358,3,38.3333333333333,6|8|8|8,1:2|0:2|0:2|0:2,0:0:0:0:
312,374,11897,2,0,B|356:367|349:326|349:326|335:233,1,115,10|0,0:2|0:2,0:2:0:0:
387,213,12289,6,0,B|397:224|412:221|412:221|424:207|415:187,1,57.5,10|0,1:3|0:2,0:2:0:0:
417,112,12550,2,0,B|421:97|411:86|411:86|393:82|384:95,1,57.5,6|0,1:3|0:2,0:2:0:0:
313,133,12810,2,0,B|298:136|293:150|293:150|299:168|321:170,1,57.5,6|0,1:3|0:2,0:2:0:0:
276,240,13071,6,0,B|227:243|227:243|223:239|223:239|137:244,1,115,6|0,1:2|1:2,0:2:0:0:
82,258,13463,2,0,P|77:189|116:178,1,115,10|0,0:2|1:2,0:2:0:0:
187,153,13854,1,10,0:2:0:0:
74,38,14115,6,0,P|101:35|132:15,1,57.5,2|8,1:2|0:2,0:0:0:0:
192,67,14376,2,0,P|219:70|250:90,1,57.5,0|0,0:0|0:2,0:0:0:0:
309,37,14636,5,10,0:2:0:0:
309,37,14767,2,0,B|334:33|334:33|338:34|338:34|369:29,1,57.5,2|2,1:2|1:2,0:0:0:0:
445,45,15028,2,0,P|471:104|416:125,1,115,10|0,0:2|1:2,0:2:0:0:
357,127,15419,6,0,L|372:196,1,57.5,10|8,0:2|0:2,0:0:0:0:
329,253,15680,2,0,L|286:291,1,57.5,10|8,0:2|0:2,0:0:0:0:
411,253,15941,2,0,L|465:270,1,57.5,2|0,1:2|3:2,0:0:0:0:
504,341,16202,6,0,B|512:368|476:380|476:380|382:360,1,115,6|0,1:2|0:2,0:2:0:0:
336,363,16593,2,0,B|322:366|322:366|255:314|255:314|225:320,1,115,10|0,0:2|1:2,0:2:0:0:
163,346,16984,1,14,0:2:0:0:
55,235,17245,6,0,P|73:203|71:162,1,57.5,2|0,1:2|1:2,0:2:0:0:
137,131,17506,2,0,P|119:99|121:58,1,57.5,2|0,1:2|0:2,0:2:0:0:
180,29,17767,2,0,L|234:21,3,38.3333333333333,2|8|8|8,1:2|0:2|0:2|0:2,0:0:0:0:
214,106,18158,2,0,P|259:113|279:182,1,115,10|0,0:2|0:2,0:2:0:0:
223,229,18550,6,0,P|208:257|217:295,1,57.5,10|0,1:3|0:2,0:2:0:0:
209,362,18810,2,0,P|240:360|269:334,1,57.5,6|0,1:3|0:2,0:2:0:0:
332,309,19071,2,0,P|315:282|277:270,1,57.5,6|0,1:3|0:2,0:2:0:0:
259,304,19332,5,8,0:2:0:0:
259,304,19724,1,8,0:2:0:0:
259,304,20115,5,8,0:2:0:0:
146,314,20376,1,8,0:2:0:0:
111,208,20636,1,10,0:2:0:0:
138,94,20897,6,0,P|94:82|36:119,1,103.499996841431,6|0,1:2|0:0,0:2:0:0:
24,182,21289,1,8,0:2:0:0:
154,244,21550,5,0,1:2:0:0:
154,244,21680,2,0,L|220:228,1,51.7499984207154,8|0,0:2|0:2,0:2:0:0:
273,209,21941,2,0,L|323:221,1,51.7499984207154,0|8,1:2|0:2,0:2:0:0:
392,242,22202,2,0,L|457:229,1,51.7499984207154,0|0,1:2|1:2,0:0:0:0:
490,177,22463,6,0,P|461:120|399:139,1,103.499996841431,2|0,1:2|0:0,0:2:0:0:
364,153,22854,1,8,0:2:0:0:
286,36,23115,5,0,1:2:0:0:
286,36,23245,2,0,L|277:100,1,51.7499984207154,8|0,0:2|0:2,0:2:0:0:
269,159,23506,2,0,L|209:145,1,51.7499984207154,0|8,1:2|0:2,0:2:0:0:
147,132,23767,2,0,L|138:196,1,51.7499984207154,0|0,1:2|1:2,0:0:0:0:
81,227,24028,6,0,P|134:210|172:286,1,155.249995262146,2|8,1:2|0:2,0:2:0:0:
43,348,24680,5,0,1:2:0:0:
43,348,24810,2,0,B|60:338|60:338|110:375|110:375|132:363,1,103.499996841431,8|0,0:2|1:2,0:2:0:0:
201,353,25202,1,0,0:0:0:0:
265,319,25332,2,0,L|277:262,1,51.7499984207154,8|0,0:2|1:2,0:0:0:0:
242,203,25593,6,0,P|206:165|230:95,1,103.499996841431,2|0,1:2|1:2,0:2:0:0:
269,74,25984,2,0,L|337:91,1,51.7499984207154,8|0,0:2|0:0,0:2:0:0:
319,86,26245,1,0,1:2:0:0:
398,63,26376,6,0,P|426:113|398:174,1,103.499996841431,10|0,0:2|1:2,0:2:0:0:
351,190,26767,2,0,L|342:254,1,51.7499984207154,8|0,0:2|1:2,0:0:0:0:
343,241,27028,1,0,1:2:0:0:
393,315,27158,6,0,P|423:292|491:300,1,103.499996841431,2|0,1:2|0:2,0:2:0:0:
452,361,27550,1,0,3:2:0:0:
317,323,27810,5,0,1:2:0:0:
317,323,27941,2,0,L|260:312,1,51.7499984207154,8|0,0:2|0:2,0:2:0:0:
194,301,28202,2,0,L|205:244,1,51.7499984207154,0|8,1:2|0:2,0:2:0:0:
220,179,28463,2,0,L|169:169,1,51.7499984207154,0|0,1:2|1:2,0:0:0:0:
95,153,28723,6,0,P|125:104|174:97,1,103.499996841431,2|0,1:2|0:0,0:2:0:0:
218,43,29115,1,0,1:2:0:0:
311,153,29376,5,0,1:2:0:0:
311,153,29506,2,0,L|295:97,1,51.7499984207154,8|0,0:2|1:2,0:0:0:0:
336,42,29767,2,0,L|385:56,1,51.7499984207154,0|0,3:2|0:0,0:2:0:0:
422,118,30028,2,0,L|384:153,1,51.7499984207154,0|0,0:0|1:2,0:0:0:0:
378,226,30289,6,0,P|411:261|474:239,2,103.499996841431,2|0|0,3:2|0:2|0:0,0:2:0:0:
378,226,30941,1,0,1:2:0:0:
307,241,31071,6,0,B|246:259|276:211|196:234,1,103.499996841431,8|0,0:2|1:2,0:2:0:0:
135,235,31463,2,0,P|143:291|196:298,1,103.499996841431,8|0,0:2|1:2,0:0:0:0:
208,230,31854,6,0,B|214:178|214:178|210:180|210:180|217:115,1,103.499996841431,10|4,0:2|1:3,0:0:0:0:
214,133,32245,1,8,0:2:0:0:
172,73,32376,2,0,P|130:80|108:100,1,51.7499984207154,0|4,0:2|1:3,0:0:0:0:
62,123,32636,6,0,L|77:204,1,51.7499984207154,10|8,1:3|1:3,0:2:0:0:
58,245,32897,2,0,L|43:326,1,51.7499984207154,6|4,1:3|0:3,0:0:0:0:
98,355,33158,1,6,1:3:0:0:
98,355,33289,1,4,0:3:0:0:
158,315,33419,6,0,L|282:300,1,103.499996841431,6|0,1:2|0:2,0:2:0:0:
332,289,33810,1,8,0:2:0:0:
444,196,34071,5,0,1:2:0:0:
444,196,34202,2,0,P|418:176|387:167,1,51.7499984207154,8|0,0:2|0:2,0:2:0:0:
363,106,34463,2,0,P|330:114|305:138,1,51.7499984207154,0|0,3:2|0:2,0:2:0:0:
243,123,34723,2,0,P|225:157|225:182,1,51.7499984207154,0|0,1:2|1:2,0:0:0:0:
277,219,34984,6,0,L|154:207,1,103.499996841431,2|0,1:2|0:2,0:2:0:0:
112,248,35376,1,0,3:2:0:0:
21,142,35636,5,0,1:2:0:0:
21,142,35767,2,0,P|58:118|87:118,1,51.7499984207154,8|0,0:2|0:2,0:2:0:0:
116,66,36028,2,0,P|148:98|185:106,1,51.7499984207154,0|0,3:2|0:2,0:2:0:0:
218,67,36289,2,0,P|238:68|286:54,1,51.7499984207154,0|0,3:2|3:2,0:0:0:0:
319,9,36550,6,0,L|291:188,1,155.249995262146,2|8,1:2|0:2,0:2:0:0:
425,236,37202,5,0,1:2:0:0:
425,236,37332,2,0,B|391:233|394:199|394:199|397:165|357:162,1,103.499996841431,8|0,0:2|0:0,0:2:0:0:
295,162,37723,1,0,0:2:0:0:
232,199,37854,2,0,P|220:222|220:257,1,51.7499984207154,0|0,1:2|3:2,0:0:0:0:
268,299,38115,6,0,L|123:279,1,103.499996841431,8|8,3:3|3:3,0:2:0:0:
165,284,38506,1,0,0:2:0:0:
93,276,38636,2,0,P|83:243|95:208,1,51.7499984207154,4|4,1:3|1:3,0:0:0:0:
142,181,38897,6,0,L|263:197,1,103.499996841431,8|8,0:2|0:2,0:2:0:0:
244,194,39289,1,0,0:2:0:0:
314,178,39419,2,0,P|328:156|324:114,1,51.7499984207154,6|6,3:3|3:3,0:0:0:0:
257,121,39680,6,0,L|244:0,1,103.499996841431,2|0,1:2|0:0,0:2:0:0:
175,1,40071,1,0,3:2:0:0:
40,49,40332,5,0,1:2:0:0:
40,49,40463,2,0,P|23:80|28:118,1,51.7499984207154,8|0,0:2|0:2,0:2:0:0:
85,131,40723,2,0,P|101:170|92:200,1,51.7499984207154,0|8,1:2|0:2,0:2:0:0:
70,246,40984,1,0,1:2:0:0:
70,246,41115,1,0,1:2:0:0:
112,304,41245,6,0,L|238:288,1,103.499996841431,0|0,1:2|0:2,0:2:0:0:
287,284,41636,1,8,0:2:0:0:
418,355,41897,5,0,1:2:0:0:
418,355,42028,2,0,P|372:345|358:323,1,51.7499984207154,8|8,0:2|0:2,0:0:0:0:
372,270,42289,2,0,P|401:255|416:232,1,51.7499984207154,0|8,1:2|0:2,0:0:0:0:
468,194,42550,2,0,P|453:171|447:133,1,51.7499984207154,2|0,3:3|0:2,0:2:0:0:
385,110,42810,6,0,L|507:91,2,103.499996841431,0|0|0,1:2|0:0|0:0,0:2:0:0:
385,110,43463,1,0,1:2:0:0:
318,139,43593,6,0,B|309:179|309:179|329:212|329:212|316:262,1,103.499996841431,8|0,0:2|1:2,0:2:0:0:
303,305,43984,2,0,B|294:325|294:325|189:296,1,103.499996841431,8|0,0:2|1:2,0:2:0:0:
153,343,44376,6,0,P|130:291|174:259,1,103.499996841431,10|8,0:2|0:2,0:0:0:0:
205,207,44767,2,0,P|228:155|184:123,1,103.499996841431,8|0,0:2|1:2,0:0:0:0:
143,81,45158,5,8,0:2:0:0:
143,81,45289,1,8,0:2:0:0:
77,111,45419,2,0,L|91:180,1,51.7499984207154,8|0,1:3|1:0,0:0:0:0:
26,201,45680,2,0,L|12:270,1,51.7499984207154,4|4,1:3|1:3,0:0:0:0:
43,327,45941,6,0,P|100:350|145:237,1,184,2|0,1:2|0:2,0:2:0:0:
286,281,46723,2,0,P|221:282|195:160,1,184,2|0,1:2|0:2,0:2:0:0:
333,131,47506,6,0,L|445:153,2,103.499996841431,2|0|0,1:2|0:2|0:2,0:2:0:0:
208,27,48289,2,0,L|91:46,2,103.499996841431,2|0|0,1:2|0:2|0:2,0:2:0:0:
436,11,49071,5,10,1:2:0:0:
333,20,49332,1,4,0:3:0:0:
268,105,49593,1,4,0:3:0:0:
237,259,49854,5,8,1:3:0:0:
112,286,50115,1,4,2:3:0:0:
27,194,50376,1,4,2:3:0:0:
59,36,50636,5,14,1:2:0:0:
186,25,50897,5,4,1:3:0:0:
161,102,51028,1,8,0:2:0:0:
240,192,51289,5,8,1:3:0:0:
303,127,51419,2,0,P|348:113|360:113,1,57.5,10|0,0:2|1:2,0:2:0:0:
420,61,51680,2,0,P|460:83|471:109,1,57.5,10|8,0:2|1:3,0:0:0:0:
491,182,51941,1,6,0:3:0:0:
491,182,52071,1,4,0:3:0:0:
449,268,52202,6,0,B|443:277|443:277|304:248,1,126.500003860474,6|4,0:2|2:3,0:2:0:0:
254,194,52593,2,0,P|281:260|242:303,1,126.500003860474,10|8,0:2|2:3,0:2:0:0:
188,361,52984,6,0,B|188:353|188:353|121:343,1,63.2500019302369,10|0,0:2|2:2,0:2:0:0:
77,275,53245,2,0,B|77:267|77:267|131:258,1,63.2500019302369,2|8,0:2|0:2,0:0:0:0:
176,183,53506,1,6,0:3:0:0:
176,183,53636,1,4,0:3:0:0:
93,148,53767,6,0,B|88:78|138:104|130:19,1,126.500003860474,6|8,0:2|2:3,0:2:0:0:
198,100,54158,2,0,B|232:111|259:128|259:128|299:115|301:78,1,126.500003860474,10|4,0:2|2:3,0:2:0:0:
342,9,54550,6,0,P|368:14|379:53,1,63.2500019302369,10|0,0:2|2:2,0:2:0:0:
449,101,54810,2,0,P|423:106|412:145,1,63.2500019302369,10|8,0:3|2:2,0:2:0:0:
467,205,55071,1,2,0:2:0:0:
467,205,55202,1,4,0:3:0:0:
412,274,55332,6,0,B|395:264|395:264|334:325|334:325|305:307,1,126.500003860474,6|0,0:2|2:2,0:2:0:0:
316,314,55723,1,8,0:2:0:0:
242,363,55854,2,0,P|231:335|239:297,1,63.2500019302369,2|8,0:2|0:3,0:0:0:0:
294,236,56115,6,0,B|292:180|292:180|288:181|288:181|284:101,1,126.500003860474,10|8,0:2|0:3,0:2:0:0:
284,114,56506,1,8,0:2:0:0:
230,45,56636,2,0,P|196:44|155:66,1,63.2500019302369,2|4,2:2|0:3,0:0:0:0:
118,127,56897,6,0,P|130:67|67:23,1,126.500003860474,6|8,0:2|2:2,0:2:0:0:
13,77,57289,2,0,L|7:154,1,63.2500019302369,10|8,0:2|0:3,0:0:0:0:
8,140,57550,1,4,0:3:0:0:
73,199,57680,6,0,P|92:223|101:264,1,63.2500019302369,14|0,0:2|0:0,0:0:0:0:
189,253,57941,2,0,P|185:283|162:318,1,63.2500019302369,14|8,0:2|2:3,0:2:0:0:
94,355,58202,1,6,0:3:0:0:
94,355,58332,1,4,0:3:0:0:
8,378,58463,6,0,B|-7:368|-7:368|24:252,1,126.500003860474,6|8,0:2|2:3,0:2:0:0:
100,223,58854,2,0,P|134:189|92:137,1,126.500003860474,10|4,0:2|2:3,0:2:0:0:
17,90,59245,6,0,B|8:87|8:87|14:10,1,63.2500019302369,10|0,0:2|2:2,0:2:0:0:
95,1,59506,2,0,B|104:4|104:4|98:81,1,63.2500019302369,6|8,0:3|0:2,0:0:0:0:
176,103,59767,1,2,2:2:0:0:
176,103,59897,1,8,0:3:0:0:
253,61,60028,6,0,B|289:67|282:109|282:109|275:152|320:157,1,126.500003860474,6|0,0:2|2:2,0:2:0:0:
400,155,60419,2,0,B|361:150|361:150|309:188|347:248,1,126.500003860474,10|0,0:2|0:2,0:2:0:0:
336,226,60745,1,0,0:2:0:0:
336,226,60810,5,10,0:2:0:0:
259,339,61071,1,6,0:3:0:0:
129,303,61332,1,2,0:2:0:0:
113,164,61593,5,14,0:2:0:0:
113,164,61723,2,0,L|189:153,1,63.2500019302369,0|8,0:0|2:3,0:0:0:0:
192,67,61984,2,0,P|216:129|286:135,1,126.500003860474,12|4,0:2|2:3,0:2:0:0:
336,81,62376,1,10,0:2:0:0:
476,188,62636,5,8,0:2:0:0:
415,253,62767,2,0,L|424:302,2,31.6250009651184,0|0|10,0:2|0:2|0:2,0:2:0:0:
327,237,63028,1,0,0:2:0:0:
327,237,63093,1,0,0:2:0:0:
327,237,63158,2,0,L|321:205,4,31.6250009651184,14|4|4|4|8,0:2|0:3|0:3|0:3|0:2,0:2:0:0:
268,304,63550,6,0,B|251:293|251:293|217:318|217:318|214:323|214:323|185:345|185:345|148:319,1,126.500003860474,10|8,0:2|0:2,0:2:0:0:
90,287,63941,6,0,P|94:262|131:257,1,63.2500019302369,14|8,0:2|0:3,0:0:0:0:
69,187,64202,2,0,P|65:162|28:157,1,63.2500019302369,14|8,0:2|0:3,0:0:0:0:
5,70,64463,1,6,0:3:0:0:
5,70,64593,1,4,0:3:0:0:
73,14,64723,6,0,P|108:19|110:108,1,126.500003860474,6|0,0:2|0:0,0:2:0:0:
176,168,65115,2,0,B|236:157|236:157|240:160|240:160|316:147,1,126.500003860474,10|8,2:2|0:3,0:0:0:0:
373,100,65506,6,0,P|353:52|278:81,1,126.500003860474,10|2,0:2|0:2,0:2:0:0:
299,149,65897,2,0,L|312:220,1,63.2500019302369,8|6,2:2|0:3,0:0:0:0:
310,211,66158,1,4,0:3:0:0:
356,301,66289,6,0,B|370:277|370:277|237:311,1,126.500003860474,6|8,0:2|2:3,0:2:0:0:
205,357,66680,2,0,P|132:359|134:317,1,126.500003860474,14|4,0:2|2:3,0:2:0:0:
199,267,67071,6,0,B|196:237|196:237|198:235|198:235|196:198,1,63.2500019302369,10|0,0:2|2:2,0:2:0:0:
116,164,67332,2,0,P|90:179|50:182,1,63.2500019302369,2|8,0:2|0:2,0:0:0:0:
4,118,67593,1,6,0:3:0:0:
4,118,67723,1,4,0:3:0:0:
75,65,67854,6,0,B|74:115|114:115|114:115|170:115,1,126.500003860474,6|8,0:2|2:3,0:2:0:0:
176,26,68245,2,0,P|204:8|251:16,1,63.2500019302369,8|2,0:2|2:2,0:2:0:0:
294,72,68506,1,4,0:3:0:0:
294,72,68636,2,0,L|275:208,1,126.500003860474,10|0,0:2|0:2,0:2:0:0:
307,281,69028,2,0,P|362:264|359:200,1,126.500003860474,8|4,0:2|0:3,0:0:0:0:
276,197,69419,6,0,B|251:191|251:191|206:251|206:251|169:241,1,126.500003860474,6|8,0:2|2:3,0:2:0:0:
148,161,69810,2,0,P|106:165|88:190,1,63.2500019302369,8|0,0:2|0:0,0:2:0:0:
92,179,70071,1,4,2:3:0:0:
47,255,70202,6,0,B|82:254|78:305|78:305|74:353|116:354,1,126.500003860474,10|8,0:2|0:2,0:2:0:0:
102,352,70593,1,8,0:2:0:0:
186,325,70723,1,4,0:3:0:0:
186,325,70854,1,4,0:3:0:0:
271,294,70984,6,0,L|403:321,1,126.500003860474,6|0,0:2|0:0,0:2:0:0:
472,274,71376,2,0,P|460:197|411:204,1,126.500003860474,4|8,2:3|0:3,0:0:0:0:
339,212,71767,2,0,B|354:153|354:153|353:150|353:150|375:68,1,126.500003860474,10|0,0:2|2:2,0:2:0:0:
311,22,72158,2,0,L|246:39,1,63.2500019302369,8|6,0:2|0:3,0:0:0:0:
249,38,72419,1,4,0:3:0:0:
160,39,72550,6,0,P|230:78|228:132,1,126.500003860474,6|8,0:2|2:3,0:2:0:0:
183,190,72941,2,0,B|174:198|174:198|108:174,1,63.2500019302369,8|2,0:2|2:2,0:2:0:0:
125,180,73202,1,4,0:3:0:0:
37,163,73333,6,0,P|54:99|106:107,1,126.500003860474,14|2,0:2|0:2,0:2:0:0:
160,39,73723,1,8,2:2:0:0:
160,39,73854,2,0,P|205:32|234:14,1,63.2500019302369,2|0,0:2|2:2,0:2:0:0:
276,93,74115,6,0,B|314:106|343:122|343:122|379:104|372:64,1,126.500003860474,6|0,0:2|0:0,0:2:0:0:
446,30,74506,2,0,P|488:76|446:118,1,126.500003860474,8|8,2:2|0:3,0:0:0:0:
402,189,74897,6,0,B|386:204|386:204|428:315,1,126.500003860474,14|0,0:2|2:2,0:2:0:0:
423,301,75289,1,8,0:2:0:0:
366,369,75419,2,0,P|333:373|322:341,1,63.2500019302369,4|4,0:3|0:3,0:0:0:0:
244,302,75680,6,0,P|289:276|261:208,1,126.500003860474,6|8,0:2|0:3,0:2:0:0:
202,157,76071,2,0,L|125:179,1,63.2500019302369,4|0,0:2|2:2,0:2:0:0:
141,174,76332,1,8,0:3:0:0:
75,114,76463,6,0,P|81:76|108:48,1,63.2500019302369,10|0,0:2|0:2,0:0:0:0:
165,2,76723,2,0,P|200:7|224:32,1,63.2500019302369,8|8,0:2|0:3,0:0:0:0:
306,45,76984,1,6,0:3:0:0:
306,45,77115,1,4,0:3:0:0:
250,120,77245,5,6,0:2:0:0:
250,120,77376,2,0,B|243:172|243:172|246:179|246:179|239:244,1,115,8|8,2:2|0:2,0:0:0:0:
346,354,77897,1,14,0:3:0:0:
415,312,78028,6,0,P|418:262|357:248,1,115,14|0,0:2|2:2,0:2:0:0:
302,191,78419,2,0,P|299:141|360:127,1,115,8|8,0:2|0:2,0:0:0:0:
419,77,78810,6,0,B|414:51|414:51|416:47|416:47|409:15,2,57.5,6|0|0,0:2|0:0|2:2,0:2:0:0:
481,129,79202,1,8,0:2:0:0:
467,208,79332,2,0,P|442:232|402:238,1,57.5,8|8,0:2|0:2,0:0:0:0:
360,292,79593,6,0,L|223:275,1,115,10|12,0:2|0:2,0:2:0:0:
144,303,79984,2,0,P|140:331|162:343,1,57.5,0|4,2:2|0:3,0:0:0:0:
184,226,80245,5,8,0:2:0:0:
184,226,80376,2,0,B|198:126|198:126|173:121,1,115,6|0,0:2|2:2,0:2:0:0:
221,51,80767,2,0,P|176:87|124:62,1,115,8|8,0:2|0:3,0:2:0:0:
71,8,81158,1,8,0:2:0:0:
4,154,81419,5,4,0:2:0:0:
4,154,81550,1,0,0:0:0:0:
47,221,81680,2,0,L|30:264,2,28.75,12|4|4,0:3|0:0|0:3,0:0:0:0:
125,200,81941,6,0,L|121:157,3,38.3333333333333,6|0|0|4,0:2|0:0|0:0|2:3,0:0:0:0:
199,237,82333,6,0,B|233:232|224:194|224:194|215:154|262:144,1,115,8|8,0:2|0:2,0:2:0:0:
316,105,82723,2,0,L|389:126,1,57.5,14|8,0:3|2:2,0:2:0:0:
451,71,82984,6,0,P|459:106|442:137,1,57.5,4|8,0:3|0:3,0:0:0:0:
407,194,83245,2,0,P|399:229|417:263,1,57.5,4|4,0:3|0:3,0:0:0:0:
480,289,83506,5,6,0:2:0:0:
480,289,83636,2,0,L|354:315,1,115,8|8,0:2|0:2,0:2:0:0:
220,244,84158,1,8,0:3:0:0:
220,244,84289,2,0,P|264:258|281:286,1,57.5,8|8,0:2|0:2,0:0:0:0:
239,338,84550,6,0,P|172:343|154:301,1,115,4|8,0:2|0:2,0:0:0:0:
90,257,84941,1,4,0:2:0:0:
90,257,85071,2,0,P|157:262|175:220,1,115,6|8,0:2|2:2,0:2:0:0:
210,152,85463,2,0,B|206:124|206:124|208:125|208:125|203:92,1,57.5,12|0,0:3|2:2,0:2:0:0:
203,98,85723,1,8,0:2:0:0:
154,34,85854,6,0,P|122:58|124:78,1,57.5,6|0,0:2|2:2,0:2:0:0:
61,125,86115,2,0,P|93:149|91:169,1,57.5,8|0,0:2|0:0,0:0:0:0:
59,238,86375,1,0,0:2:0:0:
59,238,86506,1,0,2:2:0:0:
84,314,86636,6,0,L|211:291,1,115,14|8,0:2|0:3,0:2:0:0:
277,277,87028,1,12,0:2:0:0:
347,315,87158,2,0,P|354:348|341:375,1,57.5,0|4,2:2|0:3,0:0:0:0:
277,277,87419,6,0,L|291:199,1,57.5,12|8,0:2|0:2,0:0:0:0:
353,174,87680,1,8,0:2:0:0:
287,112,87810,2,0,P|239:56|262:23,1,115,12|8,0:2|0:2,0:2:0:0:
256,32,88136,1,8,0:2:0:0:
260,36,88202,6,0,L|327:41,1,57.5,14|0,0:3|0:2,0:0:0:0:
389,4,88463,1,8,0:3:0:0:
437,68,88593,2,0,P|411:99|411:119,1,57.5,10|4,0:2|0:3,0:0:0:0:
466,172,88854,1,8,0:3:0:0:
442,248,88984,6,0,B|434:265|419:270|419:270|408:260|408:243,1,57.5,6|8,0:2|2:2,0:2:0:0:
339,205,89245,2,0,B|349:199|352:184|352:184|340:174|321:175,1,57.5,10|0,0:3|2:2,0:2:0:0:
245,200,89506,2,0,B|237:217|222:222|222:222|211:212|211:200,1,57.5,10|4,0:3|0:3,0:2:0:0:
185,123,89767,5,6,0:2:0:0:
185,123,89897,2,0,L|199:54,1,57.5,8|0,0:2|2:2,0:2:0:0:
258,15,90158,2,0,P|201:53|141:31,1,115,8|8,0:2|0:3,0:2:0:0:
85,7,90550,6,0,B|59:-8|36:17|36:17|58:84,1,115,12|0,0:2|2:2,0:2:0:0:
35,152,90941,2,0,B|51:169|51:169|23:267,1,115,8|4,0:2|0:3,0:0:0:0:
71,325,91332,6,0,P|138:310|141:260,1,115,14|8,0:2|0:3,0:2:0:0:
206,219,91723,2,0,B|224:213|224:213|274:272|274:272|308:256,1,115,8|4,0:2|0:3,0:2:0:0:
290,264,92050,1,4,0:3:0:0:
290,264,92115,1,8,0:2:0:0:
444,216,92376,6,0,L|505:228,2,38.3333333333333,0|8|8,0:2|0:2|0:2,0:0:0:0:
407,176,92636,2,0,L|346:188,2,38.3333333333333,8|8|6,0:2|0:2|0:2,0:0:0:0:
444,136,92897,6,0,P|455:113|452:75,1,57.5,8|0,1:3|1:0,0:0:0:0:
391,30,93158,1,4,1:3:0:0:
391,30,93289,2,0,B|333:41|333:41|332:43|332:43|268:55,1,115,8|4,1:2|1:3,0:0:0:0:
219,107,93680,2,0,L|140:96,2,57.5,12|0|0,1:2|2:2|1:2,0:2:0:0:
281,158,94071,2,0,P|271:216|221:215,1,115,8|4,0:2|0:3,0:2:0:0:
149,187,94463,5,14,0:2:0:0:
79,227,94593,2,0,L|90:277,2,28.75,0|8|8,0:2|0:2|0:2,0:0:0:0:
0,245,94854,2,0,L|24:114,1,115,8|8,0:2|2:2,0:2:0:0:
12,51,95245,6,0,P|44:42|76:42,1,57.5,4|8,0:2|2:2,0:2:0:0:
145,17,95506,2,0,P|173:33|196:55,1,57.5,8|0,0:3|2:2,0:2:0:0:
181,129,95767,1,4,0:3:0:0:
181,129,95897,1,12,0:3:0:0:
247,175,96028,5,6,0:2:0:0:
247,175,96159,2,0,L|303:164,1,57.5,8|0,0:2|2:2,0:2:0:0:
393,203,96419,2,0,P|406:264|359:263,1,115,8|4,0:2|0:3,0:2:0:0:
300,326,96810,2,0,B|290:307|290:307|183:319,1,115,12|0,0:2|2:2,0:2:0:0:
128,358,97202,1,8,0:2:0:0:
128,358,97332,2,0,L|112:287,1,57.5,4|0,0:2|2:2,0:2:0:0:
53,250,97593,6,0,L|64:198,2,38.3333333333333,8|8|0,0:2|0:2|0:2,0:0:0:0:
93,188,97854,2,0,L|82:136,2,38.3333333333333,8|12|8,0:3|0:3|0:3,0:0:0:0:
105,116,98115,2,0,L|80:68,2,38.3333333333333,0|8|8,0:0|0:2|0:3,0:0:0:0:
95,41,98376,2,0,L|50:12,2,38.3333333333333,0|8|4,0:2|0:2|0:3,3:0:0:0:
148,34,98636,6,0,L|276:16,1,115,12|0,0:2|0:2,0:2:0:0:
402,126,99158,6,0,P|366:71|307:125,1,126.500003860474,6|0,0:2|0:2,0:2:0:0:
282,170,99550,2,0,B|299:180|299:180|284:297,1,126.500003860474,12|0,0:2|0:2,0:2:0:0:
329,363,99941,5,14,0:2:0:0:
414,342,100071,2,0,P|434:311|430:274,1,63.2500019302369,8|8,0:2|0:2,0:0:0:0:
371,222,100332,5,10,0:2:0:0:
432,157,100463,2,0,L|507:169,1,63.2500019302369,8|4,0:2|0:3,0:0:0:0:
371,95,100723,6,0,B|359:102|359:102|228:67,1,126.500003860474,14|0,0:2|0:2,0:2:0:0:
167,29,101115,2,0,P|140:99|179:110,1,126.500003860474,14|0,0:2|0:2,0:2:0:0:
249,149,101506,5,10,0:2:0:0:
144,225,101766,5,8,0:3:0:0:
272,273,102027,5,4,0:3:0:0:
202,369,102289,5,6,0:2:0:0:
486,351,114810,6,0,P|431:290|389:306,1,120.749996315003,6|2,1:2|1:2,0:2:0:0:
244,355,115593,2,0,B|252:364|252:364|336:348,2,80.499997543335,2|2|2,1:2|1:2|1:2,0:2:0:0:
176,264,116376,6,0,L|215:142,1,120.749996315003,2|2,1:2|1:2,0:2:0:0:
95,27,117158,2,0,P|82:72|103:106,2,80.499997543335,2|2|2,1:2|1:2|1:2,0:2:0:0:
217,0,117941,6,0,P|253:5|328:106,1,160.99999508667,2|2,1:2|0:2,0:2:0:0:
439,86,118723,2,0,P|396:145|386:245,1,160.99999508667,2|2,1:2|1:2,0:2:0:0:
320,287,119506,6,0,L|337:390,2,80.499997543335,2|0|0,1:2|0:2|0:0,0:2:0:0:
264,188,120289,5,2,1:2:0:0:
173,121,120550,1,0,1:2:0:0:
76,178,120810,1,2,1:2:0:0:
61,338,121071,6,0,P|119:322|135:280,1,92,6|0,1:2|0:0,0:2:0:0:
192,245,121463,2,0,L|173:140,1,92,0|0,0:2|0:0,0:0:0:0:
146,76,121854,2,0,P|73:70|57:96,2,92,6|0|0,1:2|1:2|1:2,0:2:0:0:
306,61,122636,6,0,P|248:77|232:119,1,92,6|0,1:2|0:0,0:2:0:0:
175,154,123028,2,0,L|194:259,1,92,0|0,1:2|0:0,0:0:0:0:
221,323,123419,2,0,P|294:329|310:303,2,92,6|2|0,1:2|1:2|1:2,0:2:0:0:
360,242,124202,6,0,L|433:256,1,57.5,14|0,0:2|0:2,0:2:0:0:
416,252,124463,1,8,0:3:0:0:
464,316,124593,2,0,P|509:272|492:227,1,115,12|4,0:2|0:3,0:2:0:0:
441,167,124984,6,0,P|460:153|506:145,1,57.5,10|0,0:2|0:2,0:0:0:0:
354,153,125245,2,0,P|357:129|384:91,1,57.5,8|0,0:2|0:2,0:0:0:0:
279,197,125506,2,0,P|265:178|257:132,1,57.5,8|0,0:2|0:2,0:0:0:0:
278,54,125767,6,0,B|272:70|272:70|161:55,1,115,14|8,0:2|0:2,0:2:0:0:
115,1,126158,2,0,P|59:39|87:81,1,115,8|8,0:2|0:2,0:2:0:0:
127,132,126550,6,0,L|136:201,1,57.5,6|8,0:2|0:2,0:0:0:0:
74,242,126810,2,0,L|65:311,1,57.5,10|4,0:3|0:3,0:0:0:0:
128,351,127071,1,6,0:3:0:0:
128,351,127202,1,4,0:3:0:0:
191,289,127332,6,0,B|197:298|197:298|297:272|297:272|312:294,1,126.500003860474,6|4,0:2|2:3,0:2:0:0:
368,343,127723,2,0,P|419:288|352:269,1,126.500003860474,10|8,0:2|2:3,0:2:0:0:
341,192,128114,6,0,B|357:118,1,63.2500019302369,10|0,0:2|2:2,0:0:0:0:
304,55,128376,2,0,B|242:68,1,63.2500019302369,2|8,0:2|0:2,0:0:0:0:
209,152,128636,1,6,0:3:0:0:
209,152,128766,1,4,0:3:0:0:
123,175,128897,6,0,L|149:25,1,126.500003860474,6|8,0:2|2:3,0:2:0:0:
68,3,129289,2,0,P|11:46|42:85,1,126.500003860474,10|4,0:2|2:3,0:2:0:0:
19,168,129680,6,0,B|24:176|24:176|5:232,1,63.2500019302369,10|0,0:2|2:2,0:2:0:0:
87,264,129941,2,0,B|82:256|82:256|101:200,1,63.2500019302369,10|8,0:3|2:2,0:0:0:0:
184,175,130201,1,2,0:2:0:0:
184,175,130332,1,4,0:3:0:0:
228,252,130463,6,0,P|301:267|323:200,1,126.500003860474,6|0,0:2|2:2,0:2:0:0:
325,231,130853,1,8,0:2:0:0:
291,148,130984,2,0,L|379:136,1,63.2500019302369,2|8,0:2|0:3,0:0:0:0:
453,146,131245,6,0,B|431:163|431:163|470:275,1,126.500003860474,10|8,0:2|0:3,0:2:0:0:
463,256,131636,1,8,0:2:0:0:
432,338,131766,2,0,P|398:339|357:317,1,63.2500019302369,2|4,2:2|0:3,0:0:0:0:
323,253,132028,6,0,P|280:296|221:284,1,126.500003860474,6|8,0:2|2:2,0:2:0:0:
134,307,132419,2,0,L|140:230,1,63.2500019302369,10|8,0:2|0:3,0:0:0:0:
139,244,132680,1,4,0:3:0:0:
60,204,132810,6,0,P|79:180|88:139,1,63.2500019302369,14|0,0:2|0:0,0:0:0:0:
176,141,133071,2,0,P|172:111|149:76,1,63.2500019302369,14|8,0:2|2:3,0:2:0:0:
69,59,133332,1,6,0:3:0:0:
69,59,133462,1,4,0:3:0:0:
138,3,133593,6,0,B|262:23,1,126.500003860474,6|8,0:2|2:3,0:2:0:0:
351,20,133984,2,0,P|368:59|300:99,1,126.500003860474,10|4,0:2|2:3,0:2:0:0:
243,161,134375,6,0,B|249:223,1,63.2500019302369,10|0,0:2|2:2,0:2:0:0:
330,261,134636,2,0,B|323:323,1,63.2500019302369,6|8,0:3|0:2,0:0:0:0:
254,378,134897,1,2,2:2:0:0:
254,378,135027,1,8,0:3:0:0:
167,359,135158,6,0,B|148:365|148:365|122:289|122:289|83:303,1,126.500003860474,6|8,0:2|2:2,0:0:0:0:
97,297,135550,1,10,0:2:0:0:
16,333,135680,2,0,P|11:298|21:259,1,63.2500019302369,8|0,0:2|0:2,0:0:0:0:
60,193,135941,5,10,0:2:0:0:
195,212,136201,1,6,0:3:0:0:
329,239,136462,1,2,0:2:0:0:
452,150,136723,6,0,L|441:107,3,42.1666679534912,14|8|8|8,0:2|0:2|0:2|2:3,0:0:0:0:
368,37,137158,6,0,B|356:50|356:50|233:38,1,126.500003860474,8|0,0:2|0:0,0:0:0:0:
247,39,137506,2,0,L|174:61,1,63.2500019302369,10|0,0:2|0:0,0:2:0:0:
108,100,137767,2,0,L|59:91,3,42.1666679534912,8|8|8|10,0:2|0:2|0:2|0:2,0:0:0:0:
25,203,138201,5,8,0:2:0:0:
46,224,138289,2,0,P|75:220|112:198,1,63.2500019302369,14|4,0:2|0:3,0:2:0:0:
182,165,138550,2,0,P|211:169|248:191,1,63.2500019302369,8|10,0:2|0:2,0:0:0:0:
263,270,138810,1,8,0:3:0:0:
416,358,139071,6,0,B|425:353|425:353|406:290,1,63.2500019302369,14|8,0:2|0:3,0:0:0:0:
345,240,139332,2,0,B|336:235|336:235|355:172,1,63.2500019302369,14|8,0:2|0:3,0:0:0:0:
432,144,139593,1,6,0:3:0:0:
432,144,139723,1,4,0:3:0:0:
392,64,139854,6,0,P|324:36|280:86,1,126.500003860474,6|0,0:2|0:0,0:2:0:0:
205,29,140245,2,0,B|215:88|215:88|212:92|212:92|223:152,1,126.500003860474,10|8,2:2|0:3,0:0:0:0:
182,231,140636,6,0,P|202:183|277:212,1,126.500003860474,10|2,0:2|0:2,0:2:0:0:
246,278,141027,2,0,L|233:349,1,63.2500019302369,8|6,2:2|0:3,0:0:0:0:
235,340,141288,1,4,0:3:0:0:
150,366,141419,6,0,B|115:358|127:316|127:316|140:276|95:261,1,126.500003860474,6|8,0:2|2:3,0:2:0:0:
27,219,141810,2,0,P|100:221|98:179,1,126.500003860474,14|4,0:2|2:3,0:2:0:0:
40,121,142201,6,0,B|36:51,1,63.2500019302369,10|0,0:2|2:2,0:2:0:0:
107,4,142462,2,0,P|138:7|165:23,1,63.2500019302369,2|8,0:2|0:2,0:0:0:0:
193,112,142723,1,6,0:3:0:0:
193,112,142853,1,4,0:3:0:0:
221,196,142984,6,0,B|259:185|299:184|299:184|314:150|296:127,1,126.500003860474,6|0,0:2|0:0,0:2:0:0:
292,44,143375,2,0,P|324:45|350:63,1,63.2500019302369,8|2,0:2|2:2,0:0:0:0:
433,106,143636,5,4,0:3:0:0:
433,106,143767,2,0,P|386:147|453:213,1,126.500003860474,10|0,0:2|0:2,0:2:0:0:
413,290,144158,2,0,L|491:273,2,63.2500019302369,8|6|4,0:2|0:3|0:3,0:0:0:0:
342,345,144550,5,6,0:2:0:0:
262,306,144680,2,0,P|280:244|226:218,1,126.500003860474,0|8,0:0|0:2,0:0:0:0:
147,236,145071,1,0,0:0:0:0:
147,236,145202,1,4,2:3:0:0:
69,194,145332,6,0,P|65:159|87:126,1,63.2500019302369,10|0,0:2|2:2,0:0:0:0:
30,59,145593,2,0,P|51:31|90:23,1,63.2500019302369,8|8,0:2|0:2,0:0:0:0:
150,73,145854,1,4,0:3:0:0:
150,73,145984,1,4,0:3:0:0:
227,115,146115,6,0,B|212:118|212:118|202:235,1,126.500003860474,6|0,0:2|0:0,0:2:0:0:
197,317,146506,2,0,P|274:305|267:256,1,126.500003860474,4|8,2:3|0:3,0:0:0:0:
321,195,146897,6,0,P|379:219|369:288,1,126.500003860474,10|0,0:2|2:2,0:2:0:0:
379,275,147289,1,8,0:2:0:0:
455,320,147419,2,0,B|461:293|461:293|463:292|463:292|473:253,1,63.2500019302369,6|4,0:3|0:3,0:0:0:0:
509,179,147680,6,0,B|478:170|492:128|492:128|507:81|464:68,1,126.500003860474,6|8,0:2|2:3,0:2:0:0:
406,14,148071,2,0,B|395:33|395:33|280:48,1,126.500003860474,8|4,0:2|0:3,0:2:0:0:
209,10,148463,6,0,P|181:57|230:105,1,126.500003860474,14|2,0:2|0:2,0:2:0:0:
308,130,148854,2,0,L|292:207,1,63.2500019302369,8|2,2:2|0:2,0:0:0:0:
295,191,149115,1,0,2:2:0:0:
206,188,149245,6,0,B|182:262|230:248|207:321,1,126.500003860474,6|0,0:2|0:0,0:2:0:0:
136,361,149636,2,0,B|128:372|128:372|8:319,1,126.500003860474,8|8,2:2|0:3,0:0:0:0:
0,228,150028,6,0,P|60:193|88:237,1,126.500003860474,14|0,0:2|1:2,0:0:0:0:
87,228,150419,1,8,0:2:0:0:
140,156,150550,2,0,L|132:77,1,63.2500019302369,4|4,0:3|0:3,0:0:0:0:
189,25,150810,6,0,B|214:20|214:20|249:88|249:88|290:78,1,126.500003860474,6|8,0:2|0:3,0:2:0:0:
340,24,151201,2,0,P|375:26|417:46,1,63.2500019302369,4|0,0:2|2:2,0:2:0:0:
401,36,151462,1,8,0:3:0:0:
445,112,151593,6,0,L|426:201,1,63.2500019302369,10|0,0:2|0:2,0:0:0:0:
350,210,151854,2,0,L|369:299,1,63.2500019302369,8|8,0:2|0:3,0:0:0:0:
419,346,152114,1,6,0:3:0:0:
419,346,152245,1,4,0:3:0:0:
334,372,152376,6,0,P|279:318|239:337,1,126.500003860474,6|8,0:2|2:3,0:2:0:0:
165,378,152767,2,0,L|149:241,1,126.500003860474,2|4,0:2|2:3,0:2:0:0:
141,163,153158,6,0,B|206:156|192:99|192:99|173:30|271:32,1,189.750005790711,14|8,0:2|0:2,0:2:0:0:
410,68,153810,1,4,0:3:0:0:
429,154,153941,6,2,P|382:173|366:83,1,126.500003860474,6|0,0:2|0:0,0:2:0:0:
321,33,154332,2,0,B|311:42|311:42|149:26,1,126.500003860474,8|0,2:3|2:2,0:0:0:0:
111,12,154723,6,0,P|90:49|78:91,1,63.2500019302369,14|0,0:2|2:2,0:2:0:0:
8,117,154984,2,0,P|20:183|35:209,1,63.2500019302369,2|8,0:2|0:2,0:0:0:0:
71,250,155245,1,2,0:2:0:0:
71,250,155376,1,4,2:3:0:0:
142,301,155506,6,0,L|282:273,1,126.500003860474,6|0,0:2|2:2,0:0:0:0:
266,276,155897,1,8,0:2:0:0:
342,320,156028,2,0,L|356:269,3,31.6250009651184,8|0|0|0,0:2|0:0|2:2|0:0,0:2:0:0:
389,268,156289,2,0,L|403:217,3,31.6250009651184,10|8|0|0,0:2|0:2|0:2|0:2,0:0:0:0:
432,209,156550,6,0,P|418:172|386:151,1,63.2500019302369,12|8,0:2|0:2,0:0:0:0:
288,180,156810,2,0,P|302:143|334:122,1,63.2500019302369,12|4,0:2|0:3,0:2:0:0:
387,68,157071,5,14,0:2:0:0:
41,2,158636,6,0,P|12:49|66:81,1,115,6|0,1:2|1:2,0:2:0:0:
117,37,159028,2,0,B|130:25|130:25|247:41,1,115,10|0,0:2|1:2,0:2:0:0:
303,62,159419,1,10,0:2:0:0:
323,221,159680,6,0,P|291:249|266:254,1,57.5,2|8,1:2|0:2,0:2:0:0:
228,317,159941,2,0,P|195:293|170:290,1,57.5,2|0,1:2|0:2,0:2:0:0:
106,320,160202,5,10,0:2:0:0:
106,320,160332,2,0,B|74:327|74:327|70:326|70:326|44:331,1,57.5,2|2,1:2|1:2,0:0:0:0:
4,263,160593,2,0,P|12:204|61:210,1,115,10|0,0:2|1:2,0:2:0:0:
110,145,160984,6,0,L|168:167,1,57.5,10|8,0:2|0:2,0:0:0:0:
234,195,161245,2,0,L|278:158,1,57.5,10|8,0:2|0:2,0:0:0:0:
173,250,161506,2,0,L|182:306,1,57.5,2|0,1:2|3:2,0:0:0:0:
245,356,161767,6,0,B|289:342|307:292|259:248|259:248,1,115,6|0,1:2|0:2,0:2:0:0:
338,219,162158,2,0,L|463:248,1,115,10|0,0:2|1:2,0:0:0:0:
507,187,162550,1,10,0:2:0:0:
452,61,162810,6,0,P|424:65|397:86,1,57.5,2|8,1:2|1:2,0:0:0:0:
339,133,163071,2,0,L|283:125,1,57.5,10|4,1:2|0:3,0:0:0:0:
229,63,163332,6,0,B|212:59|212:59|174:126|174:126|134:110,1,115,6|8,1:2|0:2,0:0:0:0:
74,112,163723,2,0,P|129:153|110:198,1,115,10|0,0:2|0:2,0:2:0:0:
56,241,164115,6,0,L|71:309,1,57.5,14|0,1:2|0:2,0:0:0:0:
148,284,164376,2,0,L|133:352,1,57.5,6|0,1:3|0:2,0:0:0:0:
215,328,164636,2,0,L|230:396,1,57.5,6|0,1:3|0:2,0:0:0:0:
299,346,164897,6,0,P|359:316|356:264,1,115,6|0,1:2|1:2,0:2:0:0:
282,252,165289,2,0,B|268:253|268:253|251:140,1,115,10|0,0:2|1:2,0:2:0:0:
253,153,165615,1,0,1:2:0:0:
253,153,165680,1,10,0:2:0:0:
373,46,165941,6,0,P|376:73|396:104,1,57.5,2|8,1:2|0:2,0:0:0:0:
456,145,166202,2,0,P|453:172|433:203,1,57.5,2|0,1:2|0:0,0:0:0:0:
389,262,166462,5,10,0:2:0:0:
389,262,166593,2,0,B|393:287|393:287|392:291|392:291|397:322,1,57.5,2|2,1:2|1:2,0:0:0:0:
333,369,166854,2,0,B|266:376|307:334|209:340,1,115,10|0,0:2|1:2,0:2:0:0:
155,299,167245,6,0,P|170:258|192:241,1,57.5,10|8,0:2|0:2,0:0:0:0:
122,191,167506,2,0,P|161:172|189:176,1,57.5,10|8,0:2|0:2,0:0:0:0:
189,93,167767,2,0,P|230:108|247:130,1,57.5,2|0,1:2|3:2,0:2:0:0:
273,190,168028,5,6,1:2:0:0:
273,190,168158,1,8,0:2:0:0:
341,146,168289,2,0,L|335:73,1,57.5,8|10,0:2|0:3,0:0:0:0:
416,80,168550,2,0,L|422:7,2,57.5,0|4|14,0:0|1:3|0:2,0:0:0:0:
494,220,169071,6,0,P|489:248|473:272,1,57.5,10|0,1:3|1:2,0:0:0:0:
416,329,169332,2,0,P|398:297|400:256,1,57.5,2|0,1:3|0:2,0:0:0:0:
327,234,169593,6,0,B|321:228|321:228|250:249,1,57.5,6|0,1:2|0:0,0:0:0:0:
219,301,169854,1,8,0:2:0:0:
62,339,170115,1,10,0:2:0:0:
5,188,170376,5,14,0:2:0:0:
121,143,170636,1,2,0:2:0:0:
132,264,170897,1,2,0:2:0:0:
241,382,171158,5,8,0:2:0:0:
241,382,171550,1,8,0:2:0:0:
241,382,171941,5,8,1:2:0:0:
255,221,172202,1,8,1:2:0:0:
265,60,172462,1,8,1:2:0:0:
361,49,172723,6,0,B|436:102|370:193|300:153|300:153|359:136|449:208|404:306|404:306|305:207|217:258|217:258|206:363|71:359|71:359|40:295|63:211|151:207|151:207|82:212|11:182|42:93|42:93|135:143|183:84|193:34|193:34|151:-21|81:16|81:16|106:34|112:31,1,1586.9999515686,6|0,1:2|0:2,0:2:0:0:
