osu file format v14

[General]
AudioFilename: audio.mp3
AudioLeadIn: 0
PreviewTime: 101376
Countdown: 0
SampleSet: Soft
StackLeniency: 0.7
Mode: 0
LetterboxInBreaks: 0
WidescreenStoryboard: 1

[Editor]
DistanceSpacing: 1.1
BeatDivisor: 4
GridSize: 32
TimelineZoom: 1.600005

[Metadata]
Title:Anemone no Hana
TitleUnicode:アネモネの花
Artist:fhana
ArtistUnicode:fhana
Creator:Sotarks
Version:Akitoshi's Normal
Source:
Tags:japanese female vocalist Junichi Sato yuxuki waga kevin mitsunaga towana lantis world atlast kalibe iljaaz reform kujinn akitoshi -laura- corinn kowari
BeatmapID:2349541
BeatmapSetID:1124422

[Difficulty]
HPDrainRate:4
CircleSize:3
OverallDifficulty:4
ApproachRate:5.3
SliderMultiplier:1.75
SliderTickRate:1

[Events]
//Background and Video events
0,0,"bg.jpg",0,0
//Break Periods
2,46141,47917
2,102489,107396
//Storyboard Layer 0 (Background)
//Storyboard Layer 1 (Fail)
//Storyboard Layer 2 (Pass)
//Storyboard Layer 3 (Foreground)
//Storyboard Layer 4 (Overlay)
//Storyboard Sound Samples

[TimingPoints]
550,521.739130434783,3,2,22,52,1,0
3680,-100,3,2,22,52,0,0
6810,-100,3,2,22,52,0,0
19332,-100,3,2,0,52,0,0
20636,-100,3,2,0,52,0,0
20897,-100,3,2,22,52,0,0
31854,-100,3,2,22,52,0,0
45941,-100,3,2,22,52,0,0
47506,-100,3,2,22,52,0,0
51419,-100,3,2,22,52,0,0
52202,-100,3,1,22,82,0,1
77245,-100,3,1,22,82,0,0
99158,-100,3,2,22,82,0,0
99550,-100,3,2,22,82,0,0
100723,-100,3,2,22,82,0,0
101115,-100,3,2,22,82,0,0
101506,-100,3,2,22,82,0,0
102289,-100,3,2,22,52,0,0
108550,-125,3,2,22,52,0,0
114810,-125,3,2,22,62,0,0
121071,-111.111111111111,3,2,22,72,0,0
124202,-100,3,1,22,82,0,0
125767,-100,3,2,22,82,0,0
127332,-100,3,1,22,92,0,1
157071,-100,3,2,22,82,0,0
157136,-100,3,2,22,32,0,0
158376,-100,3,2,22,42,0,0
158636,-100,3,2,22,52,0,0
169854,-100,3,1,22,52,0,0
171158,-100,3,2,22,52,0,0
171941,-100,3,2,22,52,0,0
172202,-100,3,2,22,52,0,0
172463,-100,3,2,22,52,0,0
172723,-100,3,2,22,52,0,0
172789,-100,3,2,22,12,0,0

[Colours]
Combo1 : 69,113,226
Combo2 : 255,91,13
Combo3 : 252,255,117
Combo4 : 132,224,255

[HitObjects]
313,314,6028,6,0,P|261:316|229:332,2,87.5,8|8|4,0:2|0:2|0:3,0:0:0:0:
409,321,6810,6,0,B|422:277|422:277|406:234,1,87.5,6|0,1:2|1:2,0:2:0:0:
394,190,7202,2,0,P|337:199|262:212,1,131.25,10|10,0:2|0:2,0:2:0:0:
169,227,7854,1,2,1:2:0:0:
133,137,8115,1,2,1:2:0:0:
197,65,8376,2,0,P|259:86|338:46,2,131.25,10|10|10,0:2|0:2|0:2,0:0:0:0:
111,21,9419,1,10,0:2:0:0:
27,68,9680,1,2,1:2:0:0:
53,160,9941,6,0,B|126:146|109:194|189:181,2,131.25,6|10|10,1:2|0:2|0:2,0:2:0:0:
2,241,10984,1,2,1:2:0:0:
57,319,11245,1,2,1:2:0:0:
147,284,11506,2,0,P|204:282|237:298,1,87.5,6|8,1:2|0:2,0:0:0:0:
272,318,11897,2,0,P|280:264|293:174,1,131.25,10|10,0:2|1:3,0:2:0:0:
308,93,12550,1,6,1:3:0:0:
392,47,12810,1,6,1:3:0:0:
477,91,13071,6,0,P|497:138|497:179,1,87.5,6|0,1:2|1:2,0:2:0:0:
488,221,13463,2,0,P|440:214|371:273,1,131.25,10|10,0:2|0:2,0:2:0:0:
336,348,14115,1,2,1:2:0:0:
239,348,14376,1,2,1:2:0:0:
168,282,14636,6,0,B|92:309|92:309|80:292|52:277,2,131.25,10|10|10,0:2|0:2|0:2,0:0:0:0:
258,248,15680,1,10,0:2:0:0:
304,163,15941,1,2,1:2:0:0:
248,84,16202,2,0,P|188:98|126:50,2,131.25,6|10|14,1:2|0:2|0:2,0:2:0:0:
327,29,17245,1,2,1:2:0:0:
423,29,17506,1,2,1:2:0:0:
486,101,17767,6,0,P|474:157|466:220,1,87.5,2|8,1:2|0:2,0:0:0:0:
431,216,18158,2,0,P|443:272|455:347,1,131.25,10|10,0:2|1:3,0:2:0:0:
363,374,18810,1,6,1:3:0:0:
266,374,19071,1,6,1:3:0:0:
222,287,19332,6,0,B|155:283|162:316|93:311,2,131.25,8|8|8,0:2|0:2|0:2,0:0:0:0:
318,292,20376,1,8,0:2:0:0:
352,202,20636,1,10,0:2:0:0:
301,120,20897,6,0,B|235:137|235:137|192:124|186:78,1,131.25,6|8,1:2|0:0,0:2:0:0:
53,48,21680,2,0,P|48:99|45:148,1,87.5,8|0,0:2|1:2,0:2:0:0:
36,231,22202,1,0,1:2:0:0:
100,302,22463,6,0,P|158:274|238:298,1,131.25,2|8,1:2|0:0,0:2:0:0:
354,344,23245,2,0,P|398:337|446:328,1,87.5,8|0,0:2|1:2,0:2:0:0:
472,237,23767,1,0,1:2:0:0:
436,147,24028,6,0,B|348:138|385:183|283:171,1,131.25,2|8,1:2|0:0,0:2:0:0:
171,132,24810,2,0,P|178:82|209:35,2,87.5,8|2|8,0:2|0:0|0:2,0:0:0:0:
215,218,25593,2,0,B|228:261|236:304|236:304|192:355,1,131.25,2|8,1:2|1:2,1:2:0:0:
78,272,26376,2,0,P|61:232|65:175,1,87.5,10|0,0:2|1:2,0:2:0:0:
79,94,26897,1,0,1:2:0:0:
175,92,27158,6,0,P|235:116|297:93,1,131.25,2|8,1:2|0:0,0:2:0:0:
434,57,27941,2,0,P|461:91|468:136,1,87.5,8|0,0:2|1:2,0:2:0:0:
446,227,28463,1,0,1:2:0:0:
371,287,28723,2,0,B|283:280|318:326|221:317,1,131.25,2|8,1:2|0:0,0:2:0:0:
102,300,29506,2,0,P|91:238|86:207,1,87.5,8|0,0:2|3:2,0:0:0:0:
75,117,30028,1,2,0:0:0:0:
138,42,30289,6,0,P|179:36|232:52,1,87.5,2|0,3:2|1:2,0:2:0:0:
301,102,30810,1,2,0:0:0:0:
230,168,31071,2,0,B|219:222|219:222|234:246|234:246|221:310,1,131.25,8|8,0:2|1:2,0:2:0:0:
359,345,31854,2,0,P|390:284|363:197,1,131.25,10|8,0:2|0:2,0:0:0:0:
301,102,32636,2,0,P|308:53|317:-3,2,87.5,10|6|6,1:3|1:3|1:3,0:2:0:0:
230,168,33419,6,0,B|151:153|151:153|130:178|86:195,1,131.25,6|8,1:2|0:2,0:2:0:0:
11,270,34202,2,0,P|7:324|22:364,1,87.5,8|0,0:2|3:2,0:2:0:0:
111,374,34723,1,0,1:2:0:0:
177,303,34984,6,0,P|258:313|330:322,1,131.25,2|8,1:2|0:0,0:2:0:0:
446,278,35767,2,0,P|459:229|450:189,1,87.5,8|0,0:2|3:2,0:2:0:0:
396,114,36289,1,0,3:2:0:0:
310,157,36550,6,0,P|250:171|180:112,1,131.25,2|8,1:2|0:0,0:2:0:0:
112,17,37332,2,0,P|97:106|94:206,1,175,8|0,0:2|1:2,0:2:0:0:
89,287,38115,6,0,P|48:303|4:305,2,87.5,8|8|4,3:3|3:3|1:3,0:2:0:0:
178,252,38897,2,0,P|221:253|262:269,1,87.5,8|8,0:2|0:2,0:2:0:0:
340,325,39419,1,6,3:3:0:0:
427,285,39680,6,0,B|434:237|434:237|415:206|415:206|427:133,1,131.25,2|8,1:2|0:0,0:2:0:0:
387,30,40463,2,0,P|341:19|295:28,1,87.5,8|0,0:2|1:2,0:2:0:0:
214,65,40984,1,0,1:2:0:0:
278,138,41245,6,0,P|267:215|260:284,1,131.25,0|8,1:2|0:0,0:2:0:0:
148,358,42028,2,0,P|83:358|62:345,1,87.5,8|0,0:2|1:2,0:0:0:0:
1,274,42550,1,2,3:3:0:0:
28,183,42810,6,0,P|87:129|167:129,1,131.25,0|8,1:2|0:0,0:2:0:0:
278,142,43593,2,0,B|325:182|325:182|446:155,1,175,8|2,0:2|0:2,0:2:0:0:
501,227,44376,1,10,0:2:0:0:
455,311,44636,2,0,P|408:318|364:308,1,87.5,8|0,0:2|0:0,0:0:0:0:
277,279,45158,2,0,P|234:286|191:279,2,87.5,8|8|4,0:2|1:3|1:3,0:0:0:0:
349,215,45941,5,2,1:2:0:0:
256,192,49071,12,14,50636,1:2:0:0:
136,213,51419,6,0,P|91:218|45:202,2,87.5,10|10|6,0:2|0:2|0:3,0:2:0:0:
190,132,52202,6,0,P|234:138|294:144,1,87.5,6|4,0:2|2:3,0:2:0:0:
316,169,52593,2,0,P|360:163|420:157,1,87.5,10|8,0:2|2:3,0:2:0:0:
450,149,52984,2,0,P|476:196|474:235,1,87.5,10|2,0:2|0:2,0:2:0:0:
424,310,53506,1,6,0:3:0:0:
328,295,53767,6,0,P|283:296|242:318,1,87.5,6|8,0:2|2:3,0:2:0:0:
202,336,54158,2,0,P|157:335|116:313,1,87.5,10|4,0:2|2:3,0:2:0:0:
90,276,54550,2,0,P|101:219|106:179,1,87.5,10|10,0:2|0:3,0:2:0:0:
118,94,55071,1,2,0:2:0:0:
197,38,55332,6,0,P|246:81|312:67,1,131.25,6|10,0:2|0:2,0:2:0:0:
450,57,56115,2,0,P|460:108|468:147,1,87.5,10|8,0:2|0:3,0:2:0:0:
483,237,56636,1,2,2:2:0:0:
399,284,56897,6,0,P|352:273|315:283,1,87.5,6|8,0:2|2:2,0:2:0:0:
270,303,57289,2,0,P|248:265|247:222,1,87.5,10|4,0:2|0:3,0:0:0:0:
252,174,57680,1,14,0:2:0:0:
181,108,57941,1,14,0:2:0:0:
84,108,58202,1,6,0:3:0:0:
29,187,58463,6,0,P|21:235|38:278,1,87.5,6|8,0:2|2:3,0:2:0:0:
56,313,58854,2,0,P|104:305|147:322,1,87.5,10|4,0:2|2:3,0:2:0:0:
181,341,59245,2,0,P|227:333|278:325,1,87.5,10|6,0:2|0:3,0:2:0:0:
362,308,59767,1,2,2:2:0:0:
447,263,60028,6,0,P|455:213|442:180,1,87.5,6|0,0:2|2:2,0:2:0:0:
397,161,60419,2,0,P|389:111|402:78,1,87.5,10|0,0:2|0:2,0:2:0:0:
389,31,60810,2,0,P|335:35|283:41,1,87.5,10|6,0:2|0:3,0:2:0:0:
205,49,61332,1,2,0:2:0:0:
135,115,61593,6,0,B|163:195|163:195|136:260,1,131.25,14|8,0:2|0:2,0:2:0:0:
29,324,62376,2,0,P|10:293|6:241,1,87.5,10|8,0:2|0:2,0:2:0:0:
47,156,62897,1,10,0:2:0:0:
135,115,63158,6,0,P|185:126|231:110,1,87.5,14|8,0:2|0:2,0:2:0:0:
262,95,63550,2,0,P|312:84|358:100,1,87.5,10|8,0:2|0:2,0:2:0:0:
388,116,63941,1,14,0:2:0:0:
438,197,64202,1,14,0:2:0:0:
400,285,64463,1,6,0:3:0:0:
311,323,64723,6,0,P|269:318|215:311,1,87.5,6|0,0:2|0:0,0:2:0:0:
188,278,65115,2,0,P|146:283|92:290,1,87.5,10|8,2:2|0:3,0:0:0:0:
53,292,65506,2,0,P|32:243|39:201,1,87.5,10|2,0:2|0:2,0:2:0:0:
71,121,66028,1,6,0:3:0:0:
147,62,66289,6,0,P|206:75|246:65,1,87.5,6|8,0:2|2:3,0:2:0:0:
270,41,66680,2,0,P|329:28|369:38,1,87.5,14|4,0:2|2:3,0:2:0:0:
399,50,67071,2,0,P|409:108|415:139,1,87.5,10|2,0:2|0:2,0:2:0:0:
429,231,67593,1,6,0:3:0:0:
386,317,67854,6,0,B|303:309|334:358|232:338,1,131.25,6|8,0:2|2:2,0:2:0:0:
161,236,68636,2,0,P|194:205|247:192,1,87.5,10|0,0:2|0:2,0:2:0:0:
330,197,69158,1,6,0:3:0:0:
328,102,69419,6,0,P|264:93|161:77,1,131.25,6|8,0:2|0:2,0:2:0:0:
54,101,70202,2,0,P|31:150|35:189,1,87.5,10|8,0:2|0:2,0:2:0:0:
69,271,70723,1,4,0:3:0:0:
157,230,70984,6,0,B|226:209|210:264|297:238,1,131.25,6|8,0:2|0:2,0:2:0:0:
410,173,71767,2,0,P|456:171|504:190,1,87.5,10|2,0:2|2:2,0:2:0:0:
501,280,72289,1,6,0:3:0:0:
437,351,72550,6,0,P|347:362|279:371,1,131.25,6|8,0:2|2:2,0:2:0:0:
162,376,73332,2,0,P|117:370|73:365,1,87.5,14|2,0:2|0:2,0:2:0:0:
14,290,73854,1,2,0:2:0:0:
62,206,74115,6,0,P|112:228|201:173,1,131.25,6|8,0:2|0:2,0:2:0:0:
299,120,74897,2,0,P|341:124|400:130,2,87.5,14|2|4,0:2|2:2|0:3,0:2:0:0:
223,59,75680,6,0,P|173:37|87:89,1,131.25,6|6,0:2|2:2,0:2:0:0:
21,180,76463,2,0,P|29:223|38:274,1,87.5,10|8,0:2|0:2,0:0:0:0:
118,322,76984,1,6,0:3:0:0:
200,272,77245,6,0,B|274:291|274:291|293:271|344:262,2,131.25,6|8|14,0:2|0:2|0:2,0:2:0:0:
142,194,78289,1,2,2:2:0:0:
214,130,78550,1,8,0:2:0:0:
309,141,78810,2,0,P|317:79|331:3,2,131.25,6|8|10,0:2|0:2|0:2,0:2:0:0:
399,174,79854,2,0,P|411:238|415:267,1,87.5,12|4,0:2|0:3,0:2:0:0:
454,347,80376,6,0,P|385:352|326:304,2,131.25,6|8|0,0:2|2:2|0:2,0:2:0:0:
506,266,81419,2,0,P|499:222|490:179,1,87.5,4|8,0:2|0:2,0:0:0:0:
403,138,81941,2,0,P|321:162|266:115,1,131.25,6|8,0:2|2:0,0:0:0:0:
250,107,82463,1,4,0:3:0:0:
189,33,82723,2,0,P|135:47|93:57,1,87.5,14|4,0:3|0:3,0:2:0:0:
9,72,83245,1,4,0:3:0:0:
50,159,83506,6,0,B|28:230|28:230|34:258|55:279,2,131.25,6|8|8,0:2|0:2|0:2,0:0:0:0:
146,161,84550,2,0,P|187:175|252:151,1,87.5,4|8,0:2|0:2,0:0:0:0:
310,115,85071,2,0,B|349:189|349:189|330:233|329:262,1,131.25,6|6,0:2|2:2,0:2:0:0:
327,281,85593,1,2,0:2:0:0:
398,346,85854,1,6,0:2:0:0:
488,313,86115,2,0,P|505:274|497:216,1,87.5,8|0,0:2|0:2,0:0:0:0:
438,157,86636,6,0,P|454:103|474:12,2,131.25,14|12|12,0:2|0:2|0:2,0:2:0:0:
400,246,87680,1,8,0:2:0:0:
309,280,87941,1,0,0:2:0:0:
218,246,88202,2,0,P|171:263|125:260,1,87.5,14|8,0:3|0:3,0:0:0:0:
85,262,88593,2,0,P|84:218|68:178,1,87.5,10|8,0:2|0:3,0:0:0:0:
35,142,88984,2,0,P|43:102|53:52,1,87.5,6|10,0:2|0:3,0:2:0:0:
142,20,89506,1,10,0:3:0:0:
226,67,89767,6,0,P|258:113|356:98,1,131.25,6|2,0:2|2:2,0:0:0:0:
465,71,90550,2,0,P|425:111|440:188,1,131.25,12|2,0:2|2:2,0:2:0:0:
474,319,91332,2,0,P|426:327|382:330,1,87.5,14|4,0:2|0:3,0:2:0:0:
338,330,91723,2,0,P|337:285|314:241,1,87.5,8|0,0:2|2:0,0:0:0:0:
285,211,92115,2,0,P|293:163|296:119,2,87.5,14|4|0,0:2|0:3|0:2,0:2:0:0:
220,282,92897,6,0,P|162:307|72:278,1,131.25,0|8,0:0|0:2,0:0:0:0:
0,212,93680,2,0,P|42:205|153:188,1,131.25,12|8,0:2|2:2,0:2:0:0:
273,173,94463,2,0,P|269:130|283:88,1,87.5,14|8,0:2|0:2,0:2:0:0:
354,20,94984,1,0,0:0:0:0:
426,83,95245,2,0,P|469:76|512:69,2,87.5,4|8|4,0:2|0:3|0:3,0:2:0:0:
353,144,96028,6,0,P|281:131|190:116,1,131.25,6|8,0:2|2:2,0:0:0:0:
81,148,96810,2,0,P|65:194|77:248,1,87.5,12|0,0:2|1:2,0:2:0:0:
150,284,97332,1,4,0:2:0:0:
241,252,97593,2,0,P|233:189|223:114,2,131.25,8|8|0,0:2|0:2|0:0,0:0:0:0:
280,339,98636,2,0,P|325:345|365:332,1,87.5,12|0,0:2|0:2,0:2:0:0:
445,280,99158,6,0,B|477:243|477:243|446:149,1,131.25,6|12,0:2|0:2,0:2:0:0:
401,29,99941,2,0,B|356:38|356:38|316:26|316:26|265:39,1,131.25,14|10,0:2|0:2,0:0:0:0:
135,78,100723,2,0,P|128:131|122:174,1,87.5,14|0,0:2|0:2,0:2:0:0:
93,203,101115,2,0,P|100:256|106:299,1,87.5,14|0,0:2|0:2,0:2:0:0:
110,337,101506,5,10,0:2:0:0:
199,372,101767,1,8,0:3:0:0:
270,307,102028,1,4,0:3:0:0:
359,342,102289,1,6,0:2:0:0:
240,90,108550,6,0,P|344:53|403:121,2,210,2|2|2,0:2|0:2|0:2,0:0:0:0:
75,307,110897,2,0,P|166:296|229:284,1,140,2|2,0:2|3:2,0:0:0:0:
300,260,111680,6,0,P|404:297|463:229,1,210,2|2,3:2|3:2,0:2:0:0:
474,142,112723,1,4,3:2:0:0:
404,83,112984,1,6,3:2:0:0:
316,109,113245,1,2,0:2:0:0:
316,109,114810,6,0,P|254:88|137:172,2,210,6|2|2,1:2|1:2|1:2,0:2:0:0:
457,342,117158,2,0,P|380:333|311:325,1,140,2|2,1:2|1:2,0:2:0:0:
228,308,117941,6,0,P|127:324|52:255,2,210,2|2|2,1:2|1:2|1:2,0:2:0:0:
458,161,120289,2,0,P|440:101|420:18,1,140,2|2,1:2|1:2,0:2:0:0:
335,34,121071,6,0,P|275:80|193:61,1,157.499995193482,6|0,1:2|0:0,0:2:0:0:
118,32,121854,2,0,P|90:87|88:112,1,78.7499975967408,6|0,1:2|1:2,0:2:0:0:
84,190,122376,1,0,1:2:0:0:
148,246,122636,2,0,P|229:251|314:258,1,157.499995193482,6|2,1:2|0:2,0:2:0:0:
374,309,123419,2,0,P|414:306|457:303,1,78.7499975967408,6|2,1:2|1:2,0:2:0:0:
509,237,123941,1,0,1:2:0:0:
455,157,124202,6,0,B|410:133|410:133|313:164,2,131.25,14|12|10,0:2|0:2|0:2,0:2:0:0:
508,237,125245,1,8,0:2:0:0:
477,328,125506,1,8,0:2:0:0:
380,328,125767,6,0,B|324:311|297:317|297:317|272:342|234:353,1,131.25,14|2,0:2|0:0,0:2:0:0:
114,357,126550,2,0,P|61:348|19:342,1,87.5,6|10,0:2|0:3,0:0:0:0:
0,250,127071,1,6,0:3:0:0:
56,171,127332,6,0,P|107:175|148:155,1,87.5,6|4,0:2|2:3,0:2:0:0:
183,140,127723,2,0,P|234:136|275:156,1,87.5,10|8,0:2|2:3,0:2:0:0:
304,181,128115,2,0,P|297:232|294:272,1,87.5,10|2,0:2|0:2,0:2:0:0:
348,347,128636,1,6,0:3:0:0:
442,326,128897,6,0,P|457:287|449:239,1,87.5,6|8,0:2|2:3,0:2:0:0:
422,202,129289,2,0,P|407:163|415:115,1,87.5,10|4,0:2|2:3,0:2:0:0:
434,75,129680,2,0,P|379:64|345:57,1,87.5,10|10,0:2|0:3,0:2:0:0:
252,42,130202,1,2,0:2:0:0:
195,120,130463,6,0,P|235:165|228:260,1,131.25,6|8,0:2|0:2,0:2:0:0:
124,320,131245,2,0,P|83:310|35:300,1,87.5,10|8,0:2|0:3,0:2:0:0:
1,211,131766,1,2,2:2:0:0:
75,150,132028,6,0,P|122:161|159:151,1,87.5,6|8,0:2|2:2,0:2:0:0:
195,120,132419,2,0,P|233:98|276:97,1,87.5,10|4,0:2|0:3,0:0:0:0:
321,111,132810,1,14,0:2:0:0:
393,174,133071,1,14,0:2:0:0:
393,270,133332,1,6,0:3:0:0:
320,333,133593,6,0,P|271:341|232:347,1,87.5,6|8,0:2|2:3,0:2:0:0:
191,370,133984,2,0,P|142:361|103:355,1,87.5,10|4,0:2|2:3,0:2:0:0:
56,346,134376,2,0,P|43:308|53:255,1,87.5,10|6,0:2|0:3,0:2:0:0:
104,182,134897,1,2,2:2:0:0:
194,215,135158,6,0,P|244:223|277:210,1,87.5,6|8,0:2|2:2,0:2:0:0:
317,181,135550,2,0,P|367:173|400:186,1,87.5,10|0,0:2|0:2,0:2:0:0:
441,210,135941,2,0,P|445:166|448:122,1,87.5,10|6,0:2|0:3,0:2:0:0:
405,36,136463,1,2,0:2:0:0:
321,83,136723,6,0,B|250:105|250:105|213:99|199:53,1,131.25,14|8,0:2|0:2,0:2:0:0:
72,17,137506,2,0,P|55:60|62:114,1,87.5,10|8,0:2|0:2,0:2:0:0:
97,188,138027,1,10,0:2:0:0:
185,226,138289,6,0,P|235:221|280:215,1,87.5,14|8,0:2|0:2,0:2:0:0:
308,184,138680,2,0,P|358:189|403:195,1,87.5,10|8,0:2|0:2,0:2:0:0:
443,198,139071,1,14,0:2:0:0:
494,279,139332,1,14,0:2:0:0:
435,355,139593,1,6,0:3:0:0:
343,323,139854,6,0,P|300:315|254:330,1,87.5,6|0,0:2|0:0,0:2:0:0:
215,348,140245,2,0,P|172:356|126:341,1,87.5,10|8,2:2|0:3,0:0:0:0:
90,317,140636,2,0,P|84:273|77:224,1,87.5,10|2,0:2|0:2,0:2:0:0:
67,134,141158,1,6,0:3:0:0:
147,62,141419,6,0,P|206:75|246:65,1,87.5,6|8,0:2|2:3,0:2:0:0:
270,41,141810,2,0,P|329:28|369:38,1,87.5,14|4,0:2|2:3,0:2:0:0:
399,50,142201,2,0,P|409:108|415:139,1,87.5,10|2,0:2|0:2,0:2:0:0:
428,231,142723,1,6,0:3:0:0:
343,277,142984,6,0,P|304:238|211:243,1,131.25,6|8,0:2|2:2,0:2:0:0:
110,313,143767,2,0,P|64:303|14:294,1,87.5,10|0,0:2|0:2,0:2:0:0:
0,202,144288,1,6,0:3:0:0:
56,123,144550,6,0,P|124:146|175:102,1,131.25,6|8,0:2|0:2,0:2:0:0:
292,40,145332,2,0,P|297:80|293:128,1,87.5,10|8,0:2|0:2,0:2:0:0:
246,211,145853,1,4,0:3:0:0:
305,290,146115,6,0,B|384:284|348:326|437:317,1,131.25,6|8,0:2|0:2,0:2:0:0:
505,194,146897,2,0,P|499:148|493:107,1,87.5,10|2,0:2|2:2,0:2:0:0:
446,22,147419,1,6,0:3:0:0:
387,98,147680,6,0,B|332:81|296:105|296:105|229:94,1,131.25,6|8,0:2|2:2,0:2:0:0:
120,67,148463,2,0,P|100:108|102:155,1,87.5,14|2,0:2|0:2,0:2:0:0:
134,239,148984,1,2,0:2:0:0:
217,192,149245,6,0,B|294:211|294:211|306:195|353:180,1,131.25,6|8,0:2|0:2,0:2:0:0:
456,101,150028,2,0,P|436:56|436:8,2,87.5,14|2|4,0:2|2:2|0:3,0:2:0:0:
508,181,150810,6,0,P|496:267|487:338,1,131.25,6|8,0:2|2:2,0:2:0:0:
485,359,151332,1,6,0:3:0:0:
392,333,151593,2,0,P|350:321|298:335,1,87.5,10|8,0:2|0:2,0:0:0:0:
220,369,152114,1,6,0:3:0:0:
129,335,152376,6,0,P|94:275|112:208,1,131.25,6|8,0:2|0:2,0:2:0:0:
225,136,153158,2,0,P|271:140|315:144,1,87.5,14|2,0:2|2:2,0:2:0:0:
375,71,153680,1,6,0:3:0:0:
281,26,153941,6,2,B|199:15|222:57|129:41,1,131.25,6|8,0:2|0:2,0:2:0:0:
19,98,154723,2,0,P|7:143|17:187,1,87.5,14|2,0:2|0:2,0:2:0:0:
74,258,155245,1,2,0:2:0:0:
146,194,155506,6,0,B|226:174|226:174|250:195|298:214,2,131.25,6|8|8,0:2|0:2|0:2,0:0:0:0:
74,258,156550,1,12,0:2:0:0:
145,321,156810,1,12,0:2:0:0:
236,291,157071,5,14,0:2:0:0:
236,291,158376,1,8,0:3:0:0:
266,200,158636,6,0,B|304:219|304:219|351:212,1,87.5,6|0,1:2|1:2,0:2:0:0:
396,201,159028,2,0,P|420:127|379:62,1,131.25,10|10,0:2|0:2,0:2:0:0:
325,19,159680,1,2,1:2:0:0:
228,19,159941,1,2,1:2:0:0:
172,97,160202,6,0,P|178:141|183:187,1,87.5,10|2,0:2|1:2,0:0:0:0:
224,207,160593,2,0,P|214:272|205:338,1,131.25,10|10,0:2|0:2,0:2:0:0:
116,374,161245,1,10,0:2:0:0:
30,328,161506,1,2,1:2:0:0:
17,232,161767,6,0,P|16:163|49:106,2,131.25,6|10|10,1:2|0:2|0:2,0:2:0:0:
30,328,162810,1,2,1:2:0:0:
116,374,163071,1,2,1:2:0:0:
205,336,163332,2,0,P|255:342|308:350,1,87.5,6|8,1:2|0:2,0:0:0:0:
336,365,163723,2,0,P|386:359|439:351,1,87.5,10|0,0:2|0:2,0:2:0:0:
469,341,164115,2,0,P|473:285|461:252,1,87.5,14|6,1:2|1:3,0:2:0:0:
420,169,164636,1,6,1:3:0:0:
334,212,164897,6,0,P|286:204|236:195,1,87.5,6|0,1:2|1:2,0:2:0:0:
200,186,165289,2,0,P|155:209|75:188,1,131.25,10|10,0:2|0:2,0:2:0:0:
10,123,165941,1,2,1:2:0:0:
65,44,166202,1,2,1:2:0:0:
158,67,166463,2,0,P|218:59|252:55,1,87.5,10|2,0:2|1:2,0:0:0:0:
284,28,166854,2,0,P|360:38|431:47,1,131.25,10|10,0:2|0:2,0:2:0:0:
484,110,167506,1,10,0:2:0:0:
484,206,167767,1,2,1:2:0:0:
394,241,168028,6,0,P|344:215|255:238,2,131.25,6|10|14,1:2|0:3|0:2,0:2:0:0:
462,309,169071,1,10,1:3:0:0:
397,380,169332,1,2,1:3:0:0:
323,317,169593,2,0,P|253:331|219:339,1,87.5,6|8,1:2|0:2,0:0:0:0:
194,357,169984,2,0,P|124:343|90:335,1,87.5
61,326,170376,1,14,0:2:0:0:
20,239,170636,2,0,P|12:183|28:143,1,87.5,2|2,0:2|0:2,0:0:0:0:
107,198,171158,6,0,P|158:238|241:220,2,131.25,8|8|8,0:2|0:2|1:2,0:2:0:0:
103,101,172202,1,8,1:2:0:0:
177,39,172463,1,8,1:2:0:0:
267,69,172723,1,6,1:2:0:0:
256,192,172854,12,0,178723,0:2:0:0:
