osu file format v14

[General]
AudioFilename: audio.mp3
AudioLeadIn: 0
PreviewTime:51613
Countdown: 0
SampleSet: Soft
StackLeniency: 0.3
Mode: 0
LetterboxInBreaks: 0
WidescreenStoryboard: 1

[Editor]
DistanceSpacing: 1.2
BeatDivisor: 4
GridSize: 4
TimelineZoom: 2.4

[Metadata]
Title:Ai no Supreme! (TV Size)
TitleUnicode:愛のシュプリーム!(TV Size)
Artist:fhana
ArtistUnicode:fhána
Creator:toybot
Version:Normal
Source:小林さんちのメイドラゴンS
Tags:love miss kobayashi's dragon maid s kobayashi-san chi no maidragon opening op anime pop japanese towana junichi sato yuxuki waga kevin mitsunaga sing seolv vikala lukas [_l_u_k_a_s_]
BeatmapID:3100244
BeatmapSetID:1513912

[Difficulty]
HPDrainRate:4
CircleSize:3.2
OverallDifficulty:4
ApproachRate:5
SliderMultiplier:1.4
SliderTickRate:1

[Events]
//Background and Video events
Video,-650,"OP video.mp4"
0,0,"kanna.jpg",0,0
//Break Periods
//Storyboard Layer 0 (Background)
//Storyboard Layer 1 (Fail)
//Storyboard Layer 2 (Pass)
//Storyboard Layer 3 (Foreground)
//Storyboard Layer 4 (Overlay)
//Storyboard Sound Samples

[TimingPoints]
169,444.444444444444,4,2,1,50,1,0
6391,-100,4,2,1,70,0,0
7280,-100,4,2,1,60,0,0
7724,-100,4,2,1,70,0,0
14391,-100,4,2,1,60,0,0
35613,-100,4,2,1,70,0,0
36169,-100,4,2,1,60,0,0
37502,-100,4,2,1,70,0,0
37947,-100,4,2,1,60,0,0
39169,-100,4,2,1,70,0,0
39725,-100,4,2,1,60,0,0
41058,-100,4,2,1,70,0,0
41503,-100,4,2,1,60,0,0
42724,-100,4,2,1,70,0,0
43280,-100,4,2,1,60,0,0
44613,-100,4,2,1,70,0,0
45058,-100,4,2,1,60,0,0
46280,-100,4,2,1,70,0,0
46836,-100,4,2,1,60,0,0
48614,-100,4,2,1,70,0,0
49058,-100,4,2,1,80,0,0
50169,-100,4,2,1,50,0,0
50836,-100,4,2,1,80,0,0
51724,-100,4,2,1,80,0,1
80168,-100,4,2,1,70,0,0
86835,-100,4,2,1,40,0,0
87280,-100,4,2,1,5,0,0

[Colours]
Combo1 : 128,0,128
Combo2 : 255,128,0
Combo3 : 255,147,255
Combo4 : 255,0,128
Combo5 : 255,192,0

[HitObjects]
478,355,169,6,0,P|440:345|408:343,1,70,4|0,1:2|0:0,0:0:0:0:
335,300,613,2,0,P|291:310|230:310,2,105,8|0|0,0:0|1:0|0:0,0:0:0:0:
404,252,1502,1,8,0:0:0:0:
404,252,1724,1,0,1:0:0:0:
334,205,1946,6,0,P|317:174|316:139,1,70,0|0,1:0|0:0,0:0:0:0:
381,86,2391,2,0,P|431:98|465:143,2,105,8|0|0,0:0|1:0|0:0,0:0:0:0:
300,60,3280,1,8,0:0:0:0:
218,39,3502,1,0,1:0:0:0:
161,100,3724,6,0,P|167:141|169:169,1,70,0|0,1:0|0:0,0:0:0:0:
161,253,4168,2,0,P|155:320|154:363,2,105,8|0|0,0:0|1:0|0:0,0:0:0:0:
90,207,5057,1,8,0:0:0:0:
90,207,5280,1,0,1:0:0:0:
13,241,5502,6,0,P|1:208|9:174,1,70,0|0,1:0|0:0,0:0:0:0:
55,104,5946,2,0,P|108:100|159:91,1,105,8|0,0:0|1:0,0:0:0:0:
192,65,6391,2,0,P|234:65|274:105,1,70,12|8,0:0|0:3,0:0:0:0:
309,144,6835,2,0,P|307:202|276:229,1,70,8|4,0:0|0:3,0:0:0:0:
225,246,7280,5,4,1:0:0:0:
371,327,7724,2,0,B|399:314|433:320|433:320|452:306|443:279,2,105,12|0|8,0:0|1:2|0:3,0:0:0:0:
300,370,8613,1,10,0:0:0:0:
300,370,8835,1,0,1:0:0:0:
221,339,9057,6,0,P|186:329|151:329,1,70,2|0,1:2|0:0,0:0:0:0:
84,279,9502,2,0,P|33:316|41:369,2,105,10|0|8,0:0|1:2|0:3,0:0:0:0:
163,249,10391,1,10,0:0:0:0:
146,166,10613,1,4,0:3:0:0:
62,168,10835,6,0,P|52:134|50:99,1,70,0|0,1:0|0:0,0:0:0:0:
118,50,11280,2,0,P|76:19|24:20,2,105,12|0|8,0:0|1:2|0:3,0:0:0:0:
204,41,12168,1,10,0:0:0:0:
204,41,12391,1,0,1:0:0:0:
266,96,12613,6,0,P|304:93|339:60,1,70,2|0,1:2|0:0,0:0:0:0:
388,15,13057,2,0,P|390:77|397:119,1,105,10|4,0:0|1:2,0:0:0:0:
426,149,13502,2,0,P|435:196|411:237,1,70,0|8,1:0|0:3,0:0:0:0:
364,267,13946,2,0,P|329:272|297:259,1,70,12|4,0:0|0:3,0:0:0:0:
246,192,14391,5,4,1:2:0:0:
78,207,14835,1,8,0:0:0:0:
78,375,15280,2,0,L|8:367,2,70,0|2|8,1:0|0:3|0:0,0:0:0:0:
150,332,15946,1,2,0:3:0:0:
226,366,16168,6,0,P|231:316|233:226,1,140,0|8,1:0|0:0,0:0:0:0:
169,171,16835,1,0,1:0:0:0:
222,106,17057,2,0,P|216:71|213:36,2,70,0|2|8,1:0|0:3|0:0,0:0:0:0:
285,161,17724,1,10,0:3:0:0:
367,144,17946,5,0,1:0:0:0:
292,295,18391,1,8,0:0:0:0:
443,367,18835,2,0,P|457:339|467:301,2,70,0|2|8,1:0|0:3|0:0,0:0:0:0:
359,378,19502,1,2,0:3:0:0:
382,297,19724,6,0,B|392:221|359:237|371:158,1,140,0|8,1:0|0:0,0:0:0:0:
269,24,20613,1,0,1:0:0:0:
185,36,20835,1,2,0:3:0:0:
237,101,21057,1,8,0:0:0:0:
137,236,21502,6,0,P|81:240|23:167,1,140,0|8,1:0|0:0,0:0:0:0:
93,29,22391,2,0,P|101:68|101:98,1,70,0|2,1:0|0:3,0:0:0:0:
172,143,22835,1,8,0:0:0:0:
217,72,23057,1,2,0:3:0:0:
273,133,23280,6,0,P|259:202|258:272,1,140,0|8,1:0|0:0,0:0:0:0:
401,360,24168,1,0,1:0:0:0:
474,318,24391,1,2,0:3:0:0:
417,255,24613,2,0,P|405:227|410:185,1,70,8|10,0:0|0:3,0:0:0:0:
479,142,25057,6,0,L|490:2,1,140,0|12,1:0|0:0,0:0:0:0:
332,60,25946,2,0,L|321:200,1,140,0|12,1:0|0:0,0:0:0:0:
262,260,26613,1,0,0:0:0:0:
309,329,26835,2,0,P|379:313|447:306,2,140,0|12|0,1:0|0:0|1:0,0:0:0:0:
232,363,27946,1,2,0:3:0:0:
148,354,28168,2,0,P|112:333|99:295,1,70,12|8,0:0|0:3,0:0:0:0:
122,226,28613,5,4,1:0:0:0:
285,189,29057,1,12,0:0:0:0:
173,62,29502,2,0,L|87:53,2,70,0|10|8,1:0|0:3|0:0,0:0:0:0:
251,31,30168,1,2,1:3:0:0:
296,102,30391,6,0,B|349:105|387:67|387:67|411:82|392:115,1,140,0|8,1:0|0:0,0:0:0:0:
371,180,31057,1,0,1:0:0:0:
285,189,31280,2,0,P|234:177|181:173,1,105,0|0,1:0|0:0,0:0:0:0:
142,187,31724,2,0,P|106:242|118:269,1,70,8|2,0:0|0:3,0:0:0:0:
145,314,32168,5,0,1:0:0:0:
312,301,32613,1,8,0:0:0:0:
479,287,33057,2,0,P|472:329|473:356,2,70,0|10|8,1:0|0:3|0:0,0:0:0:0:
425,221,33724,1,2,1:3:0:0:
488,163,33946,6,0,P|486:128|465:102,1,70,0|0,1:0|0:0,0:0:0:0:
386,72,34391,2,0,P|351:76|327:100,1,70,8|0,0:0|0:0,0:0:0:0:
301,182,34835,1,0,0:0:0:0:
301,182,35057,1,2,1:3:0:0:
227,223,35280,6,0,P|171:210|122:209,2,105,8|6|2,0:0|1:0|1:0,0:0:0:0:
297,269,36168,1,8,0:0:0:0:
152,354,36613,2,0,P|115:360|77:360,1,70,0|2,1:0|0:0,0:0:0:0:
12,314,37057,1,8,0:0:0:0:
60,153,37502,6,0,L|41:14,2,140,2|8|0,1:0|0:0|1:0,0:0:0:0:
123,209,38613,1,0,0:0:0:0:
195,166,38835,2,0,P|228:157|263:154,1,70,8|2,0:0|0:0,0:0:0:0:
326,210,39280,6,0,L|317:301,2,70,0|2|8,1:0|1:0|0:0,0:0:0:0:
480,145,40168,2,0,P|491:98|485:58,1,70,0|2,1:0|0:0,0:0:0:0:
426,20,40613,1,8,0:0:0:0:
265,69,41057,6,0,B|193:82|202:37|125:45,1,140,2|8,1:0|0:0,0:0:0:0:
54,82,41724,2,0,P|41:142|109:161,1,140,2|2,0:0|0:0,0:0:0:0:
183,191,42391,6,0,L|176:295,2,105,8|2|2,0:0|1:0|1:0,0:0:0:0:
191,107,43280,1,12,0:0:0:0:
355,138,43724,2,0,P|412:134|457:75,2,105,0|0|2,1:0|0:0|1:2,0:0:0:0:
282,95,44613,6,0,L|276:25,1,70,2|0,1:0|0:0,0:0:0:0:
193,13,45057,1,8,0:0:0:0:
114,161,45502,2,0,P|55:158|10:105,2,105,2|2|2,1:3|0:3|0:0,0:0:0:0:
191,128,46391,6,0,B|210:175|210:175|190:262,1,140,0|8,1:0|0:0,0:0:0:0:
330,355,47280,2,0,P|396:363|445:292,1,140,0|8,1:0|0:0,0:0:0:0:
385,251,47946,1,4,1:2:0:0:
431,181,48168,6,0,L|494:174,2,46.6666666666667,0|8|2,1:0|3:0|3:0,0:0:0:0:
386,146,48613,2,0,L|323:139,2,46.6666666666667,8|8|2,0:0|3:0|3:0,0:0:0:0:
428,109,49057,5,2,1:0:0:0:
381,38,49280,1,2,1:0:0:0:
297,28,49502,1,2,1:0:0:0:
226,72,49724,2,0,B|201:82|172:69|172:69|181:124|127:179|70:151,1,210,6|8,1:0|0:0,0:0:0:0:
21,312,50835,1,8,1:2:0:0:
21,312,51280,2,0,P|63:293|114:293,1,70,12|0,1:2|0:0,0:0:0:0:
151,237,51724,6,0,L|314:267,1,140,4|8,1:0|0:0,0:0:0:0:
352,316,52391,2,0,P|406:317|446:220,1,140,4|2,0:0|1:2,0:0:0:0:
448,168,53057,1,8,0:0:0:0:
369,136,53280,1,2,1:2:0:0:
293,175,53502,6,0,P|233:146|231:80,1,140,0|8,1:0|0:0,0:0:0:0:
300,32,54168,1,2,1:2:0:0:
300,32,54391,2,0,L|439:18,1,140,0|8,1:0|0:0,0:0:0:0:
496,177,55280,6,0,P|484:269|483:316,1,140,2|8,1:0|0:0,0:0:0:0:
407,352,55946,2,0,P|352:300|272:317,1,140,2|2,1:0|1:2,0:0:0:0:
218,346,56613,1,8,0:0:0:0:
137,321,56835,1,2,1:2:0:0:
62,359,57057,5,0,1:0:0:0:
7,199,57502,2,0,P|1:154|0:69,2,105,8|0|2,0:0|1:0|1:2,0:0:0:0:
84,228,58391,2,0,P|119:226|146:205,1,70,8|2,0:0|0:0,0:0:0:0:
189,133,58835,6,0,P|255:140|327:153,1,140,4|8,1:0|0:0,0:0:0:0:
406,124,59502,2,0,P|468:154|459:238,1,140,2|2,1:0|1:2,0:0:0:0:
433,293,60168,1,8,0:0:0:0:
349,302,60391,1,2,1:2:0:0:
290,242,60613,6,0,B|251:237|222:257|222:257|204:229|163:217,1,140,0|8,1:0|0:0,0:0:0:0:
93,261,61280,1,2,1:2:0:0:
93,261,61502,2,0,P|81:205|76:121,1,140,0|8,1:0|0:0,0:0:0:0:
223,40,62391,6,0,P|168:11|111:28,2,105,0|2|2,1:0|0:0|1:2,0:0:0:0:
285,94,63280,2,0,P|329:67|380:67,2,105,0|2|2,1:0|0:0|1:2,0:0:0:0:
252,173,64168,6,0,P|245:211|243:242,1,70,4|0,1:0|1:0,0:0:0:0:
318,283,64613,1,8,0:0:0:0:
275,354,64835,1,0,1:0:0:0:
200,316,65057,2,0,P|146:318|95:327,2,105,12|0|8,0:0|1:0|0:3,0:0:0:0:
244,242,65946,6,0,P|240:180|158:134,1,140,4|8,1:0|0:0,0:0:0:0:
99,148,66613,2,0,B|100:96|114:50|114:50|157:40,1,140,4|0,0:0|1:0,0:0:0:0:
236,27,67280,1,8,0:0:0:0:
302,78,67502,1,2,1:2:0:0:
385,70,67724,6,0,P|379:155|369:209,1,140,0|8,1:0|0:0,0:0:0:0:
305,263,68391,1,2,1:2:0:0:
305,263,68613,2,0,B|299:306|330:327|330:327|374:321|387:287,1,140,0|8,1:0|0:0,0:0:0:0:
277,163,69502,6,0,B|206:151|217:193|118:178,1,140,2|8,1:0|0:0,0:0:0:0:
67,139,70168,2,0,P|22:188|38:254,1,140,2|2,1:0|1:2,0:0:0:0:
123,260,70835,1,8,0:0:0:0:
199,296,71057,1,2,1:2:0:0:
244,367,71280,5,0,1:0:0:0:
367,252,71724,2,0,P|421:243|471:239,2,105,8|0|0,0:0|1:0|0:0,0:0:0:0:
288,220,72613,2,0,P|281:186|282:151,1,70,8|0,0:0|0:0,0:0:0:0:
295,68,73057,6,0,P|335:42|402:53,2,105,4|2|0,1:0|0:0|1:0,0:0:0:0:
216,97,73946,2,0,P|176:71|109:82,2,105,0|2|0,1:0|0:0|1:0,0:0:0:0:
282,151,74835,6,0,P|282:191|275:220,1,70,0|2,1:0|0:0,0:0:0:0:
209,272,75280,1,8,0:0:0:0:
126,255,75502,1,2,1:2:0:0:
45,279,75724,2,0,P|34:228|33:176,2,105,2|2|2,1:0|0:1|0:1,0:0:0:0:
256,192,76613,12,12,79280,0:0:0:0:
327,355,80168,6,0,P|262:359|221:279,1,140,4|8,1:0|0:0,0:0:0:0:
254,226,80835,1,2,1:0:0:0:
337,232,81057,2,0,P|335:173|324:92,1,140,0|8,1:0|0:0,0:0:0:0:
176,12,81946,2,0,P|141:16|115:38,1,70,2|2,1:2|0:0,0:0:0:0:
74,112,82391,1,8,0:0:0:0:
137,166,82613,2,0,P|202:175|254:226,1,140,2|2,0:0|1:3,0:0:0:0:
221,303,83280,1,8,0:0:0:0:
380,354,83724,6,0,P|429:350|452:254,1,140,0|10,1:0|0:0,0:0:0:0:
395,221,84391,1,0,1:0:0:0:
443,152,84613,2,0,B|443:111|454:61|454:61|410:8,1,140,0|8,1:0|0:0,0:0:0:0:
278,110,85502,1,12,0:0:0:0:
202,72,85724,1,8,0:3:0:0:
120,93,85946,1,4,0:3:0:0:
89,171,86168,6,0,B|196:274|128:448|-61:362|13:243|74:267,1,350,4|0,1:0|0:0,0:0:0:0:
