osu file format v14

[General]
AudioFilename: audio.mp3
AudioLeadIn: 0
PreviewTime: 51613
Countdown: 0
SampleSet: Soft
StackLeniency: 0.3
Mode: 0
LetterboxInBreaks: 0
WidescreenStoryboard: 0

[Editor]
DistanceSpacing: 0.9
BeatDivisor: 4
GridSize: 4
TimelineZoom: 2.4

[Metadata]
Title:Ai no Supreme! (TV Size)
TitleUnicode:愛のシュプリーム!(TV Size)
Artist:fhana
ArtistUnicode:fhána
Creator:toybot
Version:My Angel Kanna
Source:小林さんちのメイドラゴンS
Tags:love miss kobayashi's dragon maid s kobayashi-san chi no maidragon opening op anime pop japanese towana junichi sato yuxuki waga kevin mitsunaga sing seolv vikala lukas [_l_u_k_a_s_]
BeatmapID:3099518
BeatmapSetID:1513912

[Difficulty]
HPDrainRate:6
CircleSize:4.2
OverallDifficulty:8
ApproachRate:9
SliderMultiplier:2
SliderTickRate:1

[Events]
//Background and Video events
Video,-650,"OP video.mp4"
0,0,"kanna.jpg",0,0
//Break Periods
//Storyboard Layer 0 (Background)
//Storyboard Layer 1 (Fail)
//Storyboard Layer 2 (Pass)
//Storyboard Layer 3 (Foreground)
//Storyboard Layer 4 (Overlay)
//Storyboard Sound Samples

[TimingPoints]
169,444.444444444444,4,2,1,50,1,0
6391,-100,4,2,1,70,0,0
7280,-100,4,2,1,60,0,0
7724,-66.6666666666667,4,2,1,70,0,0
8280,-100,4,2,1,70,0,0
8613,-66.6666666666667,4,2,1,70,0,0
10058,-100,4,2,1,70,0,0
11280,-66.6666666666667,4,2,1,70,0,0
11836,-100,4,2,1,70,0,0
12169,-66.6666666666667,4,2,1,70,0,0
13613,-100,4,2,1,70,0,0
13947,-200,4,2,1,70,0,0
14391,-66.6666666666667,4,2,1,60,0,0
14836,-66.6666666666667,4,2,1,60,0,0
15280,-100,4,2,1,60,0,0
16058,-66.6666666666667,4,2,1,60,0,0
16613,-100,4,2,1,60,0,0
17502,-66.6666666666667,4,2,1,60,0,0
17836,-100,4,2,1,60,0,0
20613,-66.6666666666667,4,2,1,60,0,0
21502,-100,4,2,1,60,0,0
23280,-66.6666666666667,4,2,1,60,0,0
24724,-100,4,2,1,60,0,0
26391,-66.6666666666667,4,2,1,60,0,0
26836,-100,4,2,1,60,0,0
27613,-66.6666666666667,4,2,1,60,0,0
30391,-100,4,2,1,60,0,0
31280,-66.6666666666667,4,2,1,60,0,0
31947,-100,4,2,1,60,0,0
32169,-66.6666666666667,4,2,1,60,0,0
33058,-100,4,2,1,60,0,0
33502,-66.6666666666667,4,2,1,60,0,0
35613,-66.6666666666667,4,2,1,70,0,0
35724,-57.1428571428571,4,2,1,70,0,0
36058,-66.6666666666667,4,2,1,70,0,0
36169,-66.6666666666667,4,2,1,60,0,0
36280,-80,4,2,1,60,0,0
36613,-66.6666666666667,4,2,1,60,0,0
36947,-80,4,2,1,60,0,0
37169,-100,4,2,1,60,0,0
37502,-100,4,2,1,70,0,0
37947,-100,4,2,1,60,0,0
38058,-66.6666666666667,4,2,1,60,0,0
39169,-66.6666666666667,4,2,1,70,0,0
39280,-100,4,2,1,70,0,0
39725,-100,4,2,1,60,0,0
40724,-66.6666666666667,4,2,1,60,0,0
41058,-66.6666666666667,4,2,1,70,0,0
41503,-66.6666666666667,4,2,1,60,0,0
42169,-100,4,2,1,60,0,0
42391,-66.6666666666667,4,2,1,60,0,0
42613,-50,4,2,1,60,0,0
42724,-50,4,2,1,70,0,0
43280,-66.6666666666667,4,2,1,60,0,0
44613,-66.6666666666667,4,2,1,70,0,0
45058,-66.6666666666667,4,2,1,60,0,0
45169,-57.1428571428571,4,2,1,60,0,0
45502,-66.6666666666667,4,2,1,60,0,0
46280,-66.6666666666667,4,2,1,70,0,0
46836,-100,4,2,1,60,0,0
47280,-66.6666666666667,4,2,1,60,0,0
47613,-100,4,2,1,60,0,0
48169,-66.6666666666667,4,2,1,60,0,0
48614,-66.6666666666667,4,2,1,70,0,0
49058,-66.6666666666667,4,2,1,80,0,0
50169,-66.6666666666667,4,2,1,50,0,0
50836,-66.6666666666667,4,2,1,80,0,0
51724,-50,4,2,1,80,0,1
52169,-66.6666666666667,4,2,1,80,0,1
55280,-50,4,2,1,80,0,1
55724,-66.6666666666667,4,2,1,80,0,1
58836,-50,4,2,1,80,0,1
59280,-66.6666666666667,4,2,1,80,0,1
64169,-50,4,2,1,80,0,1
64391,-66.6666666666667,4,2,1,80,0,1
64613,-66.6666666666667,4,2,1,80,0,1
64836,-100,4,2,1,80,0,1
65057,-50,4,2,1,80,0,1
65724,-100,4,2,1,80,0,1
65946,-50,4,2,1,80,0,1
66836,-66.6666666666667,4,2,1,80,0,1
67502,-100,4,2,1,80,0,1
67724,-66.6666666666667,4,2,1,80,0,1
69502,-50,4,2,1,80,0,1
70391,-66.6666666666667,4,2,1,80,0,1
72613,-50,4,2,1,80,0,1
73058,-66.6666666666667,4,2,1,80,0,1
74836,-50,4,2,1,80,0,1
75058,-66.6666666666667,4,2,1,80,0,1
75502,-100,4,2,1,80,0,1
75724,-50,4,2,1,80,0,1
76613,-66.6666666666667,4,2,1,80,0,1
77058,-100,4,2,1,80,0,1
77280,-57.1428571428571,4,2,1,80,0,1
78169,-50,4,2,1,80,0,1
80168,-200,4,2,1,70,0,0
80613,-66.6666666666667,4,2,1,70,0,0
85724,-100,4,2,1,70,0,0
85947,-200,4,2,1,70,0,0
86835,-200,4,2,1,40,0,0
87280,-200,4,2,1,5,0,0

[Colours]
Combo1 : 128,0,128
Combo2 : 255,128,0
Combo3 : 255,147,255
Combo4 : 255,0,128
Combo5 : 255,192,0

[HitObjects]
36,134,169,6,0,P|32:109|20:87,1,50,4|0,1:2|0:0,0:0:0:0:
184,157,391,2,0,P|195:135|214:118,1,50
134,24,613,2,0,P|121:81|116:122,1,100,8|0,0:0|0:0,0:0:0:0:
104,198,947,1,0,1:0:0:0:
87,210,1058,6,0,P|137:222|141:297,1,100,0|0,1:0|0:0,0:0:0:0:
226,294,1502,2,0,P|273:285|294:241,1,100,8|0,0:0|1:0,0:0:0:0:
294,242,1947,6,0,P|327:236|361:257,1,50,0|0,1:0|0:0,0:0:0:0:
461,116,2169,2,0,P|447:136|446:161,1,50
359,154,2391,2,0,P|330:113|308:68,1,100,8|0,0:0|0:0,0:0:0:0:
243,17,2724,1,0,1:0:0:0:
222,21,2836,6,0,P|188:67|227:112,1,100,0|0,1:0|0:0,0:0:0:0:
142,155,3280,2,0,P|155:200|202:210,1,100,8|0,0:0|1:0,0:0:0:0:
202,210,3724,6,0,P|213:231|216:256,1,50,0|0,1:0|0:0,0:0:0:0:
393,263,3947,2,0,P|371:277|357:297,1,50
274,352,4169,2,0,P|280:303|294:255,1,100,8|0,0:0|0:0,0:0:0:0:
324,176,4502,1,0,1:0:0:0:
345,189,4613,6,0,P|382:158|379:110,1,100,0|0,1:0|0:0,0:0:0:0:
311,62,5058,2,0,P|264:74|246:118,1,100,8|0,0:0|1:0,0:0:0:0:
246,119,5502,6,0,P|226:135|202:141,1,50,0|0,1:0|0:0,0:0:0:0:
198,322,5724,2,0,P|184:301|162:289,1,50
315,249,5947,2,0,P|292:240|268:237,1,50,8|0,0:0|0:0,0:0:0:0:
111,174,6169,1,0,0:0:0:0:
117,194,6280,1,0,1:0:0:0:
192,216,6391,5,12,0:0:0:0:
428,115,6613,1,8,0:3:0:0:
396,367,6836,1,8,0:0:0:0:
345,237,6984,5,4,0:3:0:0:
345,237,7058,2,0,P|366:246|393:249,1,50,4|0,0:3|0:0,0:0:0:0:
393,249,7280,6,0,P|344:249|308:282,1,100,4|0,1:0|0:0,0:0:0:0:
498,254,7724,2,0,P|471:185|403:159,1,150.000005722046,12|0,0:0|0:0,0:0:0:0:
331,137,8058,2,0,P|314:104|324:69,1,75.0000028610231,0|0,1:2|1:0,0:0:0:0:
366,7,8280,5,0,0:0:0:0:
366,7,8391,2,0,P|395:42|380:88,1,50,8|0,0:3|0:0,0:0:0:0:
329,213,8613,6,0,P|292:205|266:178,1,75.0000028610231,10|0,0:0|0:0,0:0:0:0:
89,167,8836,1,0,1:0:0:0:
89,167,9058,6,0,P|151:141|172:33,1,150.000005722046,2|0,1:2|0:0,0:0:0:0:
92,8,9391,1,0,0:0:0:0:
115,24,9502,2,0,P|126:62|129:97,1,75.0000028610231,10|0,0:0|0:0,0:0:0:0:
182,313,9724,5,0,0:0:0:0:
234,258,9836,2,0,P|180:214|130:244,1,75.0000028610231,0|0,1:2|1:0,0:0:0:0:
104,275,10058,5,0,0:0:0:0:
113,254,10169,2,0,P|88:254|65:264,1,50,8|0,0:3|0:0,0:0:0:0:
26,334,10391,5,10,0:0:0:0:
89,167,10613,1,4,0:3:0:0:
316,232,10836,6,0,P|320:209|320:182,1,50,0|0,1:0|0:0,0:0:0:0:
391,239,11058,2,0,P|392:215|396:190,1,50
242,157,11280,6,0,P|314:150|350:87,1,150.000005722046,12|0,0:0|0:0,0:0:0:0:
425,87,11613,2,0,P|417:50|391:24,1,75.0000028610231,0|0,1:2|1:0,0:0:0:0:
472,155,11836,5,0,0:0:0:0:
472,155,11947,2,0,P|496:122|497:90,1,50,8|0,0:3|0:0,0:0:0:0:
320,17,12169,6,0,P|356:10|391:23,1,75.0000028610231,10|0,0:0|0:0,0:0:0:0:
501,229,12391,1,0,1:0:0:0:
501,229,12613,6,0,B|461:247|418:225|435:218|393:196|351:216,1,150.000005722046,2|0,1:2|0:0,0:0:0:0:
383,315,12947,1,0,0:0:0:0:
389,290,13058,2,0,P|371:257|337:242,1,75.0000028610231,10|0,0:0|0:0,0:0:0:0:
98,364,13280,5,0,0:0:0:0:
202,340,13391,2,0,P|228:313|238:278,1,75.0000028610231,4|0,1:2|0:0,0:0:0:0:
132,274,13613,5,0,1:0:0:0:
183,215,13724,2,0,P|182:191|171:168,1,50,8|0,0:3|0:0,0:0:0:0:
94,142,13947,6,0,L|69:144,1,25,12|8,0:0|0:3,0:0:0:0:
275,131,14169,1,4,0:3:0:0:
70,145,14391,6,0,B|108:183|177:170|199:132|199:132|202:77|252:62,1,225.000008583069,4|0,1:2|0:0,0:0:0:0:
275,131,14836,2,0,B|216:128|182:48|182:48|194:106|149:137,1,225.000008583069,8|8,0:0|0:3,0:0:0:0:
110,72,15280,5,0,1:0:0:0:
247,208,15502,1,2,0:3:0:0:
432,169,15724,2,0,P|457:127|450:79,1,100,8|2,0:0|0:3,0:0:0:0:
393,26,16058,6,0,P|422:96|432:170,2,150.000005722046,0|0|0,1:0|0:0|0:0,0:0:0:0:
339,78,16613,2,0,P|356:95|380:102,1,50,8|0,0:0|0:0,0:0:0:0:
503,226,16836,1,0,1:0:0:0:
503,226,16947,1,8,0:3:0:0:
503,226,17058,6,0,P|485:208|461:201,1,50
321,300,17280,2,0,P|345:294|364:278,1,50,2|0,0:3|0:0,0:0:0:0:
442,274,17502,2,0,B|401:283|371:253|384:249|351:215|302:230,1,150.000005722046,8|10,0:0|0:3,0:0:0:0:
168,211,17836,6,0,P|190:254|238:264,1,100,0|0,1:0|0:0,0:0:0:0:
306,228,18169,1,0,1:0:0:0:
153,77,18391,2,0,P|113:105|108:154,1,100,8|0,0:0|0:0,0:0:0:0:
168,211,18724,1,8,0:3:0:0:
168,211,18836,6,0,P|122:191|72:194,1,100,0|2,1:0|0:3,0:0:0:0:
9,234,19169,2,0,P|22:254|44:264,1,50,0|8,0:0|0:0,0:0:0:0:
112,304,19391,1,0,0:0:0:0:
102,319,19502,2,0,P|123:313|151:309,1,50,2|0,0:3|0:0,0:0:0:0:
332,323,19724,5,0,1:0:0:0:
314,299,19836,2,0,P|253:280|184:286,1,100
397,228,20169,1,8,0:0:0:0:
382,259,20280,2,0,P|425:235|474:224,1,100,0|8,0:0|0:3,0:0:0:0:
474,224,20613,6,0,P|504:175|476:127,1,75.0000028610231
407,81,20836,2,0,P|371:89|349:119,1,75.0000028610231,2|0,0:3|0:0,0:0:0:0:
397,228,21058,2,0,B|397:275|438:304|431:281|472:316|462:357,1,150.000005722046,8|10,0:0|0:3,0:0:0:0:
388,354,21391,1,0,0:0:0:0:
388,354,21502,5,0,1:0:0:0:
347,338,21613,1,0,0:0:0:0:
228,279,21836,1,0,0:0:0:0:
192,292,21947,2,0,P|157:253|174:197,1,100,8|0,0:0|0:0,0:0:0:0:
222,156,22280,2,0,P|218:118|205:57,1,100,8|0,0:3|0:0,0:0:0:0:
205,57,22613,1,2,0:3:0:0:
368,159,22836,2,0,P|338:197|289:198,1,100,8|2,0:0|0:3,0:0:0:0:
222,156,23169,1,0,0:0:0:0:
222,156,23280,6,0,P|196:129|159:126,1,75.0000028610231,0|0,1:0|0:0,0:0:0:0:
88,149,23502,1,0,0:0:0:0:
35,203,23613,2,0,P|25:238|41:271,1,75.0000028610231,0|8,1:0|0:0,0:0:0:0:
83,377,23836,2,0,P|82:326|108:229,1,150.000005722046,0|8,1:0|0:3,0:0:0:0:
107,231,24169,5,0,0:0:0:0:
152,209,24280,1,0,0:0:0:0:
170,149,24391,1,2,0:3:0:0:
138,76,24502,2,0,P|120:45|125:8,2,75.0000028610231,0|8|0,0:0|0:0|0:0,0:0:0:0:
262,98,24836,2,0,P|237:97|216:83,1,50,10|0,0:3|0:0,0:0:0:0:
216,83,25058,5,0,1:0:0:0:
262,22,25169,1,0,0:0:0:0:
334,43,25280,1,0,0:0:0:0:
258,213,25502,2,0,B|302:220|337:185|313:190|350:155|396:163,1,150,12|8,0:0|0:3,0:0:0:0:
393,163,25947,5,0,1:0:0:0:
380,242,26058,1,0,0:0:0:0:
442,289,26169,1,2,0:3:0:0:
413,88,26391,2,0,B|403:14|467:-15|540:34|500:104|456:113,1,225.000008583069,12|0,0:0|0:0,0:0:0:0:
394,164,26836,5,0,1:0:0:0:
394,164,26947,2,0,P|331:158|288:138,1,100
222,127,27280,2,0,P|267:105|300:68,1,100,12|0,0:0|1:0,0:0:0:0:
249,4,27613,6,0,P|292:100|297:168,1,150.000005722046,8|0,0:3|0:0,0:0:0:0:
315,216,27947,2,0,P|279:218|247:199,1,75.0000028610231,2|0,0:3|0:0,0:0:0:0:
72,101,28169,5,12,0:0:0:0:
83,57,28280,1,0,0:0:0:0:
148,114,28391,5,8,0:3:0:0:
154,92,28502,1,8,0:3:0:0:
222,127,28613,6,0,P|149:132|110:193,1,150.000005722046,4|0,1:0|0:0,0:0:0:0:
20,244,28947,1,0,0:0:0:0:
37,224,29058,2,0,P|109:229|148:290,1,150.000005722046,12|2,0:0|0:1,0:0:0:0:
91,342,29391,1,8,0:3:0:0:
91,342,29502,5,0,1:0:0:0:
296,329,29724,1,10,0:3:0:0:
165,365,29947,2,0,B|206:351|219:316|219:316|213:355|242:387,1,150.000005722046,8|2,0:0|1:3,0:0:0:0:
318,344,30280,1,0,0:0:0:0:
296,329,30391,6,0,P|328:317|354:277,1,50,0|0,1:0|0:0,0:0:0:0:
408,268,30613,1,0,0:0:0:0:
289,198,30836,2,0,P|321:204|342:230,1,66.6666666666667,8|0,0:0|0:0,0:0:0:0:
408,268,31058,2,0,P|417:244|417:219,1,50,0|8,1:0|0:3,0:0:0:0:
441,124,31280,5,0,0:0:0:0:
424,48,31391,1,0,0:0:0:0:
498,69,31502,1,2,0:3:0:0:
441,124,31613,2,0,P|410:144|373:149,1,75.0000028610231,0|8,0:0|0:0,0:0:0:0:
329,16,31836,5,0,0:0:0:0:
340,40,31947,2,0,P|324:83|306:96,1,50,2|0,0:3|0:0,0:0:0:0:
209,173,32169,6,0,B|226:213|282:223|313:200|313:200|300:186|299:170,1,150.000005722046,0|0,1:0|0:0,0:0:0:0:
372,149,32502,1,0,0:0:0:0:
372,148,32613,2,0,P|312:191|295:263,1,150.000005722046,8|2,0:0|0:1,0:0:0:0:
356,316,32947,1,8,0:3:0:0:
356,316,33058,6,0,P|332:333|284:338,1,50,0|0,1:0|0:0,0:0:0:0:
209,173,33280,2,0,P|235:185|264:224,1,50,10|0,0:3|0:0,0:0:0:0:
123,371,33502,2,0,B|124:331|160:307|161:325|194:304|194:248,1,150.000005722046,8|2,0:0|1:3,0:0:0:0:
194,248,33836,1,0,0:0:0:0:
194,248,33947,5,0,1:0:0:0:
117,250,34058,2,0,P|109:187|92:102,1,150.000005722046
99,26,34391,5,8,0:0:0:0:
99,26,34502,2,0,P|141:2|144:85,1,150.000005722046,0|8,0:0|0:3,0:0:0:0:
163,75,34836,5,0,0:0:0:0:
245,87,34947,1,0,0:0:0:0:
307,131,35058,1,2,1:3:0:0:
324,206,35169,1,0,0:0:0:0:
304,277,35280,2,0,B|291:295|267:305|271:289|245:299|247:327|247:327|310:282|408:301,1,225.000008583069,8|6,0:0|1:0,0:0:0:0:
393,309,35724,5,0,0:0:0:0:
475,289,35836,2,0,P|502:248|495:203,1,87.500000834465,2|2,0:3|1:0,0:0:0:0:
508,163,36058,2,0,P|485:126|447:115,1,75.0000028610231,2|8,0:3|0:0,0:0:0:0:
430,91,36280,2,0,B|396:81|365:104|382:106|352:130|313:119,1,125,2|2,0:3|0:0,0:0:0:0:
120,145,36613,5,0,1:0:0:0:
164,126,36724,2,0,P|200:135|221:165,1,75.0000028610231,2|2,0:3|0:0,0:0:0:0:
239,176,36947,2,0,P|245:207|234:236,1,62.5,2|8,0:3|0:0,0:0:0:0:
236,253,37169,2,0,P|219:271|195:278,1,50,2|2,0:3|1:2,0:0:0:0:
57,249,37391,1,0,0:0:0:0:
57,249,37502,5,2,1:0:0:0:
57,249,37613,2,0,L|50:199,1,50,2|0,0:3|0:0,0:0:0:0:
123,294,37836,2,0,L|116:358,1,50,0|8,1:3|0:0,0:0:0:0:
117,343,38058,2,0,B|169:335|219:320|219:320|239:346|294:353,1,150.000005722046,2|0,0:3|0:0,0:0:0:0:
351,252,38391,5,0,1:0:0:0:
351,252,38502,2,0,B|351:210|295:209|295:209|248:255|296:287,1,150.000005722046,2|0,0:3|0:0,0:0:0:0:
337,328,38836,1,8,0:0:0:0:
269,115,39058,2,0,P|282:150|291:187,1,75.0000028610231,2|2,0:0|1:0,0:0:0:0:
337,328,39280,6,0,P|385:327|419:292,1,100,0|2,0:0|1:0,0:0:0:0:
478,243,39613,2,0,P|475:219|463:197,1,50,0|8,0:0|0:0,0:0:0:0:
408,142,39836,2,0,P|410:102|422:43,1,100,0|2,0:0|0:0,0:0:0:0:
422,43,40169,5,0,1:0:0:0:
391,57,40280,1,0,0:0:0:0:
338,48,40391,1,2,0:0:0:0:
292,3,40502,1,0,0:0:0:0:
217,24,40613,1,8,0:0:0:0:
213,99,40724,2,0,B|204:143|240:179|242:158|275:193|264:245,1,150.000005722046
214,322,41058,5,2,1:0:0:0:
214,322,41169,2,0,B|161:319|147:273|163:236|163:236|188:231|219:211,1,150.000005722046,0|2,0:0|1:0,0:0:0:0:
345,270,41502,2,0,P|271:275|213:321,1,150.000005722046,8|2,0:0|0:0,0:0:0:0:
81,374,41836,2,0,P|65:308|131:293,1,150.000005722046
131,293,42169,6,0,L|115:244,1,50,2|0,0:0|0:0,0:0:0:0:
201,209,42391,2,0,L|169:113,1,75.0000028610231,8|0,0:0|0:0,0:0:0:0:
269,108,42613,2,0,L|237:12,1,100,2|2,0:0|1:0,0:0:0:0:
159,42,42835,6,0,P|245:63|352:92,1,200,4|2,1:0|1:0,0:0:0:0:
352,92,43169,1,0,0:0:0:0:
429,118,43280,2,0,B|444:82|480:64|480:64|436:66|410:40,1,150.000005722046,12|2,0:0|0:0,0:0:0:0:
276,111,43613,1,2,0:0:0:0:
357,96,43724,6,0,P|419:171|421:290,1,150.000005722046,0|2,1:0|0:0,0:0:0:0:
438,298,44058,1,0,0:0:0:0:
438,298,44169,2,0,P|402:295|373:272,1,75.0000028610231,8|0,0:0|0:0,0:0:0:0:
264,232,44391,5,2,1:2:0:0:
273,238,44502,1,0,0:0:0:0:
282,243,44613,2,0,P|369:227|430:220,1,150.000005722046,2|0,1:0|0:0,0:0:0:0:
492,175,44947,2,0,P|464:150|427:144,1,75.0000028610231,2|8,1:0|0:0,0:0:0:0:
264,232,45169,2,0,B|237:262|242:323|242:323|190:281|134:305,1,175.00000166893
95,293,45502,6,0,B|55:303|55:303|27:310|38:352|67:344|67:344|106:334,1,150.000005722046,2|2,1:3|0:0,0:0:0:0:
169,296,45836,2,0,B|177:257|140:224|143:245|97:210|113:153,1,150.000005722046,2|0,0:3|0:0,0:0:0:0:
82,96,46169,2,0,P|51:116|37:150,1,75.0000028610231,2|2,0:0|1:0,0:0:0:0:
37,150,46391,6,0,P|107:125|181:131,1,150.000005722046,0|2,0:0|1:0,0:0:0:0:
181,132,46724,1,0,0:0:0:0:
231,71,46836,2,0,P|227:46|222:21,1,50,8|0,0:0|0:0,0:0:0:0:
297,6,47058,2,0,P|300:30|305:55,1,50,2|2,0:0|0:0,0:0:0:0:
433,150,47280,6,0,P|407:216|337:217,1,150.000005722046,0|2,1:0|0:0,0:0:0:0:
376,91,47613,2,0,P|413:121|413:169,1,100
269,267,47947,5,4,1:2:0:0:
269,267,48169,2,0,P|221:277|171:277,1,100.000003814697,0|8,1:0|3:0,0:0:0:0:
256,348,48465,1,2,3:0:0:0:
242,183,48613,6,0,P|291:194|340:197,1,100.000003814697,8|8,0:0|3:0,0:0:0:0:
256,364,48910,1,2,3:0:0:0:
15,241,49058,5,2,1:0:0:0:
131,35,49280,5,2,1:0:0:0:
379,34,49502,5,2,1:0:0:0:
509,235,49724,6,0,B|509:192|472:161|473:185|435:157|441:100,2,150.000005722046,6|0|2,1:0|0:0|0:3,0:0:0:0:
465,305,50280,1,0,0:0:0:0:
465,305,50391,2,0,B|431:287|392:302|392:302|426:277|427:239,1,150.000005722046,8|2,0:0|0:3,0:0:0:0:
509,235,50724,1,8,0:3:0:0:
505,209,50836,5,8,1:2:0:0:
368,188,50947,1,8,0:0:0:0:
379,34,51280,5,12,1:2:0:0:
239,124,51391,2,0,B|205:127|182:107|197:103|161:58|100:97|131:163|191:109,1,150.000005722046,0|0,1:0|0:0,0:0:0:0:
243,48,51724,6,0,P|182:124|195:220,1,200,4|0,1:0|1:0,0:0:0:0:
303,310,52058,1,0,1:0:0:0:
382,277,52169,2,0,B|476:241|476:241|450:291,1,150.000005722046,8|4,0:0|0:0,0:0:0:0:
337,382,52502,1,0,0:0:0:0:
365,375,52613,6,0,P|278:351|187:352,1,150.000005722046,0|2,0:0|1:2,0:0:0:0:
53,330,52947,1,0,0:0:0:0:
53,330,53058,2,0,P|116:353|149:283,1,150.000005722046,8|2,0:0|1:2,0:0:0:0:
75,109,53502,6,0,B|98:151|82:197|72:178|57:222|94:270,1,150.000005722046,0|2,1:0|0:0,0:0:0:0:
214,246,53836,2,0,P|186:221|150:215,1,75.0000028610231,0|8,0:0|0:0,0:0:0:0:
12,62,54169,2,0,P|39:37|76:30,1,75.0000028610231,2|8,1:2|0:0,0:0:0:0:
144,72,54391,6,0,B|212:83|261:98|261:98|306:41,1,150.000005722046,0|2,0:0|1:2,0:0:0:0:
279,74,54724,1,0,0:0:0:0:
281,176,54836,2,0,B|298:199|298:199|348:183|415:173,1,150.000005722046,8|2,0:0|0:0,0:0:0:0:
416,172,55280,6,0,B|537:135|491:10|491:10|446:68|365:50,1,300,2|0,1:0|0:0,0:0:0:0:
392,262,55724,2,0,P|375:160|322:90,1,150.000005722046,8|2,0:0|1:0,0:0:0:0:
348,329,56058,1,0,1:0:0:0:
325,308,56169,6,0,B|421:290|421:290|437:362,1,150.000005722046,0|2,0:0|1:2,0:0:0:0:
199,306,56502,1,0,0:0:0:0:
199,306,56613,2,0,P|274:315|348:329,1,150.000005722046,8|2,0:0|1:2,0:0:0:0:
278,95,57058,6,0,P|241:91|207:107,1,75.0000028610231,0|0,1:0|0:0,0:0:0:0:
151,161,57280,2,0,P|136:194|139:231,1,75.0000028610231,2|0,0:0|0:0,0:0:0:0:
46,361,57502,5,8,0:0:0:0:
39,331,57613,1,0,0:0:0:0:
70,325,57725,1,2,1:2:0:0:
77,355,57836,1,0,1:0:0:0:
149,317,57947,5,0,0:0:0:0:
169,311,58058,1,0,0:0:0:0:
188,321,58169,1,2,1:2:0:0:
197,339,58280,1,0,0:0:0:0:
191,361,58391,2,0,B|236:375|273:348|248:344|291:312|340:329,1,150.000005722046,8|2,0:0|0:0,0:0:0:0:
479,356,58724,1,0,0:0:0:0:
448,357,58836,6,0,B|432:363|419:377|419:377|359:351|346:274|421:207,1,200,4|0,1:0|1:0,0:0:0:0:
493,100,59169,1,0,1:0:0:0:
428,40,59280,2,0,P|454:120|451:188,1,150.000005722046,8|2,0:0|1:0,0:0:0:0:
229,175,59613,1,0,1:0:0:0:
264,196,59724,6,0,B|279:234|317:228|317:228|323:177|377:166,1,150.000005722046,0|2,0:0|1:2,0:0:0:0:
213,258,60058,1,0,0:0:0:0:
228,281,60169,2,0,P|142:247|25:250,1,150.000005722046,8|2,0:0|1:2,0:0:0:0:
282,342,60613,6,0,B|271:270|271:270|275:265|275:265|258:162,1,150.000005722046,0|2,1:0|0:0,0:0:0:0:
203,146,60947,2,0,P|210:104|246:74,1,75.0000028610231,0|8,0:0|0:0,0:0:0:0:
36,299,61280,2,0,P|12:270|8:233,1,75.0000028610231,2|8,1:2|0:0,0:0:0:0:
66,122,61502,6,0,P|113:175|85:241,1,150.000005722046,0|2,0:0|1:2,0:0:0:0:
78,43,61836,1,0,0:0:0:0:
78,43,61947,2,0,P|23:6|4:68,1,150.000005722046,8|2,0:0|0:0,0:0:0:0:
203,85,62391,5,0,1:0:0:0:
203,85,62502,2,0,P|123:126|42:114,1,150.000005722046
271,130,62836,1,8,0:0:0:0:
231,324,63058,1,2,1:2:0:0:
413,294,63280,5,0,0:0:0:0:
413,294,63391,2,0,P|347:259|272:252,1,150.000005722046
231,324,63724,2,0,B|214:293|169:287|169:287|211:255|198:167,1,150.000005722046,8|2,0:0|1:2,0:0:0:0:
271,130,64058,1,0,0:0:0:0:
298,148,64169,6,0,P|322:83|295:28,1,100,4|0,1:0|0:0,0:0:0:0:
164,81,64391,2,0,P|169:117|192:146,1,75.0000028610231,0|0,1:0|0:0,0:0:0:0:
349,213,64613,6,0,P|378:188|414:179,1,75.0000028610231,8|0,0:0|0:0,0:0:0:0:
173,234,64836,2,0,P|152:222|127:220,1,50,0|0,1:0|1:0,0:0:0:0:
127,221,65058,6,0,P|211:188|248:270,1,200,12|0,0:0|1:0,0:0:0:0:
304,81,65391,2,0,P|215:60|192:147,1,200,0|0,1:0|0:0,0:0:0:0:
254,345,65724,6,0,P|278:341|298:327,1,50,8|0,0:3|0:0,0:0:0:0:
299,328,65947,6,0,B|240:303|187:275|187:275|155:310|112:300,1,200,4|0,1:0|1:0,0:0:0:0:
174,70,66280,1,0,1:0:0:0:
109,117,66391,2,0,B|145:77|145:77|127:222,1,200,8|4,0:0|0:0,0:0:0:0:
28,371,66724,1,0,0:0:0:0:
9,345,66836,6,0,P|78:359|120:301,1,150.000005722046,0|0,0:0|1:0,0:0:0:0:
55,254,67169,1,0,0:0:0:0:
38,263,67280,1,8,0:0:0:0:
227,221,67502,2,0,B|243:240|245:266,1,50,2|0,1:2|0:0,0:0:0:0:
272,339,67724,6,0,B|261:292|289:252|293:273|319:234|296:178,1,150.000005722046,0|2,1:0|0:0,0:0:0:0:
321,124,68058,2,0,P|354:140|373:171,1,75.0000028610231,0|8,0:0|0:0,0:0:0:0:
422,361,68391,2,0,P|456:347|475:316,1,75.0000028610231,2|0,1:2|0:0,0:0:0:0:
476,317,68613,6,0,B|464:263|443:218|443:218|451:198|457:175,1,150.000005722046,0|2,1:0|1:2,0:0:0:0:
457,174,68947,1,0,0:0:0:0:
374,172,69058,2,0,B|370:140|361:113|361:113|396:78|410:38,1,150.000005722046,8|2,0:0|0:0,0:0:0:0:
481,96,69391,1,0,0:0:0:0:
512,69,69502,6,0,B|430:32|354:108|408:123|341:207|259:165,1,300,2|0,1:0|0:0,0:0:0:0:
107,138,69947,2,0,B|143:77|223:98|223:98|183:121|187:162,1,200,8|2,0:0|1:0,0:0:0:0:
325,251,70280,1,8,0:0:0:0:
278,314,70391,6,0,P|276:248|260:164,1,150.000005722046,0|2,0:0|1:2,0:0:0:0:
124,24,70724,1,0,0:0:0:0:
124,24,70836,2,0,P|88:32|62:58,1,75.0000028610231,8|0,0:0|0:0,0:0:0:0:
26,125,71058,2,0,P|21:162|34:197,1,75.0000028610231,2|0,1:2|0:0,0:0:0:0:
94,252,71280,5,0,1:0:0:0:
367,222,71502,1,2,0:0:0:0:
181,221,71724,5,8,0:0:0:0:
280,264,71836,1,0,0:0:0:0:
481,37,72058,5,0,1:0:0:0:
409,73,72169,2,0,B|374:44|326:63|342:72|283:96|234:40|278:-31|332:-9|346:19|319:35,1,225.000008583069,2|0,0:0|0:0,0:0:0:0:
369,138,72613,2,0,B|307:131|267:190|292:188|243:260|145:234|141:120|219:103|256:124|229:180,1,300,8|0,0:0|0:0,0:0:0:0:
367,222,73058,5,4,1:0:0:0:
367,222,73169,2,0,P|431:260|550:260,1,150.000005722046
304,277,73502,1,12,0:0:0:0:
225,49,73724,1,0,1:0:0:0:
34,150,73947,5,0,1:0:0:0:
34,150,74058,2,0,P|107:112|201:114,1,150.000005722046
225,49,74391,2,0,P|275:41|265:129,1,150.000005722046,12|0,0:0|1:0,0:0:0:0:
302,237,74724,1,0,0:0:0:0:
272,253,74836,6,0,P|232:225|228:176,1,100,0|0,1:0|0:0,0:0:0:0:
459,213,75058,2,0,P|443:246|411:265,1,75.0000028610231,2|0,0:0|0:0,0:0:0:0:
283,120,75280,6,0,P|285:82|305:52,1,75.0000028610231,8|0,0:0|0:0,0:0:0:0:
429,89,75502,2,0,P|437:112|432:136,1,50,2|8,1:2|0:0,0:0:0:0:
432,136,75724,6,0,P|284:140|131:163,2,300,2|2|2,1:0|0:1|0:1,0:0:0:0:
165,28,76613,6,0,P|95:46|73:115,1,150.000005722046,4|2,1:2|1:2,0:0:0:0:
141,211,76947,1,0,0:0:0:0:
141,211,77058,2,0,P|137:190|133:161,1,50,8|0,0:0|0:0,0:0:0:0:
362,243,77280,6,0,P|336:135|187:128,1,262.500002503395,4|0,1:2|0:0,0:0:0:0:
133,161,77724,1,2,1:2:0:0:
195,340,77947,5,8,0:0:0:0:
195,340,78169,2,0,B|238:381|324:392|444:331|464:176|374:122|380:137|349:121|341:66|341:66|358:224|240:273|240:273|292:319|259:363,1,800,4|8,1:0|0:3,0:0:0:0:
267,347,79169,1,4,0:3:0:0:
377,359,79280,6,0,P|427:354|474:371,1,100,12|8,0:0|0:0,0:0:0:0:
473,370,79724,2,0,P|332:349|297:212,1,300,12|0,0:0|0:0,0:0:0:0:
366,82,80169,6,0,L|440:73,1,75,4|0,1:0|0:0,0:0:0:0:
440,73,80613,6,0,P|363:67|342:166,1,150.000005722046,8|2,0:0|1:0,0:0:0:0:
375,188,80947,1,2,1:2:0:0:
375,188,81169,2,0,P|300:138|195:163,1,150.000005722046
166,116,81502,2,0,B|163:71|144:8|144:8|197:63,1,150.000005722046,8|0,0:0|0:0,0:0:0:0:
37,183,81836,1,0,0:0:0:0:
25,165,81947,6,0,B|125:146|106:215|196:191,1,150.000005722046,2|2,1:2|0:0,0:0:0:0:
310,171,82391,1,8,0:0:0:0:
185,307,82613,2,0,B|178:325|182:358|182:358|144:307|172:205|235:183|235:183|239:217|267:227,1,300.000011444092,2|2,0:0|1:3,0:0:0:0:
360,281,83280,5,8,0:0:0:0:
75,308,83502,1,2,0:3:0:0:
403,354,83724,6,0,B|410:250|410:250|454:192,1,150.000005722046,0|0,1:0|0:0,0:0:0:0:
437,213,84169,2,0,P|426:154|418:64,1,150.000005722046,10|0,0:0|1:0,0:0:0:0:
359,17,84502,6,0,B|342:8|321:14|321:14|342:24|345:43,1,75.0000028610231,0|0,1:0|0:0,0:0:0:0:
501,133,84724,2,0,P|417:138|351:147,1,150.000005722046
291,199,85058,2,0,P|221:214|179:157,1,150.000005722046,8|0,0:0|1:0,0:0:0:0:
20,44,85391,1,0,0:0:0:0:
25,26,85502,6,0,P|50:53|58:89,1,75.0000028610231,12|0,0:0|0:0,0:0:0:0:
145,41,85724,2,0,P|146:65|138:89,1,50,8|0,0:3|0:0,0:0:0:0:
0,264,85947,1,4,0:3:0:0:
179,157,86169,6,0,P|299:180|363:284,1,250,4|0,1:0|0:0,0:0:0:0:
