osu file format v14

[General]
AudioFilename: audio.mp3
AudioLeadIn: 0
PreviewTime: 52388
Countdown: 0
SampleSet: Soft
StackLeniency: 0.4
Mode: 0
LetterboxInBreaks: 0
WidescreenStoryboard: 1

[Editor]
Bookmarks: 889,8000,15111,36444,52444,66666,80888,86222
DistanceSpacing: 0.6
BeatDivisor: 8
GridSize: 4
TimelineZoom: 2

[Metadata]
Title:Ai no Supreme! (TV Size)
TitleUnicode:愛のシュプリーム!(TV Size)
Artist:fhana
ArtistUnicode:fhána
Creator:My Angel Nino
Version:My Angel Tohru
Source:小林さんちのメイドラゴンS
Tags:miss kobayashi kobayashi's san chi no dragon maid s love anime japanese pop jpop j-pop season 2 op opening towana junichi sato 佐藤純一 yuxuki waga futaeno-p kevin mitsunaga ファナ hakashii 1 miss 1_miss kazuma
BeatmapID:3100050
BeatmapSetID:1514209

[Difficulty]
HPDrainRate:6
CircleSize:4
OverallDifficulty:9
ApproachRate:9.5
SliderMultiplier:2.4
SliderTickRate:1

[Events]
//Background and Video events
Video,181,"kobayashivid.mp4"
0,0,"tohru.jpg",0,0
//Break Periods
//Storyboard Layer 0 (Background)
//Storyboard Layer 1 (Fail)
//Storyboard Layer 2 (Pass)
//Storyboard Layer 3 (Foreground)
//Storyboard Layer 4 (Overlay)
//Storyboard Sound Samples

[TimingPoints]
894,444.444444444444,4,2,1,100,1,0
894,-100,4,2,1,50,0,0
8005,-100,4,2,1,72,0,0
8449,-50,4,2,1,72,0,0
8782,-66.6666666666667,4,2,1,72,0,0
9782,-66.6666666666667,4,2,1,72,0,0
10227,-100,4,2,1,72,0,0
10560,-66.6666666666667,4,2,1,72,0,0
11560,-100,4,2,1,72,0,0
12005,-50,4,2,1,72,0,0
12338,-66.6666666666667,4,2,1,72,0,0
13782,-100,4,2,1,72,0,0
14116,-66.6666666666667,4,2,1,72,0,0
15116,-66.6666666666667,4,2,1,57,0,0
15560,-100,4,2,1,57,0,0
16949,-100,4,2,1,57,0,0
18005,-80,4,2,1,57,0,0
18227,-66.6666666666667,4,2,1,57,0,0
18560,-100,4,2,1,57,0,0
18727,-100,4,2,1,57,0,0
21560,-80,4,2,1,57,0,0
21782,-66.6666666666667,4,2,1,57,0,0
22338,-100,4,2,1,57,0,0
22671,-80,4,2,1,57,0,0
23005,-100,4,2,1,57,0,0
23171,-100,4,2,1,57,0,0
24338,-80,4,2,1,57,0,0
25393,-80,4,2,1,57,0,0
25782,-100,4,2,1,57,0,0
26227,-66.6666666666667,4,2,1,57,0,0
26671,-100,4,2,1,57,0,0
27116,-66.6666666666667,4,2,1,57,0,0
27560,-100,4,2,1,57,0,0
28005,-66.6666666666667,4,2,1,57,0,0
29338,-90.9090909090909,4,2,1,57,0,0
29782,-66.6666666666667,4,2,1,62,0,0
30227,-90.9090909090909,4,2,1,62,0,0
30671,-66.6666666666667,4,2,1,62,0,0
31116,-90.9090909090909,4,2,1,62,0,0
32505,-90.9090909090909,4,2,1,62,0,0
33338,-66.6666666666667,4,2,1,62,0,0
33782,-90.9090909090909,4,2,1,62,0,0
34227,-66.6666666666667,4,2,1,62,0,0
34671,-66.6666666666667,4,2,1,62,0,0
35560,-90.9090909090909,4,2,1,62,0,0
36449,-100,4,2,1,65,0,0
39560,-66.6666666666667,4,2,1,65,0,0
40005,-100,4,2,1,65,0,0
41893,-66.6666666666667,4,2,1,65,0,0
42949,-66.6666666666667,4,2,1,65,0,0
43893,-100,4,2,1,65,0,0
44949,-100,4,2,1,65,0,0
46727,-100,4,2,1,65,0,0
48505,-100,4,2,1,65,0,0
48671,-66.6666666666667,4,2,1,65,0,0
49782,-57.1428571428571,4,2,1,72,0,0
49949,-57.1428571428571,4,2,1,5,0,0
50005,-57.1428571428571,4,2,1,65,0,0
50171,-57.1428571428571,4,2,1,5,0,0
50227,-133.333333333333,4,2,1,62,0,0
50393,-57.1428571428571,4,2,1,5,0,0
50449,-66.6666666666667,4,2,1,72,0,0
52393,-66.6666666666667,4,2,1,5,0,0
52449,-83.3333333333333,4,2,1,84,0,1
52893,-66.6666666666667,4,2,1,84,0,1
53560,-83.3333333333333,4,2,1,84,0,1
54727,-83.3333333333333,4,2,1,84,0,1
56449,-66.6666666666667,4,2,1,84,0,1
57116,-83.3333333333333,4,2,1,84,0,1
58505,-83.3333333333333,4,2,1,84,0,1
59116,-57.1428571428571,4,2,1,84,0,1
59560,-83.3333333333333,4,2,1,84,0,1
63616,-83.3333333333333,4,2,1,84,0,1
64505,-83.3333333333333,4,2,1,84,0,1
64893,-66.6666666666667,4,2,1,84,0,1
65782,-83.3333333333333,4,2,1,84,0,1
73338,-57.1428571428571,4,2,1,84,0,1
73782,-83.3333333333333,4,2,1,84,0,1
75560,-66.6666666666667,4,2,1,84,0,1
76449,-83.3333333333333,4,2,1,84,0,1
77338,-66.6666666666667,4,2,1,84,0,1
77560,-60.6060606060606,4,2,1,84,0,1
77782,-57.1428571428571,4,2,1,84,0,1
78893,-50,4,2,1,84,0,1
79782,-83.3333333333333,4,2,1,84,0,1
80893,-100,4,2,1,65,0,0
86227,-83.3333333333333,4,2,1,72,0,0
86893,-666.666666666667,4,2,1,72,0,0

[Colours]
Combo1 : 0,128,128
Combo2 : 255,128,64
Combo3 : 236,201,0

[HitObjects]
123,269,894,6,0,P|63:270|3:263,1,120,6|2,1:2|0:0,0:0:0:0:
188,116,1338,2,0,P|261:115|330:127,1,120,10|0,0:0|0:0,0:0:0:0:
397,210,1671,2,0,P|425:221|460:226,1,60,2|0,1:2|1:2,0:0:0:0:
311,244,1893,1,2,0:0:0:0:
303,276,2005,2,0,P|301:306|307:340,1,60,2|0,1:2|0:0,0:0:0:0:
147,334,2227,2,0,P|175:323|210:318,1,60,10|0,0:0|0:0,0:0:0:0:
53,268,2449,2,0,P|51:237|57:203,1,60,2|0,0:0|0:0,0:0:0:0:
151,125,2671,6,0,P|121:186|52:183,1,120,2|2,1:2|0:0,0:0:0:0:
6,36,3116,2,0,P|104:40|156:46,1,120,10|0,0:0|0:0,0:0:0:0:
234,134,3449,2,0,P|198:121|157:115,1,60,2|0,1:2|0:0,0:0:0:0:
258,25,3671,1,2,0:0:0:0:
289,30,3782,2,0,P|318:23|346:12,1,60,2|0,1:2|0:0,0:0:0:0:
422,138,4005,2,0,P|394:127|364:120,1,60,10|0,0:0|0:0,0:0:0:0:
455,26,4227,2,0,P|484:19|512:8,1,60,2|0,0:0|0:0,0:0:0:0:
350,143,4449,6,0,P|415:162|475:191,1,120,2|2,1:2|0:0,0:0:0:0:
251,225,4893,2,0,P|267:290|271:357,1,120,10|0,0:0|0:0,0:0:0:0:
179,263,5227,2,0,P|189:305|191:329,1,60,2|0,1:2|0:0,0:0:0:0:
106,176,5449,1,2,0:0:0:0:
93,200,5560,2,0,P|56:222|33:231,1,60,2|0,1:2|0:0,0:0:0:0:
146,95,5782,2,0,P|113:66|97:48,1,60,10|0,0:0|0:0,0:0:0:0:
249,122,6005,2,0,P|265:82|278:61,1,60,2|0,0:0|0:0,0:0:0:0:
269,218,6227,6,0,P|344:236|393:242,1,120,2|2,1:2|0:0,0:0:0:0:
176,347,6671,2,0,P|105:328|85:274,1,120,10|0,0:0|0:0,0:0:0:0:
66,173,7005,2,0,P|55:191|16:218,1,60,2|8,1:2|0:0,0:0:0:0:
154,220,7227,1,2,0:0:0:0:
177,209,7338,2,0,P|198:209|240:229,1,60,10|0,1:2|0:0,0:0:0:0:
172,33,7560,5,10,0:0:0:0:
157,117,7671,1,8,0:0:0:0:
242,132,7782,1,10,0:0:0:0:
256,47,7893,1,10,0:0:0:0:
182,26,8005,6,0,P|264:22|311:15,1,120,6|2,1:2|0:0,0:0:0:0:
485,281,8449,6,0,B|426:221|340:265|340:265|355:319|420:311,1,240,10|0,0:0|0:0,0:0:0:0:
491,175,8782,2,0,P|422:158|381:158,1,90.0000034332277,2|0,0:0|1:2,0:0:0:0:
407,75,9005,1,2,0:0:0:0:
509,92,9116,2,0,P|440:75|399:75,1,90.0000034332277,2|0,0:0|0:0,0:0:0:0:
232,279,9338,2,0,P|301:262|342:262,1,90.0000034332277,10|0,0:0|0:0,0:0:0:0:
214,196,9560,2,0,P|283:179|324:179,1,90.0000034332277,2|0,0:0|0:0,0:0:0:0:
52,329,9782,6,0,P|33:282|41:238,1,90.0000034332277,2|0,1:2|0:0,0:0:0:0:
128,95,10005,1,2,0:0:0:0:
120,206,10116,1,0,0:0:0:0:
132,70,10227,6,0,P|216:78|275:83,1,120,10|0,0:0|0:0,0:0:0:0:
409,17,10560,2,0,P|375:31|331:77,1,90.0000034332277,2|0,1:2|0:0,0:0:0:0:
281,266,10782,1,2,0:0:0:0:
267,245,10893,2,0,P|264:215|281:149,1,90.0000034332277,2|0,1:2|0:0,0:0:0:0:
389,32,11116,2,0,P|384:68|401:135,1,90.0000034332277,10|0,0:0|0:0,0:0:0:0:
507,266,11338,2,0,P|480:252|437:205,1,90.0000034332277,2|0,0:0|0:0,0:0:0:0:
309,140,11560,6,0,P|229:135|171:166,1,120,2|2,1:2|0:0,0:0:0:0:
23,330,12005,6,0,B|63:339|108:319|108:319|135:341|144:362|144:362|220:338|261:339,1,240,10|0,0:0|0:0,0:0:0:0:
125,204,12338,2,0,P|99:229|45:249,1,90.0000034332277,2|0,0:0|1:2,0:0:0:0:
102,46,12560,1,2,0:0:0:0:
171,125,12671,2,0,P|139:107|103:62,1,90.0000034332277,2|0,0:0|0:0,0:0:0:0:
260,147,12893,2,0,P|266:111|298:63,1,90.0000034332277,10|0,0:0|0:0,0:0:0:0:
274,234,13116,2,0,P|309:229|365:244,1,90.0000034332277,2|0,0:0|0:0,0:0:0:0:
242,361,13338,6,0,P|185:370|137:389,1,90.0000034332277,2|0,1:2|0:0,0:0:0:0:
381,237,13560,1,2,0:0:0:0:
310,310,13671,1,0,0:0:0:0:
247,231,13782,2,0,P|246:146|257:99,1,120,10|0,0:0|0:0,0:0:0:0:
460,104,14116,2,0,P|437:133|366:147,1,90.0000034332277,2|8,1:2|0:0,0:0:0:0:
253,21,14338,1,2,0:0:0:0:
276,17,14449,2,0,P|307:26|345:71,1,90.0000034332277,10|0,1:2|0:0,0:0:0:0:
301,265,14671,5,10,0:0:0:0:
212,285,14782,1,8,0:0:0:0:
192,198,14893,1,10,0:0:0:0:
279,176,15005,1,8,0:0:0:0:
247,231,15116,6,0,B|107:214|156:340|5:318,1,270.000010299683,6|0,1:2|0:0,0:0:0:0:
13,161,15560,2,0,B|13:126|51:117|51:117|84:170|42:232,1,180,10|2,0:0|0:0,0:0:0:0:
30,241,16005,1,2,1:2:0:0:
132,60,16227,1,2,0:0:0:0:
215,175,16449,2,0,P|168:171|148:159,1,60,10|0,0:0|0:0,0:0:0:0:
280,44,16671,1,2,1:2:0:0:
290,72,16782,6,0,P|259:132|208:154,2,120,2|2|2,0:0|0:0|0:0,0:0:0:0:
197,13,17338,1,10,0:0:0:0:
351,176,17560,1,2,0:0:0:0:
386,169,17671,1,0,0:0:0:0:
414,146,17782,6,0,P|433:114|436:82,1,60,2|0,1:2|0:0,0:0:0:0:
249,165,18005,6,0,P|248:215|266:255,1,75,2|0,0:0|0:0,0:0:0:0:
472,320,18227,6,0,P|445:272|407:245,1,90.0000034332277,10|0,0:0|0:0,0:0:0:0:
272,364,18449,1,2,0:0:0:0:
252,352,18560,6,0,P|192:345|132:340,1,120,2|2,0:0|0:0,0:0:0:0:
39,326,18893,2,0,P|98:320|158:314,1,120,2|10,0:0|0:0,0:0:0:0:
242,177,19338,1,2,0:0:0:0:
213,154,19449,1,0,0:0:0:0:
211,118,19560,2,0,P|255:146|273:216,1,120,2|2,1:2|0:0,0:0:0:0:
141,167,19893,2,0,P|170:148|210:158,1,60,2|8,0:0|0:0,0:0:0:0:
316,72,20116,1,2,0:0:0:0:
300,45,20227,6,0,P|227:21|170:32,1,120,2|2,0:0|1:2,0:0:0:0:
71,66,20560,2,0,P|130:69|185:47,1,120,2|2,0:0|0:0,0:0:0:0:
0,148,20893,1,10,0:0:0:0:
18,122,21005,2,0,P|88:92|142:94,1,120,2|2,0:0|0:0,0:0:0:0:
247,164,21338,6,0,P|265:194|272:236,1,60,2|0,1:2|0:0,0:0:0:0:
336,67,21560,6,0,P|346:29|367:-3,1,75,2|0,0:0|0:0,0:0:0:0:
470,112,21782,6,0,P|493:150|505:193,1,90.0000034332277,10|0,0:0|0:0,0:0:0:0:
379,201,22005,5,2,0:0:0:0:
397,238,22116,1,2,0:0:0:0:
414,278,22227,1,2,1:2:0:0:
422,311,22338,2,0,P|387:365|325:373,1,120,2|2,0:0|0:0,0:0:0:0:
267,273,22671,2,0,B|269:237|321:227|321:227|359:269|334:311,1,150,10|0,0:0|0:0,0:0:0:0:
286,361,23005,2,0,P|202:353|121:354,1,120,2|2,0:0|0:0,0:0:0:0:
136,364,23338,1,2,0:0:0:0:
26,204,23560,1,10,0:0:0:0:
168,89,23782,1,2,1:2:0:0:
175,124,23893,1,2,0:0:0:0:
164,158,24005,5,2,1:2:0:0:
88,98,24116,1,2,0:0:0:0:
133,13,24227,1,2,0:0:0:0:
227,30,24338,2,0,P|268:34|333:31,1,75,2|8,0:0|0:0,0:0:0:0:
406,23,24560,2,0,P|382:117|374:179,1,150,2|2,0:0|0:0,0:0:0:0:
408,278,24893,5,2,1:2:0:0:
312,260,25005,1,2,0:0:0:0:
221,291,25116,1,2,0:0:0:0:
128,264,25227,2,0,P|78:255|30:361,1,150,2|0,0:0|0:0,0:0:0:0:
310,238,25671,1,2,0:0:0:0:
328,206,25782,6,0,P|391:185|422:190,1,60,2|2,1:2|0:0,0:0:0:0:
479,79,26005,2,0,P|443:64|399:60,1,60,2|0,0:0|0:0,0:0:0:0:
294,0,26227,6,0,B|354:126|229:118|292:273,1,270.000010299683,10|2,0:0|0:0,0:0:0:0:
190,149,26671,6,0,P|184:192|186:238,1,60,2|2,1:2|0:0,0:0:0:0:
21,246,26893,2,0,P|61:229|100:204,1,60,2|0,0:0|0:0,0:0:0:0:
222,337,27116,6,0,B|120:353|81:254|81:254|60:296|20:318,1,270.000010299683,10|2,0:0|0:0,0:0:0:0:
70,384,27560,5,2,1:2:0:0:
76,342,27671,2,0,P|90:254|98:209,1,120,2|2,0:0|0:0,0:0:0:0:
92,74,28005,2,0,P|88:40|116:91,1,180.000006866455,10|0,0:0|0:0,0:0:0:0:
103,192,28338,6,0,P|189:237|272:197,1,180.000006866455,2|0,1:2|0:0,0:0:0:0:
319,104,28671,2,0,P|286:140|278:189,1,90.0000034332277,2|0,1:2|0:0,0:0:0:0:
328,330,28893,1,10,0:0:0:0:
351,212,29005,1,8,0:0:0:0:
238,252,29116,1,2,1:2:0:0:
332,342,29227,1,2,1:2:0:0:
344,241,29338,6,0,P|286:258|184:276,1,132.00000402832,6|2,1:2|0:0,0:0:0:0:
180,289,29671,1,2,0:0:0:0:
78,162,29782,2,0,B|61:114|102:81|102:81|126:129|77:170,1,180.000006866455,10|2,0:0|0:0,0:0:0:0:
63,242,30116,1,2,0:0:0:0:
46,260,30227,6,0,P|54:306|59:338,1,66.0000020141602,2|0,1:2|0:0,0:0:0:0:
159,200,30449,2,0,P|151:246|146:278,1,66.0000020141602,2|0,0:0|0:0,0:0:0:0:
260,144,30671,2,0,P|268:190|291:333,1,180.000006866455,10|2,0:0|0:0,0:0:0:0:
369,255,31005,1,2,0:0:0:0:
449,296,31116,6,0,P|418:288|368:284,1,66.0000020141602,2|2,1:2|0:0,0:0:0:0:
278,152,31338,2,0,P|310:148|342:140,1,66.0000020141602,2|0,0:0|0:0,0:0:0:0:
390,20,31560,1,10,0:0:0:0:
363,122,31671,1,2,0:0:0:0:
434,199,31782,1,2,1:2:0:0:
460,96,31893,1,2,0:0:0:0:
341,112,32005,6,0,P|288:104|261:99,1,66.0000020141602,2|2,1:2|0:0,0:0:0:0:
181,30,32227,5,2,0:0:0:0:
163,50,32338,6,0,P|176:128|190:192,1,132.00000402832,2|0,0:0|0:0,0:0:0:0:
54,251,32671,2,0,P|67:223|75:184,1,66.0000020141602,2|0,0:0|0:0,0:0:0:0:
196,271,32893,6,0,P|170:190|160:140,1,132.00000402832,2|2,1:2|0:0,0:0:0:0:
161,114,33227,1,2,0:0:0:0:
340,187,33338,2,0,B|364:173|382:152|382:152|324:97|263:135,1,180.000006866455,10|2,0:0|0:0,0:0:0:0:
260,221,33671,1,2,0:0:0:0:
272,241,33782,6,0,P|314:273|367:274,1,66.0000020141602,2|0,1:2|0:0,0:0:0:0:
474,196,34005,2,0,P|443:208|420:231,1,66.0000020141602,2|2,0:0|0:0,0:0:0:0:
441,362,34227,6,0,B|484:342|485:291|485:291|460:327|398:336,1,180.000006866455,10|2,0:0|0:0,0:0:0:0:
271,327,34560,1,2,0:0:0:0:
262,308,34671,6,0,P|227:313|236:391,2,120.000004577637,2|2|2,1:2|0:0|0:0,0:0:0:0:
224,203,35116,2,0,P|264:198|256:121,2,120.000004577637,10|2|2,0:0|0:0|0:0,0:0:0:0:
126,224,35560,5,2,1:2:0:0:
96,249,35671,1,2,0:0:0:0:
86,289,35782,2,0,P|94:325|107:353,1,66.0000020141602,10|2,0:0|0:0,0:0:0:0:
202,288,36005,5,8,0:0:0:0:
131,209,36116,1,8,0:0:0:0:
159,107,36227,1,0,1:2:0:0:
233,182,36338,1,0,1:2:0:0:
104,200,36449,5,6,1:2:0:0:
80,191,36560,2,0,P|61:163|56:118,1,60,2|0,0:0|1:2,0:0:0:0:
165,31,36782,2,0,P|146:59|141:104,1,60,2|8,0:0|0:0,0:0:0:0:
239,166,37005,2,0,P|189:151|157:85,1,120,2|0,0:0|0:0,0:0:0:0:
260,38,37338,5,2,1:2:0:0:
287,64,37449,2,0,P|322:67|364:69,1,60,2|0,0:0|0:0,0:0:0:0:
463,151,37671,2,0,P|433:152|403:155,1,60,2|8,0:0|0:0,0:0:0:0:
317,196,37893,2,0,P|389:185|449:182,1,120,2|2,0:0|0:0,0:0:0:0:
499,310,38227,5,2,1:2:0:0:
468,295,38338,2,0,P|437:291|395:304,1,60,2|0,0:0|0:0,0:0:0:0:
298,370,38560,2,0,P|267:374|225:361,1,60,2|8,0:0|0:0,0:0:0:0:
132,219,38782,2,0,P|146:296|154:357,1,120,2|2,0:0|0:0,0:0:0:0:
38,247,39116,5,2,1:2:0:0:
55,266,39227,2,0,P|63:310|73:393,1,120,2|0,0:0|0:0,0:0:0:0:
165,218,39560,2,0,B|197:165|174:98|136:106|136:106|121:145|153:160,1,180.000006866455,10|2,0:0|0:0,0:0:0:0:
284,79,40005,6,0,P|240:65|171:113,1,120,2|2,1:2|0:0,0:0:0:0:
306,211,40338,1,2,0:0:0:0:
331,190,40449,5,10,0:0:0:0:
333,145,40560,2,0,P|307:113|227:105,1,120,2|2,0:0|0:0,0:0:0:0:
382,43,40893,2,0,P|424:59|449:61,1,60,2|2,1:2|0:0,0:0:0:0:
512,153,41116,2,0,P|482:158|455:170,1,60,2|2,0:0|0:0,0:0:0:0:
321,236,41338,1,10,0:0:0:0:
346,260,41449,2,0,P|417:287|481:257,1,120,2|2,0:0|0:0,0:0:0:0:
287,354,41782,5,2,1:2:0:0:
208,271,41893,2,0,B|171:240|197:190|197:190|245:230|211:278,1,180.000006866455,2|0,0:0|0:0,0:0:0:0:
154,351,42227,2,0,B|129:321|88:332|88:332|69:362|69:362|24:372|-12:347,1,180.000006866455,10|2,0:0|0:0,0:0:0:0:
23,241,42560,2,0,P|28:272|30:241,1,90.0000034332277,2|0,0:0|1:2,0:0:0:0:
54,101,42782,6,0,B|82:157|39:217|39:217|43:189|25:160,1,180.000006866455,2|2,0:0|0:0,0:0:0:0:
62,76,43116,5,10,0:0:0:0:
164,27,43227,1,8,0:0:0:0:
267,80,43338,1,2,1:2:0:0:
369,31,43449,1,2,1:2:0:0:
246,91,43560,6,0,P|243:170|331:204,1,180.000006866455,6|0,1:2|0:0,0:0:0:0:
448,140,43893,1,2,0:0:0:0:
429,156,44005,2,0,P|437:234|449:306,1,120,10|2,0:0|0:0,0:0:0:0:
448,293,44338,1,2,0:0:0:0:
344,384,44449,6,0,B|306:379|292:343|292:343|319:365|364:356,1,120,2|2,1:2|0:0,0:0:0:0:
441,316,44782,2,0,P|384:269|314:289,1,120,2|0,0:0|0:0,0:0:0:0:
229,218,45116,1,2,0:0:0:0:
216,251,45227,1,2,0:0:0:0:
186,271,45338,6,0,P|107:288|54:295,1,120,2|2,1:2|0:0,0:0:0:0:
11,154,45671,1,2,0:0:0:0:
37,178,45782,1,10,0:0:0:0:
72,183,45893,2,0,P|112:179|144:154,1,60,2|0,0:0|0:0,0:0:0:0:
222,40,46116,1,2,0:0:0:0:
193,57,46227,6,0,P|206:125|225:195,1,120,2|2,1:2|0:0,0:0:0:0:
335,145,46560,2,0,P|322:77|303:7,1,120,2|0,0:0|0:0,0:0:0:0:
453,14,46893,1,2,0:0:0:0:
432,44,47005,1,2,0:0:0:0:
432,79,47116,6,0,P|454:152|475:225,1,120,2|2,1:2|0:0,0:0:0:0:
410,293,47449,1,2,0:0:0:0:
388,267,47560,2,0,P|333:243|278:260,1,120,10|2,0:0|0:0,0:0:0:0:
112,348,48005,2,0,P|166:371|222:355,1,120,2|2,1:2|0:0,0:0:0:0:
148,234,48338,2,0,B|169:257|170:289|170:289|170:257|197:224,1,120,2|0,0:0|0:0,0:0:0:0:
154,121,48671,6,0,P|177:144|163:114,1,90.0000034332277,2|0,0:0|0:0,0:0:0:0:
30,70,48893,5,2,1:2:0:0:
192,19,49042,5,2,0:0:0:0:
250,164,49190,5,2,0:0:0:0:
312,6,49338,5,10,0:0:0:0:
187,99,49486,5,2,0:0:0:0:
422,112,49634,5,2,0:0:0:0:
198,112,49782,6,0,P|181:164|208:122,1,157.500001502037,14|0,0:0|0:0,0:0:0:0:
381,214,50005,6,0,P|327:225|377:227,1,157.500001502037,2|0,1:2|0:0,0:0:0:0:
252,359,50227,6,0,P|232:337|244:360,1,67.5000025749207,2|0,1:2|0:0,0:0:0:0:
191,254,50449,6,0,B|143:132|2:107|2:107|2:179|56:210,1,360.000013732911,14|0,0:0|0:0,0:0:0:0:
207,262,51116,5,8,0:0:0:0:
376,21,51560,5,8,0:0:0:0:
238,54,51671,1,8,0:0:0:0:
154,110,52005,5,10,0:0:0:0:
323,151,52116,2,0,P|414:183|360:264,1,225.000008583069,10|0,0:0|0:0,0:0:0:0:
338,245,52449,6,0,P|247:255|174:269,1,143.999995605469,6|0,1:2|1:2,0:0:0:0:
22,180,52782,1,0,0:0:0:0:
101,219,52893,2,0,P|171:236|211:240,1,90.0000034332277,8|0,1:2|0:0,0:0:0:0:
300,130,53116,2,0,P|255:137|210:149,1,90.0000034332277,2|8,1:2|0:0,0:0:0:0:
99,59,53338,1,0,1:2:0:0:
116,54,53560,6,0,B|142:134|82:123|116:212,2,143.999995605469,2|10|2,0:0|0:0|1:2,0:0:0:0:
344,63,54227,6,0,P|323:52|272:50,1,71.9999978027344,2|0,1:2|0:0,0:0:0:0:
392,165,54449,1,2,1:2:0:0:
380,52,54560,2,0,P|297:19|225:40,1,143.999995605469,2|0,0:0|0:0,0:0:0:0:
398,188,54893,2,0,P|433:188|466:174,1,71.9999978027344,2|8,1:2|0:0,0:0:0:0:
293,142,55116,6,0,P|309:246|317:309,1,143.999995605469,2|0,1:2|1:2,0:0:0:0:
164,131,55449,1,0,0:0:0:0:
219,193,55560,2,0,P|228:250|233:287,1,71.9999978027344,10|0,0:0|0:0,0:0:0:0:
144,283,55782,2,0,P|135:226|130:189,1,71.9999978027344
4,341,56005,6,0,P|84:352|134:307,1,143.999995605469,2|0,1:2|1:2,0:0:0:0:
309,384,56338,1,0,0:0:0:0:
240,338,56449,2,0,P|179:337|135:364,1,90.0000034332277,8|0,0:0|0:0,0:0:0:0:
332,293,56671,2,0,P|373:308|418:303,1,90.0000034332277,2|8,1:2|0:0,0:0:0:0:
501,375,56893,1,0,1:2:0:0:
498,354,57116,6,0,P|506:243|508:184,2,143.999995605469,2|10|2,0:0|0:0|1:2,0:0:0:0:
366,138,57782,6,0,P|377:192|384:226,1,71.9999978027344,2|0,1:2|0:0,0:0:0:0:
278,138,58005,2,0,P|289:192|296:226,1,71.9999978027344,2|0,1:2|0:0,0:0:0:0:
196,11,58227,1,10,0:0:0:0:
178,94,58338,2,0,P|167:148|143:248,1,143.999995605469,2|2,0:0|0:0,0:0:0:0:
52,281,58671,5,0,1:2:0:0:
131,342,58782,1,0,0:0:0:0:
226,310,58893,1,2,0:0:0:0:
145,247,59005,1,0,0:0:0:0:
124,358,59116,6,0,B|198:405|287:348|239:306|331:242|424:312,1,315.000003004074,12|0,0:0|0:0,0:0:0:0:
437,140,59560,6,0,P|423:229|414:303,1,143.999995605469,6|0,1:2|1:2,0:0:0:0:
285,173,59893,1,0,0:0:0:0:
265,268,60005,2,0,P|308:260|347:254,1,71.9999978027344,8|0,0:0|0:0,0:0:0:0:
181,210,60227,2,0,P|145:203|110:197,1,71.9999978027344,2|8,1:2|0:0,0:0:0:0:
233,87,60449,1,0,1:2:0:0:
232,63,60671,6,0,P|301:29|379:45,2,143.999995605469,2|10|2,0:0|0:0|1:2,0:0:0:0:
88,210,61338,6,0,P|182:226|270:244,1,143.999995605469,2|0,1:2|1:2,0:0:0:0:
367,167,61671,2,0,P|352:222|346:254,1,71.9999978027344,2|8,0:0|0:0,0:0:0:0:
494,338,61893,1,0,0:0:0:0:
410,369,62005,2,0,P|355:354|323:348,1,71.9999978027344,2|8,1:2|0:0,0:0:0:0:
195,350,62227,6,0,P|277:363|343:374,1,143.999995605469,2|0,1:2|1:2,0:0:0:0:
229,235,62560,1,0,0:0:0:0:
143,273,62671,2,0,P|100:286|65:299,1,71.9999978027344,10|0,0:0|0:0,0:0:0:0:
0,153,62893,2,0,P|33:165|68:175,1,71.9999978027344
208,79,63116,5,2,1:2:0:0:
180,175,63227,1,2,0:0:0:0:
110,102,63338,1,0,1:2:0:0:
140,0,63449,2,0,P|233:-17|296:22,1,143.999995605469,2|0,0:0|0:0,0:0:0:0:
285,153,63782,2,0,P|337:143|391:139,1,71.9999978027344,2|0,1:2|0:0,0:0:0:0:
512,311,64005,5,2,1:2:0:0:
414,336,64116,1,2,0:0:0:0:
389,238,64227,1,0,1:2:0:0:
487,213,64338,2,0,P|472:309|463:387,1,143.999995605469,2|0,0:0|0:0,0:0:0:0:
315,292,64671,2,0,P|306:255|298:218,1,71.9999978027344,2|0,0:0|0:0,0:0:0:0:
466,355,64893,6,0,P|410:369|356:373,1,90.0000034332277,2|0,1:2|0:0,0:0:0:0:
210,204,65116,2,0,P|254:209|298:221,1,90.0000034332277,2|0,1:2|0:0,0:0:0:0:
187,367,65338,2,0,P|143:378|98:384,1,90.0000034332277,10|0,0:0|0:0,0:0:0:0:
18,175,65560,5,10,0:0:0:0:
68,276,65671,1,8,0:0:0:0:
19,150,65782,2,0,P|30:99|38:66,1,71.9999978027344,2|0,1:2|0:0,0:0:0:0:
187,0,66005,5,10,0:0:0:0:
293,29,66116,1,8,0:0:0:0:
264,136,66227,1,8,0:0:0:0:
156,106,66338,1,8,0:0:0:0:
225,68,66449,5,2,1:2:0:0:
182,202,66560,1,0,1:2:0:0:
295,275,66671,6,0,P|359:265|453:259,1,143.999995605469,6|0,1:2|1:2,0:0:0:0:
505,130,67005,1,0,0:0:0:0:
428,81,67116,2,0,P|389:81|326:91,1,71.9999978027344,8|0,0:0|0:0,0:0:0:0:
287,246,67338,2,0,P|335:237|386:233,1,71.9999978027344,2|8,1:2|0:0,0:0:0:0:
263,136,67560,1,0,1:2:0:0:
242,119,67782,6,0,P|153:113|92:106,2,143.999995605469,2|10|2,0:0|0:0|1:2,0:0:0:0:
125,334,68449,6,0,P|113:300|123:261,1,71.9999978027344,2|0,1:2|0:0,0:0:0:0:
213,300,68671,1,2,1:2:0:0:
53,373,68782,2,0,P|33:281|55:221,1,143.999995605469,2|0,0:0|0:0,0:0:0:0:
176,139,69116,2,0,P|132:147|100:169,1,71.9999978027344,2|8,1:2|0:0,0:0:0:0:
231,299,69338,6,0,P|341:290|387:284,1,143.999995605469,2|0,1:2|0:0,0:0:0:0:
483,168,69671,1,0,0:0:0:0:
465,296,69782,2,0,P|485:334|500:361,1,71.9999978027344,10|0,0:0|0:0,0:0:0:0:
378,311,70005,2,0,P|368:352|361:382,1,71.9999978027344,0|0,1:0|0:0,0:0:0:0:
400,210,70227,6,0,P|387:126|371:53,1,143.999995605469,2|0,1:2|1:2,0:0:0:0:
254,154,70560,1,0,0:0:0:0:
186,80,70671,2,0,P|242:55|291:52,1,71.9999978027344,8|0,0:0|0:0,0:0:0:0:
318,203,70893,2,0,P|283:193|251:176,1,71.9999978027344,2|8,1:2|0:0,0:0:0:0:
364,48,71116,1,0,1:2:0:0:
376,29,71338,2,0,P|459:17|497:67,2,143.999995605469,2|10|2,0:0|0:0|1:2,0:0:0:0:
234,184,72005,6,0,P|197:194|158:200,1,71.9999978027344,2|0,1:2|0:0,0:0:0:0:
218,93,72227,2,0,P|181:103|142:109,1,71.9999978027344,2|0,1:2|0:0,0:0:0:0:
27,232,72449,1,10,0:0:0:0:
59,136,72560,1,2,0:0:0:0:
129,208,72671,1,0,1:2:0:0:
99,304,72782,6,0,P|75:215|56:128,1,143.999995605469,2|0,0:0|0:0,0:0:0:0:
147,19,73116,2,0,P|140:62|136:113,1,71.9999978027344,0|0,1:2|0:0,0:0:0:0:
235,207,73338,6,0,B|353:196|357:61|357:61|298:54|266:123,1,315.000003004074,12|0,0:0|0:0,0:0:0:0:
202,220,73782,5,6,1:2:0:0:
250,315,73893,1,2,0:0:0:0:
300,232,74005,1,0,1:2:0:0:
369,281,74116,2,0,P|473:297|527:304,1,143.999995605469,2|0,0:0|0:0,0:0:0:0:
225,338,74449,2,0,P|180:343|145:346,1,71.9999978027344,2|0,1:2|0:0,0:0:0:0:
0,125,74671,5,2,1:2:0:0:
80,202,74782,1,2,0:0:0:0:
0,284,74893,1,0,1:2:0:0:
72,355,75005,2,0,P|42:290|37:219,1,143.999995605469,2|0,0:0|0:0,0:0:0:0:
118,230,75338,2,0,P|122:269|142:308,1,71.9999978027344,2|0,1:2|0:0,0:0:0:0:
240,158,75560,6,0,P|175:136|111:133,1,90.0000034332277,2|0,1:2|0:0,0:0:0:0:
246,353,75782,2,0,P|290:344|331:328,1,90.0000034332277,2|0,1:2|0:0,0:0:0:0:
452,120,76005,2,0,P|410:103|366:95,1,90.0000034332277,10|0,0:0|0:0,0:0:0:0:
443,334,76227,5,2,1:2:0:0:
500,228,76338,1,8,0:0:0:0:
419,313,76449,5,2,1:2:0:0:
349,266,76560,1,0,1:2:0:0:
300,333,76671,1,0,1:2:0:0:
234,291,76782,2,0,P|244:220|252:142,1,143.999995605469,2|0,1:2|0:0,0:0:0:0:
274,11,77116,2,0,P|287:70|300:107,1,71.9999978027344,2|0,1:2|0:0,0:0:0:0:
48,67,77338,6,0,P|108:36|172:35,1,90.0000034332277,6|0,1:2|0:0,0:0:0:0:
311,239,77560,2,0,P|251:224|199:191,1,99.0000009441376,2|0,1:2|0:0,0:0:0:0:
413,35,77782,2,0,P|460:11|512:0,1,105.000001001358,10|0,0:0|0:0,0:0:0:0:
190,226,78005,6,0,P|175:102|162:8,1,210.000002002716,6|0,1:2|0:0,0:0:0:0:
16,333,78449,2,0,P|26:278|38:212,1,105.000001001358,2|0,1:2|0:0,0:0:0:0:
136,0,78671,2,0,P|143:53|152:117,1,105.000001001358,10|0,0:0|0:0,0:0:0:0:
234,327,78893,6,0,B|374:412|517:319|517:319|465:243|354:266,1,480,6|0,1:2|0:0,0:0:0:0:
214,344,79560,1,8,0:0:0:0:
274,41,79782,1,2,1:2:0:0:
315,51,79893,1,2,1:2:0:0:
342,84,80005,5,10,0:0:0:0:
178,126,80116,1,10,0:0:0:0:
164,112,80449,2,0,P|107:136|204:185,1,215.999993408203,10|0,0:0|0:0,0:0:0:0:
253,142,80893,5,4,1:2:0:0:
282,158,81338,6,0,P|317:164|370:162,1,60,10|0,0:0|0:0,0:0:0:0:
364,84,81560,1,2,0:0:0:0:
390,88,81671,2,0,P|450:83|508:71,1,120,0|2,1:2|1:2,0:0:0:0:
178,6,82227,2,0,P|184:44|191:88,1,60,10|0,0:0|0:0,0:0:0:0:
150,144,82449,2,0,P|156:106|163:62,1,60,2|0,0:0|0:0,0:0:0:0:
26,18,82671,6,0,P|50:104|72:173,2,120,2|2|10,1:2|0:0|0:0,0:0:0:0:
168,160,83338,1,2,0:0:0:0:
189,188,83449,1,0,0:0:0:0:
188,223,83560,6,0,P|90:242|34:253,1,120,0|0,1:2|0:0,0:0:0:0:
183,341,83893,1,0,0:0:0:0:
207,314,84005,2,0,P|266:321|298:327,1,60,8|0,0:0|0:0,0:0:0:0:
342,219,84227,2,0,P|312:223|282:226,1,60
394,340,84449,5,0,1:2:0:0:
422,324,84893,6,0,P|433:263|446:202,1,120,10|2,0:0|0:0,0:0:0:0:
447,113,85227,2,0,P|456:166|460:195,1,60,2|0,0:0|1:2,0:0:0:0:
359,92,85449,2,0,P|368:145|372:174,1,60,2|0,0:0|0:0,0:0:0:0:
276,24,85671,1,2,0:0:0:0:
263,53,85782,2,0,P|253:106|250:137,1,60,10|0,0:0|0:0,0:0:0:0:
174,63,86005,2,0,P|164:116|161:147,1,60,2|0,0:0|0:0,0:0:0:0:
108,275,86227,6,0,P|152:272|187:257,1,71.9999978027344,14|0,0:0|0:0,0:0:0:0:
140,122,86449,2,0,P|96:125|61:140,1,71.9999978027344,10|0,0:0|0:0,0:0:0:0:
261,324,86671,2,0,P|305:321|340:306,1,71.9999978027344,10|0,0:0|0:0,0:0:0:0:
293,171,86893,6,0,P|247:174|216:188,1,80.9999975280763,14|0,0:0|0:0,0:0:0:0:
