osu file format v14

[General]
AudioFilename: audio.mp3
AudioLeadIn: 0
PreviewTime: 51673
Countdown: 0
SampleSet: Soft
StackLeniency: 0.7
Mode: 2
LetterboxInBreaks: 0
WidescreenStoryboard: 1

[Editor]
DistanceSpacing: 0.6
BeatDivisor: 4
GridSize: 8
TimelineZoom: 2.799999

[Metadata]
Title:Ai no Supreme! (TV Size)
TitleUnicode:愛のシュプリーム!(TV Size)
Artist:fhana
ArtistUnicode:fhána
Creator:-Luminate
Version:Salad
Source:小林さんちのメイドラゴンS
Tags:miss kobayashi's dragon maid s kobayashi-san chi no maidragon opening op anime pop japanese kukkai [_-kukkai-_] rew0825
BeatmapID:3256666
BeatmapSetID:1592786

[Difficulty]
HPDrainRate:4
CircleSize:3
OverallDifficulty:7
ApproachRate:7
SliderMultiplier:2.2
SliderTickRate:1

[Events]
//Background and Video events
0,0,"me.jpg",0,0
Video,-650,"video.mp4"
//Break Periods
//Storyboard Layer 0 (Background)
//Storyboard Layer 1 (Fail)
//Storyboard Layer 2 (Pass)
//Storyboard Layer 3 (Foreground)
//Storyboard Layer 4 (Overlay)
//Storyboard Sound Samples

[TimingPoints]
174,444.444444444444,4,2,1,48,1,0
7285,-100,4,2,1,65,0,0
14396,-100,4,2,1,50,0,0
35729,-100,4,2,1,65,0,0
42062,-100,4,2,1,65,0,0
42396,-100,4,2,1,65,0,0
51729,-100,4,2,1,77,0,1
79285,-100,4,2,1,65,0,0
80173,-100,4,2,1,58,0,0
86396,-100,4,2,1,30,0,0

[Colours]
Combo1 : 128,255,255
Combo2 : 255,255,125
Combo3 : 255,182,147
Combo4 : 142,255,142

[HitObjects]
152,192,174,5,12,0:0:0:0:
152,296,396,1,2,0:0:0:0:
256,208,618,2,0,P|304:144|240:88,1,165,8|8,0:1|0:0,0:0:0:0:
120,152,1285,1,8,0:0:0:0:
192,104,1507,1,8,0:1:0:0:
120,64,1729,1,8,0:0:0:0:
304,328,1951,6,0,L|304:176,1,110,10|0,0:0|0:0,0:0:0:0:
200,224,2396,2,0,P|160:136|216:88,1,165,8|10,0:1|0:0,0:0:0:0:
352,96,3062,1,8,0:0:0:0:
272,56,3285,1,8,0:1:0:0:
352,32,3507,1,8,0:0:0:0:
176,304,3729,6,0,L|176:144,1,110,10|0,0:0|0:0,0:0:0:0:
224,96,4173,2,0,L|80:216,1,165,8|10,0:1|0:0,0:0:0:0:
240,224,4840,1,8,0:0:0:0:
312,272,5062,1,8,0:1:0:0:
240,320,5285,1,8,0:0:0:0:
72,336,5507,6,0,L|72:176,1,110,10|8,0:0|0:0,0:0:0:0:
168,200,5951,2,0,L|8:80,1,165,8|2,0:1|0:0,0:0:0:0:
232,112,6507,1,10,0:1:0:0:
232,56,6618,1,8,0:1:0:0:
120,48,6840,2,0,L|120:184,1,110,8|12,0:1|0:3,0:0:0:0:
296,152,7285,5,14,1:2:0:0:
384,152,7507,1,2,0:0:0:0:
296,152,7729,2,0,P|264:208|304:304,1,165,12|10,0:1|0:0,0:0:0:0:
432,304,8396,1,8,0:0:0:0:
432,224,8618,1,8,0:1:0:0:
352,192,8840,1,8,0:0:0:0:
168,232,9062,5,10,0:0:0:0:
168,152,9285,1,8,0:0:0:0:
256,144,9507,2,0,L|416:280,1,165,10|10,0:1|0:0,0:0:0:0:
200,336,10062,1,10,0:0:0:0:
152,304,10173,1,10,0:0:0:0:
48,264,10396,2,0,L|48:136,1,110,8|10,0:1|0:0,0:0:0:0:
232,136,10840,5,10,0:0:0:0:
152,104,11062,1,8,0:0:0:0:
232,16,11285,2,0,L|232:192,1,165,10|10,0:1|0:0,0:0:0:0:
112,328,11951,1,10,0:0:0:0:
112,256,12173,1,8,0:1:0:0:
184,240,12396,1,8,0:0:0:0:
384,200,12618,5,10,0:0:0:0:
464,168,12840,1,8,0:0:0:0:
384,200,13062,2,0,L|224:80,1,165,10|14,0:1|0:2,0:0:0:0:
152,88,13618,1,10,0:0:0:0:
152,88,13729,1,10,0:0:0:0:
256,320,13951,2,0,L|360:224,1,110,8|8,0:1|0:3,0:0:0:0:
144,208,14396,6,0,L|328:64,1,220,14|10,1:2|0:1,0:0:0:0:
144,320,15284,1,10,0:0:0:0:
72,264,15507,1,8,0:0:0:0:
144,208,15729,1,8,0:1:0:0:
408,144,16062,5,2,0:0:0:0:
312,96,16285,1,2,0:0:0:0:
408,64,16507,1,2,0:0:0:0:
408,144,16618,1,10,0:1:0:0:
312,200,16840,1,10,0:0:0:0:
128,288,17062,2,0,L|32:224,2,110,10|10|10,0:0|0:0|0:1,0:0:0:0:
384,288,17840,5,10,0:0:0:0:
296,256,18062,1,10,0:0:0:0:
296,256,18173,1,8,0:0:0:0:
384,208,18396,1,8,0:1:0:0:
384,128,18618,1,2,0:0:0:0:
200,112,18840,5,10,0:0:0:0:
112,72,19062,1,0,0:0:0:0:
112,72,19173,1,2,0:0:0:0:
200,48,19396,1,0,0:0:0:0:
240,48,19507,1,2,0:0:0:0:
64,328,19729,5,8,0:0:0:0:
64,288,19840,2,0,L|208:200,1,165,2|8,0:0|0:1,0:0:0:0:
208,168,20285,1,2,0:0:0:0:
464,144,20618,2,0,L|376:72,2,110,10|10|8,0:0|0:0|0:1,0:0:0:0:
392,224,21285,1,2,0:0:0:0:
208,272,21507,5,10,1:2:0:0:
208,272,21618,1,2,0:0:0:0:
360,184,21951,1,8,0:1:0:0:
208,96,22285,1,2,0:0:0:0:
360,136,22618,1,8,0:0:0:0:
360,184,22840,1,10,0:1:0:0:
288,216,23062,1,8,0:0:0:0:
104,296,23285,5,10,0:0:0:0:
48,272,23396,2,0,L|48:152,1,110,2|2,0:0|0:0,0:0:0:0:
136,144,23840,1,2,0:0:0:0:
240,136,24062,1,2,0:0:0:0:
184,256,24173,2,0,L|184:128,1,110,8|2,0:0|0:0,0:0:0:0:
368,144,24618,1,8,0:1:0:0:
240,320,25062,6,0,L|240:184,1,110,10|2,0:0|0:0,0:0:0:0:
424,72,25507,2,0,L|424:208,1,110,10|0,0:1|0:0,0:0:0:0:
368,192,25840,1,2,0:0:0:0:
312,192,25951,2,0,L|312:336,1,110,10|10,0:0|0:0,0:0:0:0:
128,200,26396,2,0,L|128:320,1,110,10|0,0:1|0:0,0:0:0:0:
312,302,26840,5,10,0:0:0:0:
312,302,26951,1,2,0:0:0:0:
216,280,27173,1,2,0:0:0:0:
216,224,27285,1,8,0:1:0:0:
464,240,27618,2,0,L|464:56,1,165,2|10,0:0|0:0,0:0:0:0:
354,75,28173,2,0,L|506:75,1,110,10|0,0:1|0:0,0:0:0:0:
280,160,28618,5,14,1:2:0:0:
200,208,28840,1,0,0:0:0:0:
280,328,29062,2,0,L|280:208,1,110,8|0,0:1|0:0,0:0:0:0:
104,184,29507,2,0,L|208:96,2,110,10|8|10,0:0|0:0|0:1,0:0:0:0:
24,184,30173,1,2,0:0:0:0:
216,328,30396,6,0,L|216:176,1,110,10|2,0:0|0:0,0:0:0:0:
136,184,30840,1,10,0:1:0:0:
216,136,31062,1,8,0:0:0:0:
400,64,31285,1,10,0:0:0:0:
424,112,31396,1,2,0:0:0:0:
400,160,31507,1,2,0:0:0:0:
344,248,31618,2,0,L|480:128,1,165,2|8,0:0|0:0,0:0:0:0:
288,320,32173,5,10,1:2:0:0:
192,272,32396,1,2,0:0:0:0:
288,224,32618,1,8,0:1:0:0:
192,184,32840,1,10,0:0:0:0:
288,144,33062,2,0,L|392:56,2,110,10|8|10,0:0|0:0|0:1,0:0:0:0:
192,144,33729,1,2,0:0:0:0:
400,256,33951,5,10,0:0:0:0:
432,168,34099,1,2,0:0:0:0:
392,88,34248,1,2,0:0:0:0:
312,72,34396,1,10,0:1:0:0:
312,72,34507,1,2,0:0:0:0:
56,320,34840,2,0,L|56:160,1,110,10|10,0:0|0:1,0:0:0:0:
160,176,35285,1,8,0:3:0:0:
56,144,35507,1,8,0:0:0:0:
232,328,35729,5,10,0:0:0:0:
296,304,35840,2,0,L|296:176,1,110,2|2,0:0|0:0,0:0:0:0:
112,240,36285,2,0,B|112:120,1,110,2|2,0:0|0:0,0:0:0:0:
160,120,36618,1,8,0:0:0:0:
208,112,36729,1,2,0:0:0:0:
112,56,36951,1,2,0:0:0:0:
288,296,37173,2,0,L|288:168,1,110,2|0,0:0|0:0,0:0:0:0:
224,176,37507,5,10,0:0:0:0:
224,120,37618,1,2,0:0:0:0:
320,96,37840,1,2,0:0:0:0:
416,72,38062,1,2,0:0:0:0:
208,56,38396,1,10,0:0:0:0:
152,64,38507,2,0,L|304:136,1,165,2|10,0:0|0:1,0:0:0:0:
208,136,39062,1,0,0:0:0:0:
392,288,39285,5,10,1:2:0:0:
288,344,39507,2,0,L|288:224,1,110,2|8,0:0|0:1,0:0:0:0:
288,234,39840,1,2,0:0:0:0:
448,184,40173,1,10,0:0:0:0:
360,144,40396,1,10,0:0:0:0:
448,112,40618,1,8,0:1:0:0:
448,112,40729,1,2,0:0:0:0:
192,328,41062,5,10,0:0:0:0:
136,328,41173,2,0,P|96:272|152:192,1,165,2|10,0:0|0:1,0:0:0:0:
248,192,41840,1,2,0:0:0:0:
64,192,42062,2,0,B|64:40,1,110,2|2,0:0|0:0,0:0:0:0:
128,64,42396,2,0,L|256:64,1,110,10|8,0:1|0:3,0:0:0:0:
424,64,42840,5,14,1:2:0:0:
320,80,43173,1,2,0:0:0:0:
312,136,43285,1,10,0:1:0:0:
424,152,43507,2,0,L|424:288,1,110,2|10,0:0|0:0,0:0:0:0:
240,304,43951,1,0,0:0:0:0:
240,248,44062,1,2,0:0:0:0:
368,224,44396,1,2,0:0:0:0:
184,344,44618,6,0,L|184:208,1,110,10|0,0:0|0:0,0:0:0:0:
296,200,45062,1,10,0:1:0:0:
240,184,45173,1,2,0:0:0:0:
120,144,45507,1,10,0:0:0:0:
240,136,45729,1,0,0:0:0:0:
240,136,45840,2,0,L|120:16,1,165,2|8,0:0|0:0,0:0:0:0:
312,328,46396,6,0,L|432:240,1,110,10|2,0:0|0:0,0:0:0:0:
384,160,46840,1,10,0:1:0:0:
296,144,47062,1,2,0:0:0:0:
384,160,47285,2,0,L|384:40,1,110,10|0,0:0|0:0,0:0:0:0:
312,48,47618,2,0,L|464:160,1,165,2|10,0:0|0:0,0:0:0:0:
256,344,48173,6,0,P|208:272|288:152,1,220,10|8,0:0|0:1,0:0:0:0:
344,160,48840,1,8,0:0:0:0:
432,96,49062,2,0,L|432:240,1,110,10|10,0:0|0:0,0:0:0:0:
352,256,49507,1,10,0:1:0:0:
160,336,49729,6,0,P|80:232|192:72,1,330,14|8,0:0|1:1,0:0:0:0:
248,80,50618,1,8,0:0:0:0:
472,152,50840,1,10,0:0:0:0:
473,225,50951,1,2,0:0:0:0:
344,256,51285,1,10,0:1:0:0:
344,216,51396,1,2,0:0:0:0:
96,328,51729,6,0,L|96:208,1,110,14|2,0:0|0:3,0:0:0:0:
208,128,52173,2,0,L|64:128,1,110,14|2,0:1|0:3,0:0:0:0:
80,168,52507,1,8,0:1:0:0:
96,218,52618,1,8,0:0:0:0:
208,344,52840,2,0,L|320:248,2,110,2|10|2,0:3|0:1|0:3,0:0:0:0:
24,336,53507,6,0,L|24:208,1,110,10|0,0:0|0:0,0:0:0:0:
80,208,53840,2,0,P|160:176|176:88,1,165,2|2,0:0|0:3,0:0:0:0:
72,168,54396,2,0,L|72:56,1,110,10|2,0:0|0:3,0:0:0:0:
256,64,54840,2,0,L|256:184,1,110,8|2,0:1|0:3,0:0:0:0:
80,328,55285,6,0,L|256:192,1,220,10|14,0:0|0:1,0:0:0:0:
152,168,55951,1,2,0:3:0:0:
144,104,56062,1,8,0:1:0:0:
136,40,56173,1,8,0:0:0:0:
240,48,56396,1,2,0:3:0:0:
144,280,56618,2,0,L|152:144,1,110,10|2,0:1|0:3,0:0:0:0:
336,120,57062,5,10,0:0:0:0:
424,160,57285,1,2,0:3:0:0:
336,208,57507,1,10,0:1:0:0:
288,216,57618,2,0,L|288:336,1,110,0|8,0:0|0:1,0:0:0:0:
344,328,57951,2,0,L|440:248,2,110,10|10|10,0:0|0:0|0:1,0:0:0:0:
184,328,58840,6,0,L|176:184,1,110,10|2,0:0|0:3,0:0:0:0:
376,104,59285,2,0,L|384:232,1,110,14|2,0:1|0:3,0:0:0:0:
384,264,59618,1,8,0:1:0:0:
352,304,59729,1,10,0:0:0:0:
248,304,59951,1,2,0:3:0:0:
352,304,60173,2,0,L|360:152,1,110,10|2,0:1|0:3,0:0:0:0:
160,88,60618,6,0,L|304:200,2,165,10|2|2,0:0|0:0|0:3,0:0:0:0:
64,88,61507,2,0,L|56:208,1,110,10|2,0:0|0:3,0:0:0:0:
240,304,61951,2,0,L|248:179,1,110,10|2,0:1|0:3,0:0:0:0:
64,304,62396,5,14,0:0:0:0:
64,304,62507,1,2,0:0:0:0:
160,192,62729,2,0,L|48:56,1,165,2|2,0:1|0:0,0:0:0:0:
264,304,63285,1,10,0:0:0:0:
264,240,63396,1,2,0:0:0:0:
144,232,63618,2,0,L|272:104,1,165,2|2,0:1|0:3,0:0:0:0:
432,72,64173,5,14,0:0:0:0:
360,112,64396,1,2,0:0:0:0:
432,160,64618,1,10,0:1:0:0:
432,240,64840,1,2,0:0:0:0:
248,320,65062,2,0,L|80:184,2,165,10|10|10,0:1|0:0|0:1,0:0:0:0:
424,64,65951,6,0,L|432:200,1,110,14|2,0:0|0:3,0:0:0:0:
248,336,66396,2,0,L|240:184,1,110,14|2,0:1|0:3,0:0:0:0:
240,176,66729,1,8,0:1:0:0:
272,144,66840,1,8,0:0:0:0:
376,128,67062,1,2,0:3:0:0:
200,56,67285,1,10,0:1:0:0:
200,144,67507,1,2,0:3:0:0:
376,128,67729,5,10,0:0:0:0:
472,296,67951,2,0,L|472:224,1,55,2|2,0:3|0:0,0:0:0:0:
472,241,68173,2,0,L|352:176,1,110,8|2,0:1|0:3,0:0:0:0:
288,168,68618,2,0,L|400:80,1,110,10|2,0:0|0:3,0:0:0:0:
200,320,69062,2,0,L|200:176,1,110,10|2,0:1|0:3,0:0:0:0:
304,176,69507,6,0,L|192:152,1,110,10|2,0:0|0:3,0:0:0:0:
376,80,69951,2,0,L|376:208,1,110,14|2,0:1|0:3,0:0:0:0:
336,208,70285,1,8,0:1:0:0:
288,224,70396,1,10,0:0:0:0:
416,336,70618,2,0,L|512:248,2,110,2|10|2,0:3|0:1|0:3,0:0:0:0:
240,112,71285,5,10,0:0:0:0:
144,176,71507,1,2,0:3:0:0:
240,200,71729,1,10,0:1:0:0:
240,232,71840,1,2,0:0:0:0:
64,344,72062,5,2,0:0:0:0:
64,344,72173,2,0,L|64:184,1,110,10|2,0:0|0:3,0:0:0:0:
176,208,72618,2,0,L|80:144,1,110,10|2,0:1|0:3,0:0:0:0:
280,328,73062,5,14,0:0:0:0:
344,304,73173,1,2,0:0:0:0:
248,264,73396,2,0,P|216:168|256:120,1,165,2|2,0:1|0:3,0:1:0:0:
440,128,73951,1,10,0:0:0:0:
440,128,74062,1,2,0:0:0:0:
328,144,74285,2,0,L|456:8,1,165,2|2,0:0|0:3,0:0:0:0:
264,336,74840,5,14,0:0:0:0:
176,288,75062,1,2,0:0:0:0:
248,232,75285,1,10,0:1:0:0:
176,192,75507,1,2,0:0:0:0:
360,176,75729,2,0,L|512:56,2,165,10|2|2,0:0|0:0|0:3,0:0:0:0:
152,288,76618,5,14,0:0:0:0:
88,248,76840,1,2,0:3:0:0:
88,176,77062,1,8,0:1:0:0:
272,264,77285,2,0,L|272:113,1,110,14|0,0:0|0:0,0:0:0:0:
192,128,77729,1,10,0:3:0:0:
272,96,77951,1,8,0:1:0:0:
86,319,78173,6,0,P|30:207|102:158,1,220,14|2,0:0|0:3,0:0:0:0:
192,160,78840,1,8,0:1:0:0:
192,96,79062,1,2,0:3:0:0:
88,80,79285,1,8,0:1:0:0:
128,80,79396,1,2,0:0:0:0:
384,320,79729,2,0,L|384:168,1,110,10|0,1:1|0:0,0:0:0:0:
200,216,80173,5,14,0:0:0:0:
328,256,80618,1,8,0:1:0:0:
232,264,80840,1,2,0:0:0:0:
232,296,80951,1,2,0:0:0:0:
328,256,81173,1,2,0:0:0:0:
208,232,81507,1,8,0:1:0:0:
208,152,81729,1,2,0:0:0:0:
384,256,81951,6,0,L|496:160,2,110,10|0|8,0:0|0:0|0:1,0:0:0:0:
216,272,82618,2,0,L|104:360,1,110,10|2,0:0|0:0,0:0:0:0:
216,272,83062,1,2,0:0:0:0:
128,232,83285,2,0,L|128:88,1,110,10|0,0:1|0:0,0:0:0:0:
320,112,83729,5,10,0:0:0:0:
152,304,84173,1,10,0:1:0:0:
320,304,84396,1,2,0:0:0:0:
376,288,84507,2,0,L|480:200,2,110,2|2|2,0:0|0:0|0:0,0:0:0:0:
320,304,85062,2,0,L|320:184,1,110,10|0,0:1|0:0,0:0:0:0:
144,216,85507,5,14,1:2:0:0:
80,160,85729,1,8,0:0:0:0:
144,112,85951,1,10,0:0:0:0:
320,104,86173,1,14,0:0:0:0:
256,192,86507,12,0,87285,0:0:0:0:
