osu file format v14

[General]
AudioFilename: audio.mp3
AudioLeadIn: 0
PreviewTime: 53840
Countdown: 0
SampleSet: Soft
StackLeniency: 0.7
Mode: 3
LetterboxInBreaks: 0
SpecialStyle: 0
WidescreenStoryboard: 0

[Editor]
DistanceSpacing: 0.8
BeatDivisor: 4
GridSize: 4
TimelineZoom: 2.799999

[Metadata]
Title:Strahv -Encore-
TitleUnicode:Strahv -Encore-
Artist:feryquitous feat sennzai
ArtistUnicode:feryquitous feat sennzai
Creator:DE-CADE
Version:Hyper
Source:BMS
Tags:Groundbreaking BOFU2015 Rezive out ZheleNaught Diverse System
BeatmapID:1086002
BeatmapSetID:497464

[Difficulty]
HPDrainRate:7
CircleSize:4
OverallDifficulty:7
ApproachRate:5
SliderMultiplier:1.4
SliderTickRate:1

[Events]
//Background and Video events
0,0,"BG.jpg",0,0
Video,960,"BGA.avi"
//Break Periods
//Storyboard Layer 0 (Background)
//Storyboard Layer 1 (Fail)
//Storyboard Layer 2 (Pass)
//Storyboard Layer 3 (Foreground)
//Storyboard Sound Samples

[TimingPoints]
2636,314.13612565445,4,2,1,70,1,0
64206,-100,4,2,1,70,0,1
73630,-100,4,2,1,70,0,0
75358,-100,4,2,1,70,0,1
81798,-100,4,2,1,70,0,0
86510,314.13612565445,4,2,1,70,1,0
107871,-100,4,2,1,70,0,1
117923,-100,4,2,1,70,0,0
120279,-100,4,2,1,70,0,1
127975,-100,4,2,1,70,0,0

[HitObjects]
64,192,2635,5,2,0:0:0:0:
448,192,2635,1,4,0:0:0:0:
192,192,2714,1,0,0:0:0:0:
320,192,2793,1,0,0:0:0:0:
448,192,2871,1,0,0:0:0:0:
64,192,2950,1,8,0:0:0:0:
192,192,2950,1,0,0:0:0:0:
320,192,3107,1,2,0:0:0:0:
64,192,3264,1,8,0:0:0:0:
448,192,3264,1,0,0:0:0:0:
320,192,3421,1,2,0:0:0:0:
64,192,3499,1,8,0:0:0:0:
192,192,3499,1,0,0:0:0:0:
64,192,3735,1,8,0:0:0:0:
448,192,3735,1,0,0:0:0:0:
192,192,3971,1,8,0:0:0:0:
320,192,3971,1,0,0:0:0:0:
64,192,4206,1,8,0:0:0:0:
448,192,4206,1,0,0:0:0:0:
320,192,4363,1,2,0:0:0:0:
448,192,4363,1,0,0:0:0:0:
64,192,4520,1,8,0:0:0:0:
192,192,4520,1,0,0:0:0:0:
320,192,4677,1,0,0:0:0:0:
64,192,4834,1,2,0:0:0:0:
448,192,4834,1,0,0:0:0:0:
192,192,4913,1,8,0:0:0:0:
320,192,4913,1,0,0:0:0:0:
64,192,5149,1,2,0:0:0:0:
448,192,5149,1,0,0:0:0:0:
192,192,5306,1,0,0:0:0:0:
320,192,5463,1,8,0:0:0:0:
448,192,5463,128,0,5777:0:0:0:0:
64,192,5777,1,2,0:0:0:0:
320,192,5855,1,8,0:0:0:0:
64,192,5934,1,2,0:0:0:0:
192,192,5934,1,0,0:0:0:0:
320,192,6012,1,8,0:0:0:0:
448,192,6091,1,0,0:0:0:0:
64,192,6248,1,8,0:0:0:0:
320,192,6248,1,0,0:0:0:0:
192,192,6484,1,8,0:0:0:0:
320,192,6484,1,0,0:0:0:0:
64,192,6719,1,8,0:0:0:0:
448,192,6719,1,0,0:0:0:0:
192,192,6876,1,8,0:0:0:0:
320,192,6876,1,0,0:0:0:0:
64,192,7033,1,2,0:0:0:0:
448,192,7033,1,0,0:0:0:0:
320,192,7112,1,8,0:0:0:0:
192,192,7269,1,8,0:0:0:0:
320,192,7348,1,2,0:0:0:0:
448,192,7348,1,0,0:0:0:0:
64,192,7505,1,8,0:0:0:0:
192,192,7505,1,0,0:0:0:0:
64,192,7662,1,2,0:0:0:0:
448,192,7662,1,0,0:0:0:0:
320,192,7740,1,0,0:0:0:0:
448,192,7819,1,0,0:0:0:0:
320,192,7897,1,0,0:0:0:0:
64,192,7976,1,8,0:0:0:0:
192,192,7976,1,0,0:0:0:0:
320,192,8133,1,2,0:0:0:0:
64,192,8290,1,8,0:0:0:0:
448,192,8290,1,0,0:0:0:0:
320,192,8447,1,2,0:0:0:0:
64,192,8526,1,8,0:0:0:0:
192,192,8526,1,0,0:0:0:0:
192,192,8761,1,8,0:0:0:0:
448,192,8761,1,0,0:0:0:0:
64,192,8997,1,8,0:0:0:0:
448,192,8997,1,0,0:0:0:0:
192,192,9232,1,8,0:0:0:0:
320,192,9232,1,0,0:0:0:0:
64,192,9389,1,2,0:0:0:0:
320,192,9389,1,0,0:0:0:0:
192,192,9546,1,8,0:0:0:0:
448,192,9546,1,0,0:0:0:0:
64,192,9704,1,0,0:0:0:0:
192,192,9861,1,2,0:0:0:0:
320,192,9861,1,0,0:0:0:0:
64,192,9939,1,8,0:0:0:0:
448,192,9939,1,0,0:0:0:0:
64,192,10175,1,2,0:0:0:0:
192,192,10175,1,0,0:0:0:0:
320,192,10332,1,0,0:0:0:0:
64,192,10489,1,8,0:0:0:0:
448,192,10489,1,0,0:0:0:0:
320,192,10646,1,0,0:0:0:0:
448,192,10646,1,0,0:0:0:0:
64,192,10803,1,2,0:0:0:0:
192,192,10803,1,0,0:0:0:0:
320,192,10882,1,8,0:0:0:0:
448,192,10960,1,2,0:0:0:0:
64,192,11039,1,8,0:0:0:0:
192,192,11117,1,0,0:0:0:0:
320,192,11196,1,0,0:0:0:0:
64,192,11274,1,8,0:0:0:0:
448,192,11274,1,0,0:0:0:0:
192,192,11510,1,8,0:0:0:0:
320,192,11510,1,0,0:0:0:0:
64,192,11745,1,8,0:0:0:0:
448,192,11745,1,0,0:0:0:0:
64,192,11903,1,8,0:0:0:0:
320,192,11903,1,0,0:0:0:0:
448,192,12060,1,2,0:0:0:0:
64,192,12138,1,8,0:0:0:0:
192,192,12138,1,0,0:0:0:0:
320,192,12217,1,0,0:0:0:0:
192,192,12295,1,8,0:0:0:0:
64,192,12374,1,2,0:0:0:0:
448,192,12374,1,0,0:0:0:0:
192,192,12531,1,8,0:0:0:0:
320,192,12531,1,0,0:0:0:0:
64,192,12688,1,2,0:0:0:0:
448,192,12688,1,0,0:0:0:0:
192,192,12766,1,0,0:0:0:0:
320,192,12845,1,0,0:0:0:0:
448,192,12923,1,0,0:0:0:0:
64,192,13002,1,8,0:0:0:0:
192,192,13002,1,0,0:0:0:0:
320,192,13159,1,2,0:0:0:0:
64,192,13316,1,8,0:0:0:0:
448,192,13316,1,0,0:0:0:0:
320,192,13473,1,2,0:0:0:0:
64,192,13552,1,8,0:0:0:0:
192,192,13552,1,0,0:0:0:0:
192,192,13787,1,8,0:0:0:0:
448,192,13787,1,0,0:0:0:0:
320,192,14023,1,8,0:0:0:0:
448,192,14023,1,0,0:0:0:0:
64,192,14259,1,8,0:0:0:0:
448,192,14259,1,0,0:0:0:0:
192,192,14416,1,2,0:0:0:0:
320,192,14416,1,0,0:0:0:0:
64,192,14573,1,8,0:0:0:0:
448,192,14573,1,0,0:0:0:0:
192,192,14730,1,0,0:0:0:0:
320,192,14887,1,2,0:0:0:0:
448,192,14887,1,0,0:0:0:0:
64,192,14965,1,8,0:0:0:0:
192,192,15201,1,2,0:0:0:0:
448,192,15201,1,0,0:0:0:0:
320,192,15279,1,0,0:0:0:0:
192,192,15358,1,0,0:0:0:0:
64,192,15437,1,0,0:0:0:0:
320,192,15515,1,8,0:0:0:0:
448,192,15515,1,0,0:0:0:0:
192,192,15672,1,0,0:0:0:0:
64,192,15829,1,2,0:0:0:0:
320,192,15908,1,8,0:0:0:0:
448,192,15908,1,0,0:0:0:0:
192,192,15986,1,2,0:0:0:0:
320,192,16065,1,8,0:0:0:0:
64,192,16300,1,8,0:0:0:0:
192,192,16300,1,0,0:0:0:0:
192,192,16536,1,8,0:0:0:0:
320,192,16536,1,0,0:0:0:0:
320,192,16772,1,8,0:0:0:0:
448,192,16772,1,0,0:0:0:0:
64,192,16929,1,8,0:0:0:0:
192,192,16929,1,0,0:0:0:0:
320,192,17086,1,2,0:0:0:0:
448,192,17086,1,0,0:0:0:0:
192,192,17164,1,8,0:0:0:0:
320,192,17243,1,0,0:0:0:0:
448,192,17321,1,8,0:0:0:0:
64,192,17400,1,2,0:0:0:0:
192,192,17400,1,0,0:0:0:0:
320,192,17557,1,8,0:0:0:0:
64,192,17714,1,2,0:0:0:0:
448,192,17714,1,0,0:0:0:0:
192,192,17793,1,0,0:0:0:0:
320,192,17871,1,0,0:0:0:0:
192,192,17950,1,0,0:0:0:0:
320,192,18028,1,8,0:0:0:0:
448,192,18028,1,0,0:0:0:0:
64,192,18185,1,2,0:0:0:0:
192,192,18342,1,8,0:0:0:0:
448,192,18342,1,0,0:0:0:0:
64,192,18499,1,2,0:0:0:0:
192,192,18578,1,8,0:0:0:0:
320,192,18578,1,0,0:0:0:0:
64,192,18814,1,8,0:0:0:0:
320,192,18814,1,0,0:0:0:0:
64,192,19049,1,8,0:0:0:0:
448,192,19049,1,0,0:0:0:0:
192,192,19285,1,8,0:0:0:0:
320,192,19285,1,0,0:0:0:0:
64,192,19442,1,2,0:0:0:0:
320,192,19442,1,0,0:0:0:0:
192,192,19599,1,8,0:0:0:0:
448,192,19599,1,0,0:0:0:0:
320,192,19756,1,0,0:0:0:0:
64,192,19913,1,2,0:0:0:0:
192,192,19913,1,0,0:0:0:0:
320,192,19992,1,8,0:0:0:0:
448,192,19992,1,0,0:0:0:0:
64,192,20227,1,2,0:0:0:0:
448,192,20227,1,0,0:0:0:0:
192,192,20384,1,0,0:0:0:0:
64,192,20541,1,8,0:0:0:0:
320,192,20541,1,0,0:0:0:0:
192,192,20698,1,0,0:0:0:0:
448,192,20698,1,0,0:0:0:0:
64,192,20855,1,2,0:0:0:0:
320,192,20934,1,8,0:0:0:0:
448,192,20934,1,0,0:0:0:0:
64,192,21012,1,2,0:0:0:0:
192,192,21091,1,8,0:0:0:0:
320,192,21170,1,0,0:0:0:0:
448,192,21248,1,0,0:0:0:0:
64,192,21327,1,8,0:0:0:0:
192,192,21327,1,0,0:0:0:0:
320,192,21484,1,0,0:0:0:0:
192,192,21562,1,0,0:0:0:0:
64,192,21641,1,0,0:0:0:0:
448,192,21641,1,0,0:0:0:0:
192,192,21798,1,0,0:0:0:0:
320,192,21798,1,0,0:0:0:0:
64,192,21955,1,0,0:0:0:0:
448,192,21955,128,0,22112:0:0:0:0:
192,192,22112,1,0,0:0:0:0:
320,192,22112,1,0,0:0:0:0:
64,192,22269,1,0,0:0:0:0:
192,192,22348,1,0,0:0:0:0:
320,192,22426,1,0,0:0:0:0:
448,192,22426,1,0,0:0:0:0:
192,192,22583,1,0,0:0:0:0:
320,192,22583,1,0,0:0:0:0:
64,192,22740,128,0,23997:0:0:0:0:
448,192,22740,1,0,0:0:0:0:
192,192,23997,1,2,0:0:0:0:
320,192,23997,1,0,0:0:0:0:
448,192,24154,1,0,0:0:0:0:
64,192,24311,1,8,0:0:0:0:
192,192,24311,1,0,0:0:0:0:
320,192,24468,1,0,0:0:0:0:
448,192,24625,1,0,0:0:0:0:
192,192,24782,1,2,0:0:0:0:
320,192,24782,1,0,0:0:0:0:
192,192,24939,1,8,0:0:0:0:
448,192,24939,1,0,0:0:0:0:
64,192,25096,1,0,0:0:0:0:
320,192,25253,1,0,0:0:0:0:
64,192,25410,1,2,0:0:0:0:
192,192,25410,1,0,0:0:0:0:
64,192,25567,1,8,0:0:0:0:
448,192,25567,1,0,0:0:0:0:
320,192,25725,1,0,0:0:0:0:
64,192,25882,1,0,0:0:0:0:
192,192,26039,1,2,0:0:0:0:
320,192,26039,1,0,0:0:0:0:
192,192,26196,1,8,0:0:0:0:
448,192,26196,1,0,0:0:0:0:
64,192,26353,1,0,0:0:0:0:
192,192,26510,1,2,0:0:0:0:
320,192,26510,1,0,0:0:0:0:
448,192,26667,1,0,0:0:0:0:
64,192,26824,1,8,0:0:0:0:
192,192,26824,1,0,0:0:0:0:
320,192,26981,1,0,0:0:0:0:
448,192,27138,1,0,0:0:0:0:
192,192,27295,1,2,0:0:0:0:
320,192,27295,1,0,0:0:0:0:
64,192,27452,1,8,0:0:0:0:
320,192,27452,1,0,0:0:0:0:
192,192,27609,1,0,0:0:0:0:
64,192,27766,128,0,28081:0:0:0:0:
448,192,27766,1,0,0:0:0:0:
320,192,27923,1,2,0:0:0:0:
192,192,28081,128,8,28395:0:0:0:0:
448,192,28081,1,0,0:0:0:0:
320,192,28238,1,0,0:0:0:0:
64,192,28395,128,0,28709:0:0:0:0:
448,192,28395,1,0,0:0:0:0:
320,192,28552,1,2,0:0:0:0:
192,192,28709,1,8,0:0:0:0:
448,192,28709,128,0,29023:0:0:0:0:
64,192,28866,1,0,0:0:0:0:
192,192,29023,1,2,0:0:0:0:
320,192,29023,1,0,0:0:0:0:
448,192,29180,1,0,0:0:0:0:
64,192,29337,1,8,0:0:0:0:
192,192,29337,1,0,0:0:0:0:
320,192,29494,1,0,0:0:0:0:
64,192,29651,1,0,0:0:0:0:
192,192,29808,1,2,0:0:0:0:
320,192,29808,1,0,0:0:0:0:
320,192,29965,1,8,0:0:0:0:
448,192,29965,1,0,0:0:0:0:
64,192,30122,1,0,0:0:0:0:
448,192,30279,1,0,0:0:0:0:
192,192,30437,1,2,0:0:0:0:
320,192,30437,1,0,0:0:0:0:
64,192,30594,1,8,0:0:0:0:
320,192,30594,1,0,0:0:0:0:
192,192,30751,1,0,0:0:0:0:
320,192,30908,1,0,0:0:0:0:
64,192,31065,1,2,0:0:0:0:
448,192,31065,1,0,0:0:0:0:
320,192,31222,1,8,0:0:0:0:
448,192,31222,1,0,0:0:0:0:
64,192,31379,1,0,0:0:0:0:
192,192,31536,128,2,31693:0:0:0:0:
320,192,31536,128,0,31693:0:0:0:0:
64,192,31850,1,8,0:0:0:0:
448,192,31850,1,0,0:0:0:0:
320,192,32007,1,0,0:0:0:0:
192,192,32086,1,0,0:0:0:0:
64,192,32164,1,8,0:0:0:0:
448,192,32164,1,0,0:0:0:0:
320,192,32321,1,2,0:0:0:0:
64,192,32400,1,8,0:0:0:0:
448,192,32400,1,0,0:0:0:0:
64,192,32635,1,8,0:0:0:0:
448,192,32635,1,0,0:0:0:0:
320,192,32793,1,0,0:0:0:0:
64,192,32871,1,8,0:0:0:0:
192,192,32871,1,0,0:0:0:0:
320,192,33107,128,8,33264:0:0:0:0:
448,192,33107,128,0,33264:0:0:0:0:
64,192,33264,1,2,0:0:0:0:
192,192,33264,1,0,0:0:0:0:
192,192,33421,1,8,0:0:0:0:
320,192,33421,1,0,0:0:0:0:
64,192,33578,128,0,34049:0:0:0:0:
448,192,33578,1,0,0:0:0:0:
448,192,33735,1,2,0:0:0:0:
320,192,33814,1,8,0:0:0:0:
192,192,34049,1,2,0:0:0:0:
320,192,34049,1,0,0:0:0:0:
448,192,34206,1,0,0:0:0:0:
64,192,34363,1,8,0:0:0:0:
192,192,34363,1,0,0:0:0:0:
320,192,34520,1,0,0:0:0:0:
64,192,34677,1,0,0:0:0:0:
192,192,34834,1,2,0:0:0:0:
320,192,34834,1,0,0:0:0:0:
192,192,34992,1,8,0:0:0:0:
448,192,34992,1,0,0:0:0:0:
64,192,35149,1,0,0:0:0:0:
320,192,35306,1,0,0:0:0:0:
192,192,35463,1,2,0:0:0:0:
448,192,35463,1,0,0:0:0:0:
64,192,35620,1,8,0:0:0:0:
192,192,35620,1,0,0:0:0:0:
320,192,35777,1,0,0:0:0:0:
192,192,35934,1,0,0:0:0:0:
64,192,36091,1,2,0:0:0:0:
448,192,36091,1,0,0:0:0:0:
64,192,36248,1,8,0:0:0:0:
192,192,36248,1,0,0:0:0:0:
448,192,36405,1,0,0:0:0:0:
192,192,36562,1,2,0:0:0:0:
320,192,36562,1,0,0:0:0:0:
64,192,36719,1,0,0:0:0:0:
320,192,36876,1,8,0:0:0:0:
448,192,36876,1,0,0:0:0:0:
64,192,37033,1,0,0:0:0:0:
320,192,37190,1,0,0:0:0:0:
192,192,37348,1,2,0:0:0:0:
448,192,37348,1,0,0:0:0:0:
64,192,37505,1,8,0:0:0:0:
448,192,37505,1,0,0:0:0:0:
320,192,37662,1,0,0:0:0:0:
64,192,37819,128,0,38447:0:0:0:0:
448,192,37819,1,0,0:0:0:0:
320,192,37976,1,2,0:0:0:0:
192,192,38133,128,8,38447:0:0:0:0:
320,192,38447,1,0,0:0:0:0:
448,192,38447,128,0,39075:0:0:0:0:
192,192,38604,1,2,0:0:0:0:
64,192,38761,128,8,39075:0:0:0:0:
192,192,39075,1,2,0:0:0:0:
320,192,39075,1,0,0:0:0:0:
448,192,39232,1,0,0:0:0:0:
64,192,39389,1,8,0:0:0:0:
192,192,39389,1,0,0:0:0:0:
320,192,39546,1,0,0:0:0:0:
448,192,39704,1,0,0:0:0:0:
192,192,39861,1,2,0:0:0:0:
320,192,39861,1,0,0:0:0:0:
64,192,40018,1,8,0:0:0:0:
192,192,40018,1,0,0:0:0:0:
448,192,40175,1,0,0:0:0:0:
320,192,40332,1,0,0:0:0:0:
64,192,40489,1,2,0:0:0:0:
192,192,40489,1,0,0:0:0:0:
64,192,40646,1,8,0:0:0:0:
448,192,40646,1,0,0:0:0:0:
320,192,40803,1,0,0:0:0:0:
192,192,40960,1,0,0:0:0:0:
64,192,41117,1,2,0:0:0:0:
320,192,41117,1,0,0:0:0:0:
320,192,41274,1,8,0:0:0:0:
448,192,41274,1,0,0:0:0:0:
64,192,41431,1,0,0:0:0:0:
192,192,41588,1,2,0:0:0:0:
320,192,41588,1,0,0:0:0:0:
448,192,41745,1,0,0:0:0:0:
64,192,41903,1,8,0:0:0:0:
192,192,41903,1,0,0:0:0:0:
320,192,42060,1,0,0:0:0:0:
64,192,42217,1,0,0:0:0:0:
320,192,42374,1,2,0:0:0:0:
448,192,42374,1,0,0:0:0:0:
64,192,42531,1,8,0:0:0:0:
448,192,42531,1,0,0:0:0:0:
192,192,42688,1,0,0:0:0:0:
320,192,42845,1,0,0:0:0:0:
64,192,43002,128,2,43159:0:0:0:0:
192,192,43002,128,0,43159:0:0:0:0:
320,192,43159,1,8,0:0:0:0:
448,192,43159,1,0,0:0:0:0:
64,192,43316,128,2,43787:0:0:0:0:
192,192,43316,128,0,43787:0:0:0:0:
320,192,43787,1,0,0:0:0:0:
64,192,44101,1,4,0:0:0:0:
448,192,44101,128,0,45358:0:0:0:0:
192,192,44180,1,0,0:0:0:0:
64,192,44259,1,0,0:0:0:0:
192,192,44337,1,0,0:0:0:0:
320,192,44416,1,0,0:0:0:0:
64,192,44573,1,0,0:0:0:0:
320,192,45358,128,0,46615:0:0:0:0:
64,192,46615,128,0,47871:0:0:0:0:
192,192,47871,128,0,49128:0:0:0:0:
448,192,49128,128,0,50384:0:0:0:0:
64,192,50384,128,0,51641:0:0:0:0:
320,192,51641,128,0,52897:0:0:0:0:
192,192,52897,128,0,54154:0:0:0:0:
320,192,54154,1,2,0:0:0:0:
448,192,54154,1,0,0:0:0:0:
64,192,54311,1,0,0:0:0:0:
320,192,54468,1,2,0:0:0:0:
448,192,54468,1,0,0:0:0:0:
192,192,54625,1,0,0:0:0:0:
64,192,54782,1,8,0:0:0:0:
448,192,54782,1,0,0:0:0:0:
320,192,54939,1,2,0:0:0:0:
192,192,55018,1,0,0:0:0:0:
448,192,55096,1,0,0:0:0:0:
320,192,55253,1,0,0:0:0:0:
192,192,55332,1,0,0:0:0:0:
448,192,55410,1,0,0:0:0:0:
64,192,55567,1,2,0:0:0:0:
192,192,55567,1,0,0:0:0:0:
64,192,55725,1,2,0:0:0:0:
192,192,55725,1,0,0:0:0:0:
320,192,55882,1,0,0:0:0:0:
64,192,56039,1,8,0:0:0:0:
448,192,56039,1,0,0:0:0:0:
192,192,56196,1,2,0:0:0:0:
320,192,56196,1,0,0:0:0:0:
64,192,56510,1,0,0:0:0:0:
320,192,56667,1,2,0:0:0:0:
448,192,56667,1,0,0:0:0:0:
320,192,56981,1,2,0:0:0:0:
448,192,56981,1,0,0:0:0:0:
192,192,57138,1,0,0:0:0:0:
64,192,57295,1,8,0:0:0:0:
448,192,57295,1,0,0:0:0:0:
320,192,57452,1,0,0:0:0:0:
192,192,57531,1,0,0:0:0:0:
64,192,57609,1,0,0:0:0:0:
192,192,57688,1,0,0:0:0:0:
320,192,57766,1,0,0:0:0:0:
192,192,58081,1,2,0:0:0:0:
320,192,58081,1,0,0:0:0:0:
64,192,58238,1,0,0:0:0:0:
192,192,58395,1,2,0:0:0:0:
448,192,58395,1,0,0:0:0:0:
64,192,58552,1,8,0:0:0:0:
320,192,58552,1,0,0:0:0:0:
64,192,58709,1,8,0:0:0:0:
320,192,58709,1,0,0:0:0:0:
448,192,58866,1,0,0:0:0:0:
320,192,58944,1,0,0:0:0:0:
192,192,59023,1,0,0:0:0:0:
320,192,59101,1,0,0:0:0:0:
64,192,59180,1,2,0:0:0:0:
192,192,59180,1,0,0:0:0:0:
448,192,59180,1,0,0:0:0:0:
320,192,59337,1,0,0:0:0:0:
64,192,59494,1,2,0:0:0:0:
192,192,59494,1,0,0:0:0:0:
320,192,59651,1,0,0:0:0:0:
64,192,59808,1,8,0:0:0:0:
448,192,59808,1,0,0:0:0:0:
192,192,59965,1,2,0:0:0:0:
320,192,60044,1,0,0:0:0:0:
64,192,60122,1,0,0:0:0:0:
192,192,60279,1,0,0:0:0:0:
448,192,60279,1,0,0:0:0:0:
64,192,60437,1,0,0:0:0:0:
320,192,60594,1,2,0:0:0:0:
448,192,60594,1,0,0:0:0:0:
320,192,60751,1,2,0:0:0:0:
448,192,60751,1,0,0:0:0:0:
192,192,60908,1,0,0:0:0:0:
64,192,61065,1,8,0:0:0:0:
448,192,61065,1,0,0:0:0:0:
192,192,61222,1,2,0:0:0:0:
320,192,61222,1,0,0:0:0:0:
64,192,61379,1,0,0:0:0:0:
320,192,61536,128,0,61693:0:0:0:0:
64,192,61693,1,2,0:0:0:0:
192,192,61693,1,0,0:0:0:0:
448,192,61850,1,0,0:0:0:0:
64,192,62007,1,2,0:0:0:0:
192,192,62007,1,0,0:0:0:0:
192,192,62164,1,0,0:0:0:0:
64,192,62321,1,8,0:0:0:0:
448,192,62321,1,0,0:0:0:0:
320,192,62478,1,0,0:0:0:0:
64,192,62635,1,0,0:0:0:0:
192,192,62714,1,0,0:0:0:0:
320,192,62793,1,0,0:0:0:0:
448,192,62871,1,0,0:0:0:0:
64,192,62950,1,2,0:0:0:0:
192,192,62950,1,0,0:0:0:0:
64,192,64206,1,4,0:0:0:0:
192,192,64206,1,2,0:0:0:0:
448,192,64206,1,0,0:0:0:0:
64,192,64520,128,8,64677:0:0:0:0:
448,192,64520,1,0,0:0:0:0:
192,192,64677,128,0,64834:0:0:0:0:
320,192,64834,1,8,0:0:0:0:
448,192,64834,128,0,64992:0:0:0:0:
64,192,64992,1,2,0:0:0:0:
192,192,65070,1,8,0:0:0:0:
320,192,65070,128,0,65227:0:0:0:0:
192,192,65306,128,8,65463:0:0:0:0:
448,192,65306,1,0,0:0:0:0:
64,192,65541,128,8,65698:0:0:0:0:
320,192,65541,1,0,0:0:0:0:
192,192,65777,1,8,0:0:0:0:
448,192,65777,1,0,0:0:0:0:
192,192,65934,1,2,0:0:0:0:
320,192,65934,1,0,0:0:0:0:
64,192,66091,1,8,0:0:0:0:
448,192,66091,1,0,0:0:0:0:
320,192,66248,128,0,66405:0:0:0:0:
192,192,66405,1,2,0:0:0:0:
64,192,66405,1,0,0:0:0:0:
448,192,66484,1,8,0:0:0:0:
192,192,66562,1,0,0:0:0:0:
64,192,66719,1,2,0:0:0:0:
448,192,66719,1,0,0:0:0:0:
192,192,66798,1,0,0:0:0:0:
320,192,66876,1,0,0:0:0:0:
192,192,66955,1,0,0:0:0:0:
320,192,67033,1,8,0:0:0:0:
448,192,67033,128,0,67190:0:0:0:0:
192,192,67190,1,0,0:0:0:0:
64,192,67348,128,0,67426:0:0:0:0:
448,192,67426,1,8,0:0:0:0:
320,192,67426,1,0,0:0:0:0:
192,192,67505,1,2,0:0:0:0:
64,192,67583,1,8,0:0:0:0:
320,192,67583,1,0,0:0:0:0:
192,192,67819,1,8,0:0:0:0:
448,192,67819,1,0,0:0:0:0:
64,192,68054,1,8,0:0:0:0:
448,192,68054,1,0,0:0:0:0:
192,192,68290,1,8,0:0:0:0:
320,192,68290,1,0,0:0:0:0:
192,192,68447,1,8,0:0:0:0:
320,192,68447,1,0,0:0:0:0:
64,192,68604,1,8,0:0:0:0:
448,192,68604,1,0,0:0:0:0:
320,192,68683,1,8,0:0:0:0:
192,192,68761,1,0,0:0:0:0:
64,192,68840,1,8,0:0:0:0:
320,192,68918,1,2,0:0:0:0:
448,192,68918,1,0,0:0:0:0:
320,192,69075,1,8,0:0:0:0:
64,192,69232,1,4,0:0:0:0:
192,192,69232,1,0,0:0:0:0:
448,192,69232,1,0,0:0:0:0:
64,192,69546,1,8,0:0:0:0:
448,192,69546,128,0,69704:0:0:0:0:
320,192,69704,128,0,69861:0:0:0:0:
64,192,69861,128,8,70018:0:0:0:0:
192,192,69861,1,0,0:0:0:0:
448,192,70018,1,2,0:0:0:0:
192,192,70096,128,8,70253:0:0:0:0:
320,192,70096,1,0,0:0:0:0:
64,192,70332,1,8,0:0:0:0:
320,192,70332,128,0,70489:0:0:0:0:
192,192,70567,1,8,0:0:0:0:
448,192,70567,128,0,70725:0:0:0:0:
64,192,70803,1,8,0:0:0:0:
320,192,70803,1,0,0:0:0:0:
192,192,70960,1,2,0:0:0:0:
320,192,70960,1,0,0:0:0:0:
64,192,71117,1,8,0:0:0:0:
448,192,71117,1,0,0:0:0:0:
192,192,71274,128,0,71431:0:0:0:0:
64,192,71431,1,2,0:0:0:0:
448,192,71431,1,0,0:0:0:0:
320,192,71510,1,8,0:0:0:0:
192,192,71588,1,0,0:0:0:0:
64,192,71745,1,2,0:0:0:0:
448,192,71745,1,0,0:0:0:0:
192,192,71824,1,0,0:0:0:0:
320,192,71903,1,0,0:0:0:0:
192,192,71981,1,0,0:0:0:0:
64,192,72060,1,8,0:0:0:0:
448,192,72060,128,0,72217:0:0:0:0:
320,192,72217,1,0,0:0:0:0:
192,192,72374,128,0,72452:0:0:0:0:
64,192,72452,1,8,0:0:0:0:
448,192,72452,1,0,0:0:0:0:
320,192,72531,1,2,0:0:0:0:
64,192,72609,1,8,0:0:0:0:
192,192,72609,1,0,0:0:0:0:
320,192,72845,1,8,0:0:0:0:
448,192,72845,1,0,0:0:0:0:
64,192,73081,1,8,0:0:0:0:
448,192,73081,1,0,0:0:0:0:
192,192,73316,1,8,0:0:0:0:
320,192,73316,1,0,0:0:0:0:
192,192,73473,1,8,0:0:0:0:
320,192,73473,1,0,0:0:0:0:
64,192,73630,128,8,74259:0:0:0:0:
448,192,73630,128,0,74259:0:0:0:0:
192,192,74259,1,2,0:0:0:0:
320,192,74259,1,4,0:0:0:0:
448,192,74573,128,0,74887:0:0:0:0:
64,192,74887,1,2,0:0:0:0:
192,192,74965,1,2,0:0:0:0:
320,192,75044,1,2,0:0:0:0:
448,192,75122,1,2,0:0:0:0:
64,192,75201,1,2,0:0:0:0:
192,192,75279,1,2,0:0:0:0:
320,192,75358,1,8,0:0:0:0:
448,192,75358,128,0,75594:0:0:0:0:
64,192,75594,1,8,0:0:0:0:
192,192,75594,1,0,0:0:0:0:
320,192,75672,1,0,0:0:0:0:
64,192,75829,1,8,0:0:0:0:
448,192,75829,1,0,0:0:0:0:
320,192,75986,1,2,0:0:0:0:
448,192,75986,1,0,0:0:0:0:
64,192,76143,1,8,0:0:0:0:
192,192,76143,1,0,0:0:0:0:
448,192,76300,128,0,76457:0:0:0:0:
320,192,76457,1,2,0:0:0:0:
192,192,76536,1,8,0:0:0:0:
64,192,76615,128,0,76772:0:0:0:0:
448,192,76772,1,2,0:0:0:0:
320,192,76850,1,0,0:0:0:0:
192,192,76929,1,0,0:0:0:0:
64,192,77007,1,0,0:0:0:0:
448,192,77086,128,8,77243:0:0:0:0:
320,192,77164,1,0,0:0:0:0:
192,192,77243,1,0,0:0:0:0:
64,192,77400,128,0,77478:0:0:0:0:
448,192,77478,1,8,0:0:0:0:
320,192,77478,1,0,0:0:0:0:
192,192,77557,1,2,0:0:0:0:
64,192,77635,1,8,0:0:0:0:
320,192,77635,1,0,0:0:0:0:
192,192,77871,1,8,0:0:0:0:
448,192,77871,1,0,0:0:0:0:
64,192,78107,1,8,0:0:0:0:
448,192,78107,1,0,0:0:0:0:
192,192,78342,1,8,0:0:0:0:
320,192,78342,1,0,0:0:0:0:
192,192,78499,1,8,0:0:0:0:
320,192,78499,1,0,0:0:0:0:
64,192,78656,1,8,0:0:0:0:
448,192,78656,1,0,0:0:0:0:
320,192,78735,1,8,0:0:0:0:
192,192,78814,1,0,0:0:0:0:
64,192,78892,1,8,0:0:0:0:
320,192,78971,1,2,0:0:0:0:
448,192,78971,1,0,0:0:0:0:
320,192,79128,1,8,0:0:0:0:
64,192,79285,1,2,0:0:0:0:
448,192,79285,1,0,0:0:0:0:
192,192,79285,1,4,0:0:0:0:
320,192,79442,1,0,0:0:0:0:
64,192,79599,128,8,79756:0:0:0:0:
448,192,79599,1,0,0:0:0:0:
192,192,79756,128,0,79913:0:0:0:0:
320,192,79913,1,8,0:0:0:0:
448,192,79913,128,0,80070:0:0:0:0:
64,192,80070,1,2,0:0:0:0:
192,192,80149,1,8,0:0:0:0:
320,192,80149,128,0,80306:0:0:0:0:
192,192,80384,128,8,80541:0:0:0:0:
448,192,80384,1,0,0:0:0:0:
64,192,80620,128,8,80777:0:0:0:0:
320,192,80620,1,0,0:0:0:0:
192,192,80855,1,8,0:0:0:0:
320,192,80855,1,0,0:0:0:0:
192,192,81012,1,2,0:0:0:0:
448,192,81012,1,0,0:0:0:0:
64,192,81170,1,8,0:0:0:0:
320,192,81170,1,0,0:0:0:0:
192,192,81327,128,0,81484:0:0:0:0:
64,192,81484,1,2,0:0:0:0:
448,192,81484,1,0,0:0:0:0:
192,192,81562,1,8,0:0:0:0:
320,192,81562,1,0,0:0:0:0:
64,192,81798,1,2,0:0:0:0:
320,192,81798,1,4,0:0:0:0:
448,192,81798,128,0,82112:0:0:0:0:
192,192,82112,1,0,0:0:0:0:
64,192,82426,128,0,82662:0:0:0:0:
448,192,82426,1,0,0:0:0:0:
192,192,82662,1,0,0:0:0:0:
448,192,82662,128,0,82819:0:0:0:0:
320,192,82897,1,0,0:0:0:0:
64,192,82897,128,0,83054:0:0:0:0:
192,192,83054,1,0,0:0:0:0:
64,192,83133,1,0,0:0:0:0:
448,192,83211,1,0,0:0:0:0:
320,192,83290,1,0,0:0:0:0:
64,192,83368,1,0,0:0:0:0:
192,192,83447,1,0,0:0:0:0:
320,192,83526,1,0,0:0:0:0:
448,192,83604,1,0,0:0:0:0:
64,192,83683,1,2,0:0:0:0:
192,192,83683,1,4,0:0:0:0:
448,192,86196,1,0,0:0:0:0:
64,192,86510,1,0,0:0:0:0:
192,192,86510,1,0,0:0:0:0:
448,192,86510,1,0,0:0:0:0:
64,192,86981,1,0,0:0:0:0:
192,192,86981,1,0,0:0:0:0:
192,192,87295,1,0,0:0:0:0:
64,192,87452,1,0,0:0:0:0:
448,192,87452,1,0,0:0:0:0:
192,192,87766,1,0,0:0:0:0:
448,192,87766,1,0,0:0:0:0:
64,192,87923,1,0,0:0:0:0:
448,192,88080,1,0,0:0:0:0:
192,192,88237,128,0,88316:0:0:0:0:
448,192,88394,1,0,0:0:0:0:
64,192,88551,1,0,0:0:0:0:
192,192,88551,1,0,0:0:0:0:
320,192,88708,1,0,0:0:0:0:
448,192,88866,1,0,0:0:0:0:
192,192,89023,1,0,0:0:0:0:
320,192,89180,1,0,0:0:0:0:
64,192,89337,1,0,0:0:0:0:
448,192,89337,1,0,0:0:0:0:
64,192,89808,1,0,0:0:0:0:
448,192,89808,1,0,0:0:0:0:
192,192,90122,1,0,0:0:0:0:
320,192,90122,1,0,0:0:0:0:
64,192,90279,1,0,0:0:0:0:
320,192,90279,1,0,0:0:0:0:
448,192,90436,1,0,0:0:0:0:
64,192,90593,1,0,0:0:0:0:
448,192,90750,1,0,0:0:0:0:
320,192,90907,1,0,0:0:0:0:
64,192,91064,1,0,0:0:0:0:
448,192,91222,1,0,0:0:0:0:
320,192,91379,1,0,0:0:0:0:
64,192,91536,1,0,0:0:0:0:
192,192,91536,1,0,0:0:0:0:
64,192,92007,1,0,0:0:0:0:
192,192,92007,1,0,0:0:0:0:
320,192,92321,1,0,0:0:0:0:
64,192,92478,1,0,0:0:0:0:
448,192,92478,1,0,0:0:0:0:
192,192,92792,1,0,0:0:0:0:
448,192,92792,1,0,0:0:0:0:
64,192,92949,1,0,0:0:0:0:
448,192,93106,1,0,0:0:0:0:
320,192,93263,1,0,0:0:0:0:
448,192,93420,128,0,93499:0:0:0:0:
64,192,93578,1,0,0:0:0:0:
320,192,93630,1,0,0:0:0:0:
192,192,93735,1,0,0:0:0:0:
448,192,93839,1,0,0:0:0:0:
64,192,93892,1,0,0:0:0:0:
192,192,94049,1,0,0:0:0:0:
448,192,94127,1,0,0:0:0:0:
320,192,94206,1,0,0:0:0:0:
64,192,94363,1,0,0:0:0:0:
448,192,94363,1,0,0:0:0:0:
320,192,94677,128,0,94756:0:0:0:0:
64,192,94834,1,0,0:0:0:0:
448,192,94834,1,0,0:0:0:0:
192,192,95148,1,0,0:0:0:0:
320,192,95148,1,0,0:0:0:0:
192,192,95305,1,0,0:0:0:0:
448,192,95305,1,0,0:0:0:0:
64,192,95462,1,0,0:0:0:0:
320,192,95619,1,0,0:0:0:0:
448,192,95777,1,0,0:0:0:0:
64,192,95934,1,0,0:0:0:0:
192,192,95934,1,0,0:0:0:0:
320,192,96091,1,0,0:0:0:0:
448,192,96248,1,0,0:0:0:0:
320,192,96405,1,0,0:0:0:0:
64,192,96562,1,0,0:0:0:0:
192,192,96562,1,0,0:0:0:0:
64,192,97033,1,0,0:0:0:0:
192,192,97033,1,0,0:0:0:0:
320,192,97347,1,0,0:0:0:0:
64,192,97504,1,0,0:0:0:0:
448,192,97504,1,0,0:0:0:0:
192,192,97818,1,0,0:0:0:0:
448,192,97818,1,0,0:0:0:0:
64,192,97975,1,0,0:0:0:0:
448,192,98133,1,0,0:0:0:0:
320,192,98290,128,0,98368:0:0:0:0:
64,192,98447,1,0,0:0:0:0:
448,192,98604,1,0,0:0:0:0:
192,192,98604,1,0,0:0:0:0:
320,192,98761,1,0,0:0:0:0:
64,192,98918,1,0,0:0:0:0:
448,192,99075,1,0,0:0:0:0:
192,192,99232,1,0,0:0:0:0:
64,192,99389,1,0,0:0:0:0:
448,192,99389,1,0,0:0:0:0:
192,192,99703,1,0,0:0:0:0:
64,192,99860,1,0,0:0:0:0:
448,192,99860,1,0,0:0:0:0:
192,192,100174,1,0,0:0:0:0:
320,192,100174,1,0,0:0:0:0:
64,192,100331,1,0,0:0:0:0:
320,192,100331,1,0,0:0:0:0:
448,192,100489,1,0,0:0:0:0:
192,192,100646,1,0,0:0:0:0:
448,192,100803,1,0,0:0:0:0:
64,192,100960,1,0,0:0:0:0:
192,192,100960,1,0,0:0:0:0:
320,192,101117,1,0,0:0:0:0:
448,192,101274,1,0,0:0:0:0:
64,192,101431,1,0,0:0:0:0:
320,192,101588,1,0,0:0:0:0:
448,192,101588,1,0,0:0:0:0:
320,192,102059,1,0,0:0:0:0:
448,192,102059,1,0,0:0:0:0:
192,192,102373,1,0,0:0:0:0:
64,192,102530,1,0,0:0:0:0:
448,192,102530,1,0,0:0:0:0:
192,192,102845,1,0,0:0:0:0:
448,192,102845,1,0,0:0:0:0:
64,192,103002,1,0,0:0:0:0:
448,192,103159,1,0,0:0:0:0:
320,192,103316,1,0,0:0:0:0:
192,192,103473,128,0,103551:0:0:0:0:
64,192,103630,1,0,0:0:0:0:
448,192,103682,1,0,0:0:0:0:
320,192,103787,1,0,0:0:0:0:
64,192,103892,1,0,0:0:0:0:
448,192,103944,1,0,0:0:0:0:
192,192,104101,1,0,0:0:0:0:
64,192,104180,1,0,0:0:0:0:
320,192,104258,1,0,0:0:0:0:
64,192,104415,1,0,0:0:0:0:
448,192,104415,1,0,0:0:0:0:
320,192,104729,128,0,104808:0:0:0:0:
64,192,104886,1,0,0:0:0:0:
448,192,104886,1,0,0:0:0:0:
192,192,105201,1,0,0:0:0:0:
320,192,105201,1,0,0:0:0:0:
192,192,105358,1,0,0:0:0:0:
448,192,105358,1,0,0:0:0:0:
64,192,105515,1,0,0:0:0:0:
320,192,105672,1,0,0:0:0:0:
448,192,105829,1,0,0:0:0:0:
64,192,105986,128,0,107557:0:0:0:0:
192,192,105986,1,0,0:0:0:0:
320,192,106143,1,0,0:0:0:0:
448,192,106300,1,0,0:0:0:0:
192,192,106457,1,0,0:0:0:0:
320,192,106614,1,0,0:0:0:0:
64,192,107871,1,2,0:0:0:0:
192,192,107871,1,4,0:0:0:0:
448,192,107871,1,0,0:0:0:0:
192,192,108028,1,0,0:0:0:0:
320,192,108185,1,8,0:0:0:0:
448,192,108185,1,0,0:0:0:0:
64,192,108342,1,0,0:0:0:0:
64,192,108499,1,0,0:0:0:0:
320,192,108656,1,2,0:0:0:0:
448,192,108656,1,0,0:0:0:0:
64,192,108813,1,8,0:0:0:0:
192,192,108813,1,0,0:0:0:0:
192,192,108970,1,0,0:0:0:0:
320,192,109127,1,0,0:0:0:0:
64,192,109284,1,2,0:0:0:0:
448,192,109284,1,0,0:0:0:0:
320,192,109441,1,8,0:0:0:0:
192,192,109441,1,0,0:0:0:0:
192,192,109599,1,0,0:0:0:0:
64,192,109756,1,0,0:0:0:0:
320,192,109913,1,2,0:0:0:0:
448,192,109913,1,0,0:0:0:0:
64,192,110070,1,8,0:0:0:0:
192,192,110070,1,0,0:0:0:0:
448,192,110227,1,0,0:0:0:0:
192,192,110384,1,2,0:0:0:0:
320,192,110384,1,0,0:0:0:0:
192,192,110541,1,0,0:0:0:0:
64,192,110698,1,8,0:0:0:0:
448,192,110698,1,0,0:0:0:0:
320,192,110855,1,0,0:0:0:0:
320,192,111012,1,0,0:0:0:0:
64,192,111169,1,2,0:0:0:0:
192,192,111169,1,0,0:0:0:0:
320,192,111326,1,8,0:0:0:0:
448,192,111326,1,0,0:0:0:0:
64,192,111483,1,0,0:0:0:0:
64,192,111640,1,0,0:0:0:0:
192,192,111797,1,2,0:0:0:0:
448,192,111797,1,0,0:0:0:0:
448,192,111955,1,0,0:0:0:0:
192,192,112112,1,2,0:0:0:0:
320,192,112112,1,0,0:0:0:0:
64,192,112269,1,0,0:0:0:0:
320,192,112426,1,2,0:0:0:0:
448,192,112426,1,0,0:0:0:0:
192,192,112583,1,8,0:0:0:0:
320,192,112661,1,8,0:0:0:0:
64,192,112740,1,8,0:0:0:0:
448,192,112740,1,0,0:0:0:0:
192,192,112897,1,2,0:0:0:0:
320,192,112897,1,0,0:0:0:0:
192,192,113054,1,0,0:0:0:0:
64,192,113211,1,8,0:0:0:0:
448,192,113211,1,0,0:0:0:0:
320,192,113368,1,0,0:0:0:0:
320,192,113525,1,0,0:0:0:0:
64,192,113682,1,2,0:0:0:0:
192,192,113682,1,0,0:0:0:0:
448,192,113839,1,8,0:0:0:0:
320,192,113839,1,0,0:0:0:0:
448,192,113996,1,0,0:0:0:0:
192,192,114153,1,0,0:0:0:0:
320,192,114311,1,2,0:0:0:0:
64,192,114311,1,0,0:0:0:0:
192,192,114468,1,8,0:0:0:0:
448,192,114468,1,0,0:0:0:0:
192,192,114625,1,0,0:0:0:0:
448,192,114782,1,0,0:0:0:0:
192,192,114939,1,2,0:0:0:0:
64,192,114939,1,0,0:0:0:0:
448,192,115096,1,8,0:0:0:0:
320,192,115096,1,0,0:0:0:0:
64,192,115253,1,0,0:0:0:0:
192,192,115410,1,2,0:0:0:0:
320,192,115410,1,0,0:0:0:0:
320,192,115567,1,0,0:0:0:0:
64,192,115724,1,8,0:0:0:0:
448,192,115724,1,0,0:0:0:0:
192,192,115881,1,0,0:0:0:0:
192,192,116038,1,0,0:0:0:0:
64,192,116195,1,2,0:0:0:0:
320,192,116195,1,0,0:0:0:0:
192,192,116352,1,8,0:0:0:0:
448,192,116352,1,0,0:0:0:0:
448,192,116509,1,0,0:0:0:0:
64,192,116667,1,0,0:0:0:0:
192,192,116824,1,2,0:0:0:0:
320,192,116824,1,0,0:0:0:0:
448,192,116981,1,8,0:0:0:0:
64,192,116981,1,0,0:0:0:0:
448,192,117138,1,0,0:0:0:0:
64,192,117295,1,0,0:0:0:0:
192,192,117373,1,0,0:0:0:0:
320,192,117452,1,2,0:0:0:0:
448,192,117530,1,0,0:0:0:0:
64,192,117609,1,8,0:0:0:0:
192,192,117688,1,0,0:0:0:0:
320,192,117766,1,0,0:0:0:0:
448,192,117845,1,0,0:0:0:0:
64,192,117923,128,2,118944:0:0:0:0:
192,192,117923,128,0,118944:0:0:0:0:
448,192,118316,128,0,119180:0:0:0:0:
320,192,118944,128,0,119180:0:0:0:0:
64,192,119180,1,2,0:0:0:0:
192,192,119180,1,0,0:0:0:0:
64,192,119337,1,2,0:0:0:0:
192,192,119337,1,0,0:0:0:0:
320,192,119494,1,2,0:0:0:0:
448,192,119494,1,0,0:0:0:0:
320,192,119651,1,2,0:0:0:0:
448,192,119651,1,0,0:0:0:0:
64,192,119808,1,2,0:0:0:0:
192,192,119808,1,0,0:0:0:0:
192,192,119965,1,2,0:0:0:0:
320,192,119965,1,0,0:0:0:0:
320,192,120122,1,2,0:0:0:0:
448,192,120122,1,0,0:0:0:0:
64,192,120279,1,2,0:0:0:0:
192,192,120279,1,4,0:0:0:0:
448,192,120279,1,0,0:0:0:0:
320,192,120593,1,2,0:0:0:0:
192,192,120593,1,0,0:0:0:0:
64,192,120750,1,8,0:0:0:0:
448,192,120750,1,0,0:0:0:0:
192,192,120907,1,0,0:0:0:0:
192,192,121064,1,0,0:0:0:0:
320,192,121222,1,2,0:0:0:0:
448,192,121222,1,0,0:0:0:0:
64,192,121379,1,8,0:0:0:0:
192,192,121379,1,0,0:0:0:0:
448,192,121536,1,0,0:0:0:0:
448,192,121693,1,0,0:0:0:0:
320,192,121850,1,2,0:0:0:0:
64,192,121850,1,0,0:0:0:0:
64,192,122007,1,0,0:0:0:0:
320,192,122164,1,2,0:0:0:0:
448,192,122164,1,0,0:0:0:0:
192,192,122321,1,0,0:0:0:0:
64,192,122478,1,2,0:0:0:0:
320,192,122478,1,0,0:0:0:0:
448,192,122635,1,8,0:0:0:0:
320,192,122714,1,8,0:0:0:0:
64,192,122792,1,8,0:0:0:0:
192,192,122792,1,0,0:0:0:0:
320,192,122949,1,2,0:0:0:0:
448,192,122949,1,0,0:0:0:0:
448,192,123106,1,0,0:0:0:0:
64,192,123263,1,8,0:0:0:0:
192,192,123263,1,0,0:0:0:0:
320,192,123420,1,0,0:0:0:0:
320,192,123578,1,0,0:0:0:0:
64,192,123735,1,2,0:0:0:0:
192,192,123735,1,0,0:0:0:0:
320,192,123892,1,8,0:0:0:0:
448,192,123892,1,0,0:0:0:0:
64,192,124049,1,0,0:0:0:0:
64,192,124206,1,0,0:0:0:0:
192,192,124363,1,2,0:0:0:0:
448,192,124363,1,0,0:0:0:0:
320,192,124520,1,0,0:0:0:0:
64,192,124520,1,0,0:0:0:0:
320,192,124677,1,0,0:0:0:0:
192,192,124834,1,0,0:0:0:0:
448,192,124991,1,2,0:0:0:0:
320,192,124991,1,0,0:0:0:0:
64,192,125148,1,8,0:0:0:0:
192,192,125148,1,0,0:0:0:0:
64,192,125305,1,0,0:0:0:0:
320,192,125462,1,2,0:0:0:0:
448,192,125462,1,0,0:0:0:0:
192,192,125619,1,0,0:0:0:0:
64,192,125777,1,8,0:0:0:0:
320,192,125777,1,0,0:0:0:0:
448,192,125934,1,0,0:0:0:0:
448,192,126091,1,0,0:0:0:0:
64,192,126248,1,2,0:0:0:0:
192,192,126248,1,0,0:0:0:0:
320,192,126405,1,8,0:0:0:0:
448,192,126405,1,0,0:0:0:0:
64,192,126562,1,0,0:0:0:0:
192,192,126719,1,2,0:0:0:0:
320,192,126719,1,0,0:0:0:0:
448,192,126876,1,0,0:0:0:0:
448,192,127033,1,0,0:0:0:0:
64,192,127190,1,0,0:0:0:0:
192,192,127190,128,0,127347:0:0:0:0:
320,192,127347,1,0,0:0:0:0:
64,192,127504,128,0,127661:0:0:0:0:
448,192,127661,128,0,127818:0:0:0:0:
192,192,127818,128,0,127975:0:0:0:0:
64,192,127975,1,2,0:0:0:0:
320,192,127975,1,4,0:0:0:0:
448,192,127975,1,0,0:0:0:0:
