osu file format v14

[General]
AudioFilename: audio.mp3
AudioLeadIn: 0
PreviewTime: 21768
Countdown: 0
SampleSet: Drum
StackLeniency: 0.7
Mode: 2
LetterboxInBreaks: 0
WidescreenStoryboard: 1

[Editor]
Bookmarks: 7279,14552
DistanceSpacing: 1
BeatDivisor: 7
GridSize: 8
TimelineZoom: 3.199999

[Metadata]
Title:etWas
TitleUnicode:etWas
Artist:feru.*
ArtistUnicode:feru.☆
Creator:Phob
Version:salad
Source:
Tags:electronic instrumental feerum mechanical steampunk
BeatmapID:3137210
BeatmapSetID:1534144

[Difficulty]
HPDrainRate:3
CircleSize:3.3
OverallDifficulty:7
ApproachRate:7
SliderMultiplier:2.27272727273
SliderTickRate:2

[Events]
//Background and Video events
0,0,"cog.png",0,0
//Break Periods
//Storyboard Layer 0 (Background)
//Storyboard Layer 1 (Fail)
//Storyboard Layer 2 (Pass)
//Storyboard Layer 3 (Foreground)
//Storyboard Layer 4 (Overlay)
//Storyboard Sound Samples

[TimingPoints]
7,454.545454545455,4,3,1,40,1,0
7,-40.1929260450434,4,3,1,40,0,0
8643,-40.1929260450434,4,3,2,40,0,0
9097,-40.1929260450434,4,3,1,40,0,0
12279,-40.1929260450434,4,3,2,40,0,0
12734,-40.1929260450434,4,3,1,40,0,0
15916,-40.1929260450434,4,3,2,40,0,0
16370,-40.1929260450434,4,3,1,40,0,0
19552,-40.1929260450434,4,3,2,40,0,0
20007,-40.1929260450434,4,3,1,40,0,0
21825,-40.1929260450434,4,3,2,60,0,1
29097,-40.1929260450434,4,3,1,60,0,0
29552,-40.1929260450434,4,3,1,50,0,0
30007,-40.1929260450434,4,3,1,40,0,0
30461,-40.1929260450434,4,3,1,30,0,0
30916,-40.1929260450434,4,3,1,20,0,0
31370,-40.1929260450434,4,3,1,10,0,0

[Colours]
Combo1 : 119,78,46
Combo2 : 70,59,54

[HitObjects]
152,192,7,6,0,L|166:310|166:310|152:147|152:147,1,282.727264099268,2|0,0:0|0:0,0:0:0:0:
256,192,461,1,10,0:0:0:0:
152,192,688,1,0,0:0:0:0:
256,192,916,6,0,L|266:311|266:311|256:148|256:148,1,282.727264099268,2|0,0:0|0:0,0:0:0:0:
152,192,1370,1,10,0:0:0:0:
360,192,1825,6,0,L|362:311|362:311|360:147|360:147,1,282.727264099268,2|0,0:0|0:0,0:0:0:0:
256,192,2279,1,10,0:0:0:0:
48,192,2734,6,0,L|33:310|33:310|48:147|48:147,1,282.727264099268,2|0,0:0|0:0,0:0:0:0:
152,192,3188,1,10,0:0:0:0:
360,192,3643,6,0,L|343:310|343:310|360:147|360:147,1,282.727264099268,2|0,0:0|0:0,0:0:0:0:
256,192,4097,1,10,0:0:0:0:
360,192,4324,1,0,0:0:0:0:
256,192,4552,6,0,L|255:311|255:311|256:147|256:147,1,282.727264099268,2|0,0:0|0:0,0:0:0:0:
360,192,5006,1,10,0:0:0:0:
152,192,5461,6,0,L|152:311|152:311|152:147|152:147,1,282.727264099268,2|0,0:0|0:0,0:0:0:0:
256,192,5915,1,10,0:0:0:0:
464,192,6370,6,0,L|478:310|478:310|464:147|464:147,1,282.727264099268,2|0,0:0|0:0,0:0:0:0:
464,192,6824,1,10,0:0:0:0:
360,192,7052,1,8,0:0:0:0:
152,192,7279,6,0,L|159:311|159:311|152:147|152:147,1,282.727264099268,2|0,0:0|0:0,0:0:0:0:
256,192,7734,2,0,L|293:252|293:252|307:321|307:321|256:189|256:189,2,141.363632049634,10|0|0,0:0|0:0|0:0,0:0:0:0:
152,192,8188,5,2,0:0:0:0:
256,192,8416,1,0,0:0:0:0:
152,192,8643,1,10,0:0:0:0:
120,192,8708,1,8,0:0:0:0:
120,192,8773,1,8,0:0:0:0:
152,192,8838,1,8,0:0:0:0:
360,192,9097,6,0,L|363:311|363:311|360:147|360:147,1,282.727264099268,2|0,0:0|0:0,0:0:0:0:
256,192,9552,2,0,L|216:251|216:251|205:321|205:321|256:189|256:189,2,141.363632049634,10|0|0,0:0|0:0|0:0,0:0:0:0:
360,192,10006,5,2,0:0:0:0:
256,192,10234,1,0,0:0:0:0:
360,192,10461,1,10,0:0:0:0:
152,192,10916,6,0,L|148:311|148:311|152:147|152:147,1,282.727264099268,2|0,0:0|0:0,0:0:0:0:
256,192,11371,2,0,L|290:254|290:254|307:323|307:323|256:191|256:191,2,141.363632049634,10|0|0,0:0|0:0|0:0,0:0:0:0:
152,192,11825,5,2,0:0:0:0:
256,192,12053,1,0,0:0:0:0:
152,192,12279,1,10,0:0:0:0:
120,192,12344,1,8,0:0:0:0:
120,192,12409,1,8,0:0:0:0:
152,192,12474,1,8,0:0:0:0:
360,192,12734,6,0,L|355:311|355:311|360:147|360:147,1,282.727264099268,2|0,0:0|0:0,0:0:0:0:
256,192,13189,2,0,L|248:262|248:262|205:318|205:318|256:186|256:186,2,141.363632049634,10|0|0,0:0|0:0|0:0,0:0:0:0:
360,192,13643,5,2,0:0:0:0:
256,192,13871,1,0,0:0:0:0:
360,192,14097,1,10,0:0:0:0:
308,192,14211,1,0,0:0:0:0:
256,192,14325,1,8,0:0:0:0:
360,192,14552,6,0,L|368:311|368:311|360:147|360:147,1,282.727264099268,2|0,0:0|0:0,0:0:0:0:
256,192,15007,2,0,L|212:248|212:248|205:318|205:318|256:186|256:186,2,141.363632049634,10|0|0,0:0|0:0|0:0,0:0:0:0:
360,192,15461,5,2,0:0:0:0:
256,192,15689,1,0,0:0:0:0:
360,192,15916,1,10,0:0:0:0:
392,192,15981,1,8,0:0:0:0:
392,192,16046,1,8,0:0:0:0:
360,192,16111,1,8,0:0:0:0:
152,192,16370,6,0,L|135:310|135:310|152:147|152:147,1,282.727264099268,2|0,0:0|0:0,0:0:0:0:
256,192,16825,2,0,L|269:262|269:262|307:322|307:322|256:190|256:190,2,141.363632049634,10|0|0,0:0|0:0|0:0,0:0:0:0:
152,192,17279,5,2,0:0:0:0:
256,192,17507,1,0,0:0:0:0:
152,192,17734,1,10,0:0:0:0:
360,192,18189,6,0,L|367:311|367:311|360:147|360:147,1,282.727264099268,2|0,0:0|0:0,0:0:0:0:
256,192,18644,2,0,L|246:262|246:262|205:319|205:319|256:187|256:187,2,141.363632049634,10|0|0,0:0|0:0|0:0,0:0:0:0:
360,192,19098,5,2,0:0:0:0:
256,192,19326,1,0,0:0:0:0:
360,192,19552,1,10,0:0:0:0:
392,192,19617,1,8,0:0:0:0:
392,192,19682,1,8,0:0:0:0:
360,192,19747,1,8,0:0:0:0:
152,192,20007,6,0,L|139:310|139:310|152:147|152:147,1,282.727264099268,2|0,0:0|0:0,0:0:0:0:
256,192,20462,2,0,L|286:256|286:256|307:323|307:323|256:191|256:191,2,141.363632049634,10|0|0,0:0|0:0|0:0,0:0:0:0:
152,192,20916,5,2,0:0:0:0:
256,192,21144,1,0,0:0:0:0:
152,192,21370,2,0,L|122:256|122:256|101:323|101:323|152:191|152:191,2,141.363632049634,10|0|8,0:0|0:0|0:0,0:0:0:0:
360,192,21825,6,0,L|374:310|374:310|360:147|360:147,1,282.727264099268,10|8,0:0|0:0,0:0:0:0:
256,192,22279,1,10,0:0:0:0:
360,192,22507,1,8,0:0:0:0:
152,192,22734,6,0,L|155:311|155:311|152:147|152:147,1,282.727264099268,10|8,0:0|0:0,0:0:0:0:
256,192,23188,2,0,L|256:311|256:311|256:147|256:147,1,282.727264099268,10|0,0:0|0:0,0:0:0:0:
56,192,23643,6,0,L|42:310|42:310|56:147|56:147,1,282.727264099268,10|8,0:0|0:0,0:0:0:0:
160,192,24097,1,10,0:0:0:0:
56,192,24325,1,8,0:0:0:0:
256,192,24552,6,0,L|270:310|270:310|256:147|256:147,1,282.727264099268,10|8,0:0|0:0,0:0:0:0:
154,89,25007,2,0,L|215:191|215:191|256:349|256:349,1,282.727264099268,10|0,0:0|0:0,0:0:0:0:
456,192,25461,5,10,0:0:0:0:
456,140,25574,1,8,0:0:0:0:
456,89,25688,1,8,0:0:0:0:
352,192,25915,1,10,0:0:0:0:
456,192,26143,1,8,0:0:0:0:
256,192,26370,5,10,0:0:0:0:
256,140,26483,1,8,0:0:0:0:
256,89,26597,1,8,0:0:0:0:
358,89,26824,1,10,0:0:0:0:
358,89,26937,1,8,0:0:0:0:
56,192,27279,5,10,0:0:0:0:
56,140,27392,1,8,0:0:0:0:
56,89,27506,1,8,0:0:0:0:
160,192,27733,1,10,0:0:0:0:
56,192,27961,1,8,0:0:0:0:
256,192,28188,5,10,0:0:0:0:
256,140,28301,1,8,0:0:0:0:
256,89,28415,1,8,0:0:0:0:
154,89,28643,2,0,L|143:159|143:159|103:217|103:217|154:349|154:349,2,141.363632049634,10|8|8,0:0|0:0|0:0,0:0:0:0:
358,89,29097,5,4,0:2:0:0:
256,192,29552,12,0,31370,0:0:0:0:
