osu file format v14

[General]
AudioFilename: audio.mp3
AudioLeadIn: 0
PreviewTime: 21768
Countdown: 0
SampleSet: Drum
StackLeniency: 0.7
Mode: 2
LetterboxInBreaks: 0
WidescreenStoryboard: 1

[Editor]
Bookmarks: 7279,14552
DistanceSpacing: 1
BeatDivisor: 7
GridSize: 8
TimelineZoom: 3.199999

[Metadata]
Title:etWas
TitleUnicode:etWas
Artist:feru.*
ArtistUnicode:feru.☆
Creator:Phob
Version:rain
Source:
Tags:electronic instrumental feerum mechanical steampunk
BeatmapID:3137209
BeatmapSetID:1534144

[Difficulty]
HPDrainRate:5
CircleSize:4
OverallDifficulty:9
ApproachRate:9
SliderMultiplier:2.27272727273
SliderTickRate:2

[Events]
//Background and Video events
0,0,"cog.png",0,0
//Break Periods
//Storyboard Layer 0 (Background)
//Storyboard Layer 1 (Fail)
//Storyboard Layer 2 (Pass)
//Storyboard Layer 3 (Foreground)
//Storyboard Layer 4 (Overlay)
//Storyboard Sound Samples

[TimingPoints]
7,454.545454545455,4,3,1,40,1,0
7,-38.3435582822334,4,3,1,40,0,0
8643,-38.3435582822334,4,3,2,40,0,0
9097,-38.3435582822334,4,3,1,40,0,0
12279,-38.3435582822334,4,3,2,40,0,0
12734,-38.3435582822334,4,3,1,40,0,0
15916,-38.3435582822334,4,3,2,40,0,0
16370,-38.3435582822334,4,3,1,40,0,0
19552,-38.3435582822334,4,3,2,40,0,0
20007,-38.3435582822334,4,3,1,40,0,0
21825,-38.3435582822334,4,3,2,60,0,1
29097,-38.3435582822334,4,3,1,60,0,0
29552,-38.3435582822334,4,3,1,50,0,0
30007,-38.3435582822334,4,3,1,40,0,0
30461,-38.3435582822334,4,3,1,30,0,0
30916,-38.3435582822334,4,3,1,20,0,0
31370,-38.3435582822334,4,3,1,10,0,0

[Colours]
Combo1 : 119,78,46
Combo2 : 70,59,54

[HitObjects]
104,192,7,6,0,L|118:316|118:316|104:145|104:145,1,296.3636363638,2|0,0:0|0:0,0:0:0:0:
408,192,461,5,10,0:0:0:0:
408,192,688,1,0,0:0:0:0:
352,192,802,1,0,0:0:0:0:
408,192,916,6,0,L|418:316|418:316|408:145|408:145,1,296.3636363638,2|0,0:0|0:0,0:0:0:0:
216,192,1370,6,0,B|218:266|218:266|201:338|201:338|199:264|199:264|218:192|218:192|274:55|274:55,1,444.5454545457,10|0,0:0|0:0,0:0:0:0:
408,192,1825,6,0,L|408:317|408:317|408:145|408:145,1,296.3636363638,2|0,0:0|0:0,0:0:0:0:
104,192,2279,5,10,0:0:0:0:
216,192,2506,1,0,0:0:0:0:
104,192,2734,6,0,L|118:316|118:316|104:145|104:145,1,296.3636363638,2|0,0:0|0:0,0:0:0:0:
296,192,3188,6,0,B|303:266|303:266|307:340|307:340|299:266|299:266|294:192|294:192|238:55|238:55,1,444.5454545457,10|0,0:0|0:0,0:0:0:0:
104,192,3643,6,0,L|100:317|100:317|104:145|104:145,1,296.3636363638,2|0,0:0|0:0,0:0:0:0:
408,192,4097,5,10,0:0:0:0:
408,192,4324,1,0,0:0:0:0:
352,192,4438,1,0,0:0:0:0:
408,192,4552,6,0,L|416:316|416:316|408:145|408:145,1,296.3636363638,2|0,0:0|0:0,0:0:0:0:
216,192,5006,6,0,B|211:266|211:266|234:336|234:336|224:263|224:263|218:189|218:189|274:52|274:52,1,444.5454545457,10|0,0:0|0:0,0:0:0:0:
408,192,5461,6,0,L|391:316|391:316|408:145|408:145,1,296.3636363638,2|0,0:0|0:0,0:0:0:0:
104,192,5915,5,10,0:0:0:0:
216,192,6142,1,0,0:0:0:0:
104,192,6370,6,0,L|91:316|91:316|104:145|104:145,1,296.3636363638,2|0,0:0|0:0,0:0:0:0:
292,216,6825,6,0,L|349:353|349:353,1,148.1818181819,10|0,0:0|0:0,0:0:0:0:
220,216,7052,2,0,L|163:353|163:353,1,148.1818181819,8|8,0:0|0:0,0:0:0:0:
408,192,7279,5,2,0:0:0:0:
408,192,7393,1,0,0:0:0:0:
408,192,7507,1,0,0:0:0:0:
352,192,7620,1,0,0:0:0:0:
160,192,7734,5,10,0:0:0:0:
160,192,7847,1,0,0:0:0:0:
272,192,7961,1,0,0:0:0:0:
272,192,8075,1,0,0:0:0:0:
160,192,8188,5,2,0:0:0:0:
104,192,8302,1,0,0:0:0:0:
160,192,8416,1,0,0:0:0:0:
104,192,8529,1,0,0:0:0:0:
376,192,8643,5,10,0:0:0:0:
408,192,8708,1,8,0:0:0:0:
408,192,8773,1,8,0:0:0:0:
408,192,8838,1,8,0:0:0:0:
376,192,8903,1,8,0:0:0:0:
344,192,8968,1,8,0:0:0:0:
104,192,9097,5,2,0:0:0:0:
104,192,9211,1,0,0:0:0:0:
104,192,9325,1,0,0:0:0:0:
160,192,9438,1,0,0:0:0:0:
344,192,9552,5,10,0:0:0:0:
344,192,9665,1,0,0:0:0:0:
280,192,9779,1,0,0:0:0:0:
280,192,9893,1,0,0:0:0:0:
408,192,10006,5,2,0:0:0:0:
408,192,10120,1,0,0:0:0:0:
408,192,10234,1,0,0:0:0:0:
352,192,10347,1,0,0:0:0:0:
104,192,10461,6,0,B|111:266|111:266|120:340|120:340|91:272|91:272|106:199|106:199|162:62|162:62,1,444.5454545457,10|0,0:0|0:0,0:0:0:0:
408,192,10916,5,2,0:0:0:0:
408,192,11030,1,0,0:0:0:0:
408,192,11144,1,0,0:0:0:0:
352,192,11257,1,0,0:0:0:0:
160,192,11370,5,10,0:0:0:0:
160,192,11483,1,0,0:0:0:0:
272,192,11597,1,0,0:0:0:0:
272,192,11711,1,0,0:0:0:0:
160,192,11824,5,2,0:0:0:0:
104,192,11938,1,0,0:0:0:0:
160,192,12052,1,0,0:0:0:0:
104,192,12165,1,0,0:0:0:0:
376,192,12280,5,10,0:0:0:0:
408,192,12345,1,8,0:0:0:0:
376,192,12410,1,8,0:0:0:0:
344,192,12475,1,8,0:0:0:0:
376,192,12540,1,8,0:0:0:0:
408,192,12605,1,8,0:0:0:0:
104,192,12734,5,2,0:0:0:0:
104,192,12848,1,0,0:0:0:0:
104,192,12962,1,0,0:0:0:0:
160,192,13075,1,0,0:0:0:0:
344,192,13188,5,10,0:0:0:0:
344,192,13301,1,0,0:0:0:0:
280,192,13415,1,0,0:0:0:0:
280,192,13529,1,0,0:0:0:0:
408,192,13642,5,2,0:0:0:0:
408,192,13756,1,0,0:0:0:0:
408,192,13870,1,0,0:0:0:0:
352,192,13983,1,0,0:0:0:0:
220,240,14097,6,0,L|163:377|163:377,1,148.1818181819,10|0,0:0|0:0,0:0:0:0:
292,240,14324,2,0,L|349:377|349:377,1,148.1818181819,8|8,0:0|0:0,0:0:0:0:
104,192,14551,5,2,0:0:0:0:
104,192,14665,1,0,0:0:0:0:
104,192,14779,1,0,0:0:0:0:
160,192,14892,1,0,0:0:0:0:
352,192,15007,5,10,0:0:0:0:
352,192,15120,1,0,0:0:0:0:
240,192,15234,1,0,0:0:0:0:
240,192,15348,1,0,0:0:0:0:
352,192,15461,5,2,0:0:0:0:
408,192,15575,1,0,0:0:0:0:
352,192,15689,1,0,0:0:0:0:
408,192,15802,1,0,0:0:0:0:
136,192,15915,5,10,0:0:0:0:
104,192,15980,1,8,0:0:0:0:
104,192,16045,1,8,0:0:0:0:
104,192,16110,1,8,0:0:0:0:
136,192,16175,1,8,0:0:0:0:
168,192,16240,1,8,0:0:0:0:
408,192,16369,5,2,0:0:0:0:
408,192,16483,1,0,0:0:0:0:
408,192,16597,1,0,0:0:0:0:
352,192,16710,1,0,0:0:0:0:
168,192,16825,5,10,0:0:0:0:
168,192,16938,1,0,0:0:0:0:
232,192,17052,1,0,0:0:0:0:
232,192,17166,1,0,0:0:0:0:
104,192,17279,5,2,0:0:0:0:
104,192,17393,1,0,0:0:0:0:
104,192,17507,1,0,0:0:0:0:
160,192,17620,1,0,0:0:0:0:
408,192,17734,6,0,B|404:266|404:266|422:338|422:338|411:265|411:265|406:191|406:191|350:54|350:54,1,444.5454545457,10|0,0:0|0:0,0:0:0:0:
104,192,18188,5,2,0:0:0:0:
104,192,18302,1,0,0:0:0:0:
104,192,18416,1,0,0:0:0:0:
160,192,18529,1,0,0:0:0:0:
352,192,18643,5,10,0:0:0:0:
352,192,18756,1,0,0:0:0:0:
240,192,18870,1,0,0:0:0:0:
240,192,18984,1,0,0:0:0:0:
352,192,19097,5,2,0:0:0:0:
408,192,19211,1,0,0:0:0:0:
352,192,19325,1,0,0:0:0:0:
408,192,19438,1,0,0:0:0:0:
136,192,19552,5,10,0:0:0:0:
104,192,19617,1,8,0:0:0:0:
136,192,19682,1,8,0:0:0:0:
168,192,19747,1,8,0:0:0:0:
136,192,19812,1,8,0:0:0:0:
104,192,19877,1,8,0:0:0:0:
408,192,20006,5,2,0:0:0:0:
408,192,20120,1,0,0:0:0:0:
408,192,20234,1,0,0:0:0:0:
352,192,20347,1,0,0:0:0:0:
168,192,20461,5,10,0:0:0:0:
168,192,20574,1,0,0:0:0:0:
232,192,20688,1,0,0:0:0:0:
232,192,20802,1,0,0:0:0:0:
104,192,20915,5,2,0:0:0:0:
104,192,21029,1,0,0:0:0:0:
104,192,21143,1,0,0:0:0:0:
160,192,21256,1,0,0:0:0:0:
292,240,21370,6,0,L|349:377|349:377,1,148.1818181819,10|0,0:0|0:0,0:0:0:0:
220,240,21597,2,0,L|163:377|163:377,1,148.1818181819,8|8,0:0|0:0,0:0:0:0:
408,192,21825,6,0,L|408:340|408:340,1,148.1818181819,10|0,0:0|0:0,0:0:0:0:
296,192,22052,2,0,L|296:340|296:340,1,148.1818181819,8|0,0:0|0:0,0:0:0:0:
408,192,22279,6,0,L|436:260|436:260|408:329|408:329,2,74.09090909095,10|0|0,0:0|0:0|0:0,0:0:0:0:
352,192,22507,1,8,0:0:0:0:
408,192,22620,1,8,0:0:0:0:
200,192,22734,6,0,L|200:340|200:340,1,148.1818181819,10|0,0:0|0:0,0:0:0:0:
312,192,22961,2,0,L|312:340|312:340,1,148.1818181819,8|0,0:0|0:0,0:0:0:0:
200,192,23188,6,0,L|172:260|172:260,1,74.09090909095,10|0,0:0|0:0,0:0:0:0:
200,192,23302,2,0,L|234:312|234:312|314:160|314:160,1,296.3636363638
104,192,23643,6,0,L|104:340|104:340,1,148.1818181819,10|0,0:0|0:0,0:0:0:0:
216,192,23870,2,0,L|216:340|216:340,1,148.1818181819,8|0,0:0|0:0,0:0:0:0:
104,192,24097,6,0,L|76:260|76:260|104:329|104:329,2,74.09090909095,10|0|0,0:0|0:0|0:0,0:0:0:0:
160,192,24325,1,8,0:0:0:0:
104,192,24438,1,8,0:0:0:0:
312,192,24552,6,0,L|312:340|312:340,1,148.1818181819,10|0,0:0|0:0,0:0:0:0:
200,192,24779,2,0,L|200:340|200:340,1,148.1818181819,8|0,0:0|0:0,0:0:0:0:
312,192,25006,6,0,L|340:260|340:260,1,74.09090909095,10|0,0:0|0:0,0:0:0:0:
312,192,25120,2,0,L|278:312|278:312|198:160|198:160,1,296.3636363638
408,192,25461,6,0,L|408:340|408:340,1,148.1818181819,10|8,0:0|0:0,0:0:0:0:
184,96,25688,2,0,L|127:233|127:233,1,148.1818181819,8|0,0:0|0:0,0:0:0:0:
312,160,25916,6,0,L|340:228|340:228|312:297|312:297,2,74.09090909095,10|0|8,0:0|0:0|0:0,0:0:0:0:
255,160,26143,2,0,L|312:297|312:297,1,148.1818181819,8|0,0:0|0:0,0:0:0:0:
104,192,26370,6,0,L|104:340|104:340,1,148.1818181819,10|8,0:0|0:0,0:0:0:0:
328,96,26597,2,0,L|385:233|385:233,1,148.1818181819,8|0,0:0|0:0,0:0:0:0:
200,160,26825,6,0,L|172:228|172:228,1,74.09090909095,10|0,0:0|0:0,0:0:0:0:
200,160,26938,2,0,L|266:266|266:266|314:101|314:101,1,296.3636363638,8|0,0:0|0:0,0:0:0:0:
104,192,27279,6,0,L|104:340|104:340,1,148.1818181819,10|8,0:0|0:0,0:0:0:0:
328,96,27506,2,0,L|385:233|385:233,1,148.1818181819,8|0,0:0|0:0,0:0:0:0:
200,160,27734,6,0,L|172:228|172:228|200:297|200:297,2,74.09090909095,10|0|8,0:0|0:0|0:0,0:0:0:0:
257,160,27961,2,0,L|200:297|200:297,1,148.1818181819,8|0,0:0|0:0,0:0:0:0:
408,192,28188,6,0,L|408:340|408:340,1,148.1818181819,10|8,0:0|0:0,0:0:0:0:
184,96,28415,2,0,L|127:233|127:233,1,148.1818181819,8|0,0:0|0:0,0:0:0:0:
304,96,28643,5,10,0:0:0:0:
332,96,28671,1,0,0:0:0:0:
400,96,28757,1,8,0:0:0:0:
414,96,28785,1,0,0:0:0:0:
208,96,28870,1,8,0:0:0:0:
180,96,28898,1,0,0:0:0:0:
112,96,28984,1,8,0:0:0:0:
98,96,29012,1,0,0:0:0:0:
256,192,29097,5,4,0:2:0:0:
256,192,29325,12,0,31370,0:0:0:0:
