osu file format v14

[General]
AudioFilename: audio.mp3
AudioLeadIn: 0
PreviewTime: 21768
Countdown: 0
SampleSet: Drum
StackLeniency: 0.7
Mode: 2
LetterboxInBreaks: 0
WidescreenStoryboard: 1

[Editor]
Bookmarks: 7279,14552
DistanceSpacing: 1
BeatDivisor: 4
GridSize: 8
TimelineZoom: 3.199999

[Metadata]
Title:etWas
TitleUnicode:etWas
Artist:feru.*
ArtistUnicode:feru.☆
Creator:Phob
Version:platter
Source:
Tags:electronic instrumental feerum mechanical steampunk
BeatmapID:3137208
BeatmapSetID:1534144

[Difficulty]
HPDrainRate:4
CircleSize:3.8
OverallDifficulty:8
ApproachRate:8
SliderMultiplier:2.27272727273
SliderTickRate:2

[Events]
//Background and Video events
0,0,"cog.png",0,0
//Break Periods
//Storyboard Layer 0 (Background)
//Storyboard Layer 1 (Fail)
//Storyboard Layer 2 (Pass)
//Storyboard Layer 3 (Foreground)
//Storyboard Layer 4 (Overlay)
//Storyboard Sound Samples

[TimingPoints]
7,454.545454545455,4,3,1,40,1,0
7,-38.3435582822334,4,3,1,40,0,0
1370,-27.1149674620515,4,3,1,40,0,0
1825,-38.3435582822334,4,3,1,40,0,0
3188,-27.1149674620515,4,3,1,40,0,0
3643,-38.3435582822334,4,3,1,40,0,0
5007,-27.1149674620515,4,3,1,40,0,0
5461,-38.3435582822334,4,3,1,40,0,0
8643,-38.3435582822334,4,3,2,40,0,0
9097,-38.3435582822334,4,3,1,40,0,0
12279,-38.3435582822334,4,3,2,40,0,0
12734,-38.3435582822334,4,3,1,40,0,0
15916,-38.3435582822334,4,3,2,40,0,0
16370,-38.3435582822334,4,3,1,40,0,0
19552,-38.3435582822334,4,3,2,40,0,0
20007,-38.3435582822334,4,3,1,40,0,0
21825,-38.3435582822334,4,3,2,60,0,1
29097,-38.3435582822334,4,3,1,60,0,0
29552,-38.3435582822334,4,3,1,50,0,0
30007,-38.3435582822334,4,3,1,40,0,0
30461,-38.3435582822334,4,3,1,30,0,0
30916,-38.3435582822334,4,3,1,20,0,0
31370,-38.3435582822334,4,3,1,10,0,0

[Colours]
Combo1 : 119,78,46
Combo2 : 70,59,54

[HitObjects]
152,192,7,6,0,L|166:316|166:316|152:145|152:145,1,296.3636363638,2|0,0:0|0:0,0:0:0:0:
368,79,461,5,10,0:0:0:0:
368,79,688,1,0,0:0:0:0:
312,79,802,1,0,0:0:0:0:
256,79,916,6,0,L|314:189|314:189|370:351|370:351,1,296.3636363638,2|0,0:0|0:0,0:0:0:0:
152,79,1370,6,0,B|154:184|154:184|137:287|137:287|135:182|135:182|152:79|152:79|242:231|242:231|367:23|367:23,1,838.181795800572,10|2,0:0|0:0,0:0:0:0:
368,208,2052,1,0,0:0:0:0:
153,79,2279,5,10,0:0:0:0:
153,79,2506,1,0,0:0:0:0:
265,79,2734,6,0,L|231:199|231:199|151:351|151:351,1,296.3636363638,2|0,0:0|0:0,0:0:0:0:
368,80,3188,6,0,B|375:185|375:185|379:290|379:290|371:186|371:186|368:81|368:81|274:230|274:230|153:19|153:19,1,838.181795800572,10|2,0:0|0:0,0:0:0:0:
152,80,3870,1,0,0:0:0:0:
367,79,4097,5,10,0:0:0:0:
367,79,4324,1,0,0:0:0:0:
311,79,4438,1,0,0:0:0:0:
255,79,4552,6,0,L|311:191|311:191|369:353|369:353,1,296.3636363638,2|0,0:0|0:0,0:0:0:0:
144,80,5007,6,0,B|139:185|139:185|162:287|162:287|152:183|152:183|144:79|144:79|217:240|217:240|359:43|359:43,1,838.181795800572,10|2,0:0|0:0,0:0:0:0:
360,80,5688,1,0,0:0:0:0:
144,79,5915,5,10,0:0:0:0:
144,79,6142,1,0,0:0:0:0:
256,79,6370,6,0,L|195:188|195:188|142:351|142:351,1,296.3636363638,2|0,0:0|0:0,0:0:0:0:
360,79,6825,6,0,L|395:144|395:144|417:215|417:215|360:352|360:352,2,148.1818181819,10|0|8,0:0|0:0|0:0,0:0:0:0:
64,192,7279,5,2,0:0:0:0:
64,192,7393,1,0,0:0:0:0:
64,192,7507,1,0,0:0:0:0:
256,192,7734,5,10,0:0:0:0:
256,192,7847,1,0,0:0:0:0:
200,192,7961,1,0,0:0:0:0:
200,192,8075,1,0,0:0:0:0:
312,192,8188,6,0,L|356:251|356:251|369:324|369:324|312:187|312:187,2,148.1818181819,2|0|0,0:0|0:0|0:0,0:0:0:0:
104,192,8643,5,10,0:0:0:0:
72,192,8708,1,8,0:0:0:0:
72,192,8773,1,8,0:0:0:0:
104,192,8838,1,8,0:0:0:0:
136,192,8903,1,8,0:0:0:0:
448,192,9097,5,2,0:0:0:0:
448,192,9211,1,0,0:0:0:0:
448,192,9325,1,0,0:0:0:0:
256,192,9552,5,10,0:0:0:0:
256,192,9665,1,0,0:0:0:0:
312,192,9779,1,0,0:0:0:0:
312,192,9893,1,0,0:0:0:0:
256,192,10007,5,2,0:0:0:0:
200,192,10120,1,0,0:0:0:0:
200,192,10234,1,0,0:0:0:0:
408,192,10461,6,0,L|395:316|395:316|408:145|408:145,1,296.3636363638,10|0,0:0|0:0,0:0:0:0:
64,192,10916,5,2,0:0:0:0:
64,192,11030,1,0,0:0:0:0:
64,192,11144,1,0,0:0:0:0:
256,192,11371,5,10,0:0:0:0:
256,192,11484,1,0,0:0:0:0:
200,192,11598,1,0,0:0:0:0:
200,192,11712,1,0,0:0:0:0:
312,192,11825,6,0,L|344:259|344:259|369:329|369:329|312:192|312:192,2,148.1818181819,2|0|0,0:0|0:0|0:0,0:0:0:0:
104,192,12280,5,10,0:0:0:0:
72,192,12345,1,8,0:0:0:0:
72,192,12410,1,8,0:0:0:0:
104,192,12475,1,8,0:0:0:0:
136,192,12540,1,8,0:0:0:0:
448,192,12734,5,2,0:0:0:0:
448,192,12848,1,0,0:0:0:0:
448,192,12962,1,0,0:0:0:0:
256,192,13189,5,10,0:0:0:0:
256,192,13302,1,0,0:0:0:0:
312,192,13416,1,0,0:0:0:0:
312,192,13530,1,0,0:0:0:0:
256,192,13644,5,2,0:0:0:0:
200,192,13757,1,0,0:0:0:0:
200,192,13871,1,0,0:0:0:0:
312,136,14097,5,10,0:0:0:0:
200,136,14211,1,0,0:0:0:0:
144,136,14325,1,8,0:0:0:0:
448,192,14552,5,2,0:0:0:0:
448,192,14666,1,0,0:0:0:0:
448,192,14780,1,0,0:0:0:0:
256,192,15007,5,10,0:0:0:0:
256,192,15120,1,0,0:0:0:0:
312,192,15234,1,0,0:0:0:0:
312,192,15348,1,0,0:0:0:0:
200,192,15461,6,0,L|168:259|168:259|143:329|143:329|200:192|200:192,2,148.1818181819,2|0|0,0:0|0:0|0:0,0:0:0:0:
408,192,15916,5,10,0:0:0:0:
440,192,15981,1,8,0:0:0:0:
440,192,16046,1,8,0:0:0:0:
408,192,16111,1,8,0:0:0:0:
376,192,16176,1,8,0:0:0:0:
64,192,16370,5,2,0:0:0:0:
64,192,16484,1,0,0:0:0:0:
64,192,16598,1,0,0:0:0:0:
256,192,16825,5,10,0:0:0:0:
256,192,16938,1,0,0:0:0:0:
200,192,17052,1,0,0:0:0:0:
200,192,17166,1,0,0:0:0:0:
256,192,17280,5,2,0:0:0:0:
312,192,17393,1,0,0:0:0:0:
312,192,17507,1,0,0:0:0:0:
104,192,17734,6,0,L|118:316|118:316|104:145|104:145,1,296.3636363638,10|0,0:0|0:0,0:0:0:0:
448,192,18189,5,2,0:0:0:0:
448,192,18303,1,0,0:0:0:0:
448,192,18417,1,0,0:0:0:0:
256,192,18644,5,10,0:0:0:0:
256,192,18757,1,0,0:0:0:0:
312,192,18871,1,0,0:0:0:0:
312,192,18985,1,0,0:0:0:0:
200,192,19098,6,0,L|175:262|175:262|143:329|143:329|200:192|200:192,2,148.1818181819,2|0|0,0:0|0:0|0:0,0:0:0:0:
408,192,19553,5,10,0:0:0:0:
440,192,19618,1,8,0:0:0:0:
440,192,19683,1,8,0:0:0:0:
408,192,19748,1,8,0:0:0:0:
376,192,19813,1,8,0:0:0:0:
64,192,20007,5,2,0:0:0:0:
64,192,20121,1,0,0:0:0:0:
64,192,20235,1,0,0:0:0:0:
256,192,20462,5,10,0:0:0:0:
256,192,20575,1,0,0:0:0:0:
200,192,20689,1,0,0:0:0:0:
200,192,20803,1,0,0:0:0:0:
256,192,20917,5,2,0:0:0:0:
312,192,21030,1,0,0:0:0:0:
312,192,21144,1,0,0:0:0:0:
200,136,21370,5,10,0:0:0:0:
312,136,21484,1,0,0:0:0:0:
368,136,21598,1,8,0:0:0:0:
80,152,21825,6,0,L|80:300|80:300,1,148.1818181819,10|0,0:0|0:0,0:0:0:0:
136,96,22052,1,8,0:0:0:0:
344,96,22279,6,0,L|344:244|344:244,1,148.1818181819,10|0,0:0|0:0,0:0:0:0:
288,176,22507,2,0,L|288:324|288:324,1,148.1818181819,8|8,0:0|0:0,0:0:0:0:
400,264,22734,6,0,L|400:116|400:116,1,148.1818181819,10|0,0:0|0:0,0:0:0:0:
288,176,22961,1,8,0:0:0:0:
136,144,23188,6,0,L|136:269|136:269|136:97|136:97,1,296.3636363638,10|0,0:0|0:0,0:0:0:0:
432,152,23643,6,0,L|432:300|432:300,1,148.1818181819,10|0,0:0|0:0,0:0:0:0:
376,96,23870,1,8,0:0:0:0:
168,96,24097,6,0,L|168:244|168:244,1,148.1818181819,10|0,0:0|0:0,0:0:0:0:
224,176,24325,2,0,L|224:324|224:324,1,148.1818181819,8|8,0:0|0:0,0:0:0:0:
112,264,24552,6,0,L|112:116|112:116,1,148.1818181819,10|0,0:0|0:0,0:0:0:0:
224,176,24779,1,8,0:0:0:0:
376,144,25006,6,0,L|362:268|362:268|376:97|376:97,1,296.3636363638,10|0,0:0|0:0,0:0:0:0:
88,152,25461,6,0,L|88:300|88:300,1,148.1818181819,10|8,0:0|0:0,0:0:0:0:
152,96,25688,2,0,L|152:244|152:244,1,148.1818181819,8|0,0:0|0:0,0:0:0:0:
40,104,25916,6,0,L|40:252|40:252,1,148.1818181819,10|8,0:0|0:0,0:0:0:0:
96,40,26143,1,8,0:0:0:0:
384,192,26370,6,0,L|384:340|384:340,1,148.1818181819,10|8,0:0|0:0,0:0:0:0:
328,128,26597,2,0,L|271:265|271:265,1,148.1818181819,8|0,0:0|0:0,0:0:0:0:
152,184,26825,6,0,L|152:332|152:332,1,148.1818181819,10|8,0:0|0:0,0:0:0:0:
424,152,27279,6,0,L|424:300|424:300,1,148.1818181819,10|8,0:0|0:0,0:0:0:0:
360,96,27506,2,0,L|360:244|360:244,1,148.1818181819,8|0,0:0|0:0,0:0:0:0:
472,104,27734,6,0,L|472:252|472:252,1,148.1818181819,10|8,0:0|0:0,0:0:0:0:
416,40,27961,1,8,0:0:0:0:
128,192,28188,6,0,L|128:340|128:340,1,148.1818181819,10|8,0:0|0:0,0:0:0:0:
184,128,28415,2,0,L|241:265|241:265,1,148.1818181819,8|0,0:0|0:0,0:0:0:0:
128,304,28643,6,0,L|114:377|114:377|71:317|71:317|128:180|128:180,2,148.1818181819,10|8|8,0:0|0:0|0:0,0:0:0:0:
472,304,29097,5,4,0:2:0:0:
256,192,29325,12,0,31370,0:0:0:0:
