osu file format v14

[General]
AudioFilename: audio.mp3
AudioLeadIn: 0
PreviewTime: 21768
Countdown: 0
SampleSet: Drum
StackLeniency: 0.7
Mode: 2
LetterboxInBreaks: 0
WidescreenStoryboard: 1

[Editor]
Bookmarks: 7279,14552
DistanceSpacing: 1
BeatDivisor: 16
GridSize: 8
TimelineZoom: 3.199999

[Metadata]
Title:etWas
TitleUnicode:etWas
Artist:feru.*
ArtistUnicode:feru.☆
Creator:Phob
Version:cup
Source:
Tags:electronic instrumental feerum mechanical steampunk
BeatmapID:3137206
BeatmapSetID:1534144

[Difficulty]
HPDrainRate:2
CircleSize:2.8
OverallDifficulty:6
ApproachRate:6
SliderMultiplier:2.27272727273
SliderTickRate:2

[Events]
//Background and Video events
0,0,"cog.png",0,0
//Break Periods
//Storyboard Layer 0 (Background)
//Storyboard Layer 1 (Fail)
//Storyboard Layer 2 (Pass)
//Storyboard Layer 3 (Foreground)
//Storyboard Layer 4 (Overlay)
//Storyboard Sound Samples

[TimingPoints]
7,454.545454545455,4,3,1,40,1,0
7,-42.2297297297599,4,3,1,40,0,0
8643,-42.2297297297599,4,3,2,40,0,0
9097,-42.2297297297599,4,3,1,40,0,0
12279,-42.2297297297599,4,3,2,40,0,0
12734,-42.2297297297599,4,3,1,40,0,0
15916,-42.2297297297599,4,3,2,40,0,0
16370,-42.2297297297599,4,3,1,40,0,0
19552,-42.2297297297599,4,3,2,40,0,0
20007,-42.2297297297599,4,3,1,40,0,0
21825,-42.2297297297599,4,3,2,60,0,1
29097,-42.2297297297599,4,3,1,60,0,0
29552,-42.2297297297599,4,3,1,50,0,0
30007,-42.2297297297599,4,3,1,40,0,0
30461,-42.2297297297599,4,3,1,30,0,0
30916,-42.2297297297599,4,3,1,20,0,0
31370,-42.2297297297599,4,3,1,10,0,0

[Colours]
Combo1 : 119,78,46
Combo2 : 70,59,54

[HitObjects]
166,192,7,6,0,L|203:248|203:248|221:313|221:313|236:379|236:379|257:315|257:315|278:204|278:204|348:65|348:65,1,538.18181818208,2|10,0:0|0:0,0:0:0:0:
256,192,688,1,0,0:0:0:0:
348,192,916,6,0,B|370:256|370:256|393:319|393:319|430:375|430:375|439:308|439:308|412:198|412:198|348:56|348:56,1,538.18181818208,2|10,0:0|0:0,0:0:0:0:
160,192,1825,6,0,L|163:259|163:259|146:324|146:324|156:257|156:257|160:190|160:190|155:77|155:77|160:233|160:233,1,538.18181818208,2|10,0:0|0:0,0:0:0:0:
256,192,2507,1,0,0:0:0:0:
160,192,2734,6,0,L|178:257|178:257|168:324|168:324|142:262|142:262|160:197|160:197|147:85|147:85|160:240|160:240,1,538.18181818208,2|10,0:0|0:0,0:0:0:0:
345,192,3643,6,0,L|329:257|329:257|316:323|316:323|264:365|264:365|254:298|254:298|212:193|212:193|163:45|163:45,1,538.18181818208,2|10,0:0|0:0,0:0:0:0:
256,192,4324,1,0,0:0:0:0:
164,192,4552,6,0,B|155:259|155:259|122:317|122:317|96:379|96:379|73:316|73:316|125:215|125:215|164:64|164:64,1,538.18181818208,2|10,0:0|0:0,0:0:0:0:
352,192,5461,6,0,L|370:257|370:257|367:324|367:324|339:385|339:385|352:319|352:319|352:206|352:206|352:50|352:50,1,538.18181818208,2|10,0:0|0:0,0:0:0:0:
256,192,6143,1,0,0:0:0:0:
352,192,6370,6,0,L|358:259|358:259|352:326|352:326|333:261|333:261|352:196|352:196|347:83|347:83|352:239|352:239,1,538.18181818208,2|10,0:0|0:0,0:0:0:0:
448,192,7052,1,8,0:0:0:0:
348,192,7279,6,0,B|312:249|312:249|286:311|286:311|263:374|263:374|257:307|257:307|278:196|278:196|348:57|348:57,1,538.18181818208,2|10,0:0|0:0,0:0:0:0:
347,192,8188,6,0,B|315:251|315:251|318:318|318:318|274:369|274:369|256:304|256:304|270:192|270:192|256:37|256:37,1,538.18181818208,2|10,0:0|0:0,0:0:0:0:
347,192,8870,1,8,0:0:0:0:
256,101,9097,6,0,B|238:166|238:166|263:228|263:228|240:291|240:291|256:356|256:356|303:253|303:253|347:103|347:103,1,538.18181818208,2|10,0:0|0:0,0:0:0:0:
396,192,9779,1,0,0:0:0:0:
347,192,10007,6,0,L|323:255|323:255|311:321|311:321|279:380|279:380|256:317|256:317|233:206|233:206|165:66|165:66,1,538.18181818208,2|10,0:0|0:0,0:0:0:0:
164,192,10916,6,0,B|179:258|179:258|221:310|221:310|251:370|251:370|255:303|255:303|227:193|227:193|164:50|164:50,1,538.18181818208,2|10,0:0|0:0,0:0:0:0:
165,192,11825,6,0,B|180:258|180:258|211:317|211:317|216:384|216:384|256:330|256:330|251:217|251:217|256:61|256:61,1,538.18181818208,2|10,0:0|0:0,0:0:0:0:
165,192,12507,1,8,0:0:0:0:
256,101,12734,6,0,B|237:166|237:166|246:233|246:233|246:300|246:300|256:367|256:367|211:263|211:263|165:114|165:114,1,538.18181818208,2|10,0:0|0:0,0:0:0:0:
116,192,13416,1,0,0:0:0:0:
165,192,13644,6,0,L|172:259|172:259|224:301|224:301|235:367|235:367|256:303|256:303|289:195|289:195|347:50|347:50,1,538.18181818208,2|10,0:0|0:0,0:0:0:0:
256,192,14325,1,8,0:0:0:0:
164,192,14552,6,0,B|178:258|178:258|205:319|205:319|241:376|241:376|255:310|255:310|210:206|210:206|164:57|164:57,1,538.18181818208,2|10,0:0|0:0,0:0:0:0:
165,192,15461,6,0,B|174:259|174:259|203:319|203:319|221:384|221:384|256:326|256:326|274:214|274:214|256:59|256:59,1,538.18181818208,2|10,0:0|0:0,0:0:0:0:
165,192,16143,1,8,0:0:0:0:
256,101,16370,6,0,B|272:166|272:166|253:231|253:231|248:298|248:298|256:365|256:365|215:260|215:260|165:112|165:112,1,538.18181818208,2|10,0:0|0:0,0:0:0:0:
116,192,17052,1,0,0:0:0:0:
165,192,17280,6,0,L|189:255|189:255|193:322|193:322|249:359|249:359|256:292|256:292|312:194|312:194|347:42|347:42,1,538.18181818208,2|10,0:0|0:0,0:0:0:0:
348,192,18189,6,0,B|318:252|318:252|292:314|292:314|288:381|288:381|257:321|257:321|295:214|295:214|348:67|348:67,1,538.18181818208,2|10,0:0|0:0,0:0:0:0:
347,192,19098,6,0,B|318:253|318:253|316:320|316:320|271:370|271:370|256:304|256:304|263:191|263:191|256:35|256:35,1,538.18181818208,2|10,0:0|0:0,0:0:0:0:
347,192,19780,1,8,0:0:0:0:
256,101,20007,6,0,B|252:168|252:168|244:235|244:235|260:300|260:300|256:367|256:367|306:265|306:265|347:115|347:115,1,538.18181818208,2|10,0:0|0:0,0:0:0:0:
396,192,20689,1,0,0:0:0:0:
347,192,20917,6,0,L|321:254|321:254|283:309|283:309|281:376|281:376|256:314|256:314|235:203|235:203|165:64|165:64,1,538.18181818208,2|10,0:0|0:0,0:0:0:0:
256,192,21597,1,8,0:0:0:0:
164,192,21825,6,0,L|177:304|177:304|164:149|164:149,1,269.09090909104,10|8,0:0|0:0,0:0:0:0:
256,88,22279,1,10,0:0:0:0:
72,144,22734,6,0,L|72:257|72:257|72:101|72:101,1,269.09090909104,10|8,0:0|0:0,0:0:0:0:
164,40,23188,1,10,0:0:0:0:
348,192,23643,6,0,L|331:304|331:304|348:149|348:149,1,269.09090909104,10|8,0:0|0:0,0:0:0:0:
256,88,24097,1,10,0:0:0:0:
440,144,24552,6,0,L|428:257|428:257|440:102|440:102,1,269.09090909104,10|8,0:0|0:0,0:0:0:0:
348,40,25006,1,10,0:0:0:0:
160,192,25461,6,0,L|149:305|149:305|160:150|160:150,1,269.09090909104,10|8,0:0|0:0,0:0:0:0:
256,192,25916,2,0,L|257:305|257:305|256:149|256:149,1,269.09090909104,10|8,0:0|0:0,0:0:0:0:
160,192,26370,6,0,L|143:304|143:304|160:149|160:149,1,269.09090909104,10|8,0:0|0:0,0:0:0:0:
256,192,26825,1,10,0:0:0:0:
352,192,27279,6,0,L|360:305|360:305|352:149|352:149,1,269.09090909104,10|8,0:0|0:0,0:0:0:0:
256,192,27734,2,0,L|241:304|241:304|256:149|256:149,1,269.09090909104,10|8,0:0|0:0,0:0:0:0:
352,192,28188,6,0,L|364:305|364:305|352:150|352:150,1,269.09090909104,10|8,0:0|0:0,0:0:0:0:
256,192,28643,2,0,L|228:302|228:302|165:159|165:159,1,269.09090909104,10|8,0:0|0:0,0:0:0:0:
256,192,29097,5,4,0:2:0:0:
256,192,29552,12,0,31370,0:0:0:0:
