osu file format v14

[General]
AudioFilename: audio.mp3
AudioLeadIn: 0
PreviewTime: 21768
Countdown: 0
SampleSet: Drum
StackLeniency: 0.7
Mode: 2
LetterboxInBreaks: 0
WidescreenStoryboard: 1

[Editor]
Bookmarks: 7279,14552
DistanceSpacing: 1
BeatDivisor: 7
GridSize: 4
TimelineZoom: 3.199999

[Metadata]
Title:etWas
TitleUnicode:etWas
Artist:feru.*
ArtistUnicode:feru.☆
Creator:Phob
Version:clockwork
Source:
Tags:electronic instrumental feerum mechanical steampunk
BeatmapID:3137205
BeatmapSetID:1534144

[Difficulty]
HPDrainRate:6
CircleSize:3.8
OverallDifficulty:9.4
ApproachRate:9.4
SliderMultiplier:2.27272727273
SliderTickRate:2

[Events]
//Background and Video events
0,0,"cog.png",0,0
//Break Periods
//Storyboard Layer 0 (Background)
//Storyboard Layer 1 (Fail)
//Storyboard Layer 2 (Pass)
//Storyboard Layer 3 (Foreground)
//Storyboard Layer 4 (Overlay)
//Storyboard Sound Samples

[TimingPoints]
7,454.545454545455,4,3,1,40,1,0
7,-38.3435582822334,4,3,1,40,0,0
8643,-38.3435582822334,4,3,2,40,0,0
9097,-38.3435582822334,4,3,1,40,0,0
12279,-38.3435582822334,4,3,2,40,0,0
12734,-38.3435582822334,4,3,1,40,0,0
15916,-38.3435582822334,4,3,2,40,0,0
16370,-38.3435582822334,4,3,1,40,0,0
19552,-38.3435582822334,4,3,2,40,0,0
20007,-38.3435582822334,4,3,1,40,0,0
21825,-38.3435582822334,4,3,2,60,0,1
29097,-38.3435582822334,4,3,1,60,0,0
29552,-38.3435582822334,4,3,1,50,0,0
30007,-38.3435582822334,4,3,1,40,0,0
30461,-38.3435582822334,4,3,1,30,0,0
30916,-38.3435582822334,4,3,1,20,0,0
31370,-38.3435582822334,4,3,1,10,0,0

[Colours]
Combo1 : 119,78,46
Combo2 : 70,59,54

[HitObjects]
104,192,7,6,0,L|118:316|118:316|104:145|104:145,1,296.3636363638,2|0,0:0|0:0,0:0:0:0:
408,192,461,5,10,0:0:0:0:
368,192,489,1,0,0:0:0:0:
288,192,688,1,0,0:0:0:0:
288,192,802,1,0,0:0:0:0:
408,192,916,6,0,L|418:316|418:316|408:145|408:145,1,296.3636363638,2|0,0:0|0:0,0:0:0:0:
104,192,1370,6,0,B|106:266|106:266|89:338|89:338|87:264|87:264|106:192|106:192|146:94|146:94|205:235|205:235,1,555.681818182126,10|0,0:0|0:0,0:0:0:0:
408,192,1825,6,0,L|422:316|422:316|408:145|408:145,1,296.3636363638,2|0,0:0|0:0,0:0:0:0:
104,192,2279,5,10,0:0:0:0:
144,192,2307,1,0,0:0:0:0:
224,192,2507,1,0,0:0:0:0:
104,192,2734,6,0,L|111:317|111:317|104:145|104:145,1,296.3636363638,2|0,0:0|0:0,0:0:0:0:
408,192,3188,6,0,B|419:265|419:265|411:339|411:339|394:267|394:267|406:194|406:194|374:93|374:93|307:231|307:231,1,555.681818182126,10|0,0:0|0:0,0:0:0:0:
104,192,3643,6,0,L|99:317|99:317|104:145|104:145,1,296.3636363638,2|0,0:0|0:0,0:0:0:0:
408,192,4097,5,10,0:0:0:0:
368,192,4125,1,0,0:0:0:0:
288,192,4324,1,0,0:0:0:0:
288,192,4438,1,0,0:0:0:0:
408,192,4552,6,0,L|426:315|426:315|408:144|408:144,1,296.3636363638,2|0,0:0|0:0,0:0:0:0:
104,192,5006,6,0,B|112:266|112:266|86:335|86:335|87:261|87:261|106:189|106:189|153:94|153:94|205:238|205:238,1,555.681818182126,10|0,0:0|0:0,0:0:0:0:
408,192,5461,6,0,L|424:316|424:316|408:145|408:145,1,296.3636363638,2|0,0:0|0:0,0:0:0:0:
104,192,5915,5,10,0:0:0:0:
144,192,5943,1,0,0:0:0:0:
224,192,6143,1,0,0:0:0:0:
104,192,6370,6,0,L|91:316|91:316|104:145|104:145,1,296.3636363638,2|0,0:0|0:0,0:0:0:0:
320,56,6825,5,10,0:0:0:0:
280,56,6853,1,0,0:0:0:0:
200,56,6938,1,0,0:0:0:0:
184,56,6967,1,0,0:0:0:0:
272,128,7052,1,8,0:0:0:0:
232,128,7080,1,0,0:0:0:0:
152,128,7165,1,8,0:0:0:0:
136,128,7194,1,0,0:0:0:0:
408,192,7279,5,2,0:0:0:0:
408,192,7393,1,0,0:0:0:0:
408,192,7507,1,0,0:0:0:0:
344,192,7620,1,0,0:0:0:0:
104,192,7734,5,10,0:0:0:0:
144,192,7762,1,0,0:0:0:0:
216,192,7847,1,0,0:0:0:0:
216,192,7961,1,0,0:0:0:0:
216,192,8075,1,0,0:0:0:0:
104,192,8188,5,2,0:0:0:0:
104,192,8302,1,0,0:0:0:0:
168,192,8416,1,0,0:0:0:0:
168,192,8529,1,0,0:0:0:0:
376,192,8643,6,0,L|408:270|408:270|376:348|376:348|408:270|408:270|376:192|376:192|408:114|408:114|376:36|376:36,6,84.6753246753714,10|8|8|8|8|8|8,0:0|0:0|0:0|0:0|0:0|0:0|0:0,0:0:0:0:
104,192,9097,5,2,0:0:0:0:
104,192,9211,1,0,0:0:0:0:
104,192,9325,1,0,0:0:0:0:
168,192,9438,1,0,0:0:0:0:
408,192,9552,5,10,0:0:0:0:
368,192,9580,1,0,0:0:0:0:
296,192,9665,1,0,0:0:0:0:
296,192,9779,1,0,0:0:0:0:
296,192,9893,1,0,0:0:0:0:
408,192,10006,5,2,0:0:0:0:
408,192,10120,1,0,0:0:0:0:
344,192,10234,1,0,0:0:0:0:
344,192,10347,1,0,0:0:0:0:
104,192,10461,6,0,B|108:266|108:266|100:340|100:340|118:268|118:268|106:195|106:195|146:97|146:97|205:238|205:238,1,555.681818182126,10|0,0:0|0:0,0:0:0:0:
408,192,10916,5,2,0:0:0:0:
408,192,11030,1,0,0:0:0:0:
408,192,11144,1,0,0:0:0:0:
344,192,11257,1,0,0:0:0:0:
104,192,11371,5,10,0:0:0:0:
144,192,11399,1,0,0:0:0:0:
216,192,11484,1,0,0:0:0:0:
216,192,11598,1,0,0:0:0:0:
216,192,11712,1,0,0:0:0:0:
104,192,11825,5,2,0:0:0:0:
104,192,11939,1,0,0:0:0:0:
168,192,12053,1,0,0:0:0:0:
168,192,12166,1,0,0:0:0:0:
348,192,12279,5,10,0:0:0:0:
408,192,12344,1,8,0:0:0:0:
348,192,12409,1,8,0:0:0:0:
288,192,12474,1,8,0:0:0:0:
348,192,12539,1,8,0:0:0:0:
408,192,12604,1,8,0:0:0:0:
348,192,12669,1,8,0:0:0:0:
104,192,12734,5,2,0:0:0:0:
104,192,12848,1,0,0:0:0:0:
104,192,12961,1,0,0:0:0:0:
168,192,13075,1,0,0:0:0:0:
408,192,13189,5,10,0:0:0:0:
368,192,13217,1,0,0:0:0:0:
296,192,13302,1,0,0:0:0:0:
296,192,13416,1,0,0:0:0:0:
296,192,13530,1,0,0:0:0:0:
408,192,13643,5,2,0:0:0:0:
408,192,13757,1,0,0:0:0:0:
344,192,13871,1,0,0:0:0:0:
344,192,13984,1,0,0:0:0:0:
224,56,14097,5,10,0:0:0:0:
264,56,14125,1,0,0:0:0:0:
344,56,14210,1,0,0:0:0:0:
360,56,14239,1,0,0:0:0:0:
272,128,14324,1,8,0:0:0:0:
312,128,14353,1,0,0:0:0:0:
392,128,14437,1,8,0:0:0:0:
408,128,14466,1,0,0:0:0:0:
104,192,14552,5,2,0:0:0:0:
104,192,14666,1,0,0:0:0:0:
104,192,14780,1,0,0:0:0:0:
168,192,14893,1,0,0:0:0:0:
408,192,15007,5,10,0:0:0:0:
368,192,15035,1,0,0:0:0:0:
296,192,15120,1,0,0:0:0:0:
296,192,15234,1,0,0:0:0:0:
296,192,15348,1,0,0:0:0:0:
408,192,15461,5,2,0:0:0:0:
408,192,15575,1,0,0:0:0:0:
344,192,15689,1,0,0:0:0:0:
344,192,15802,1,0,0:0:0:0:
136,192,15916,6,0,L|104:270|104:270|136:348|136:348|104:270|104:270|136:192|136:192|104:114|104:114|136:36|136:36,6,84.6753246753714,10|8|8|8|8|8|8,0:0|0:0|0:0|0:0|0:0|0:0|0:0,0:0:0:0:
408,192,16370,5,2,0:0:0:0:
408,192,16484,1,0,0:0:0:0:
408,192,16598,1,0,0:0:0:0:
344,192,16711,1,0,0:0:0:0:
104,192,16825,5,10,0:0:0:0:
144,192,16853,1,0,0:0:0:0:
216,192,16938,1,0,0:0:0:0:
216,192,17052,1,0,0:0:0:0:
216,192,17166,1,0,0:0:0:0:
104,192,17279,5,2,0:0:0:0:
104,192,17393,1,0,0:0:0:0:
168,192,17507,1,0,0:0:0:0:
168,192,17620,1,0,0:0:0:0:
408,192,17734,6,0,B|394:265|394:265|422:334|422:334|426:260|426:260|406:189|406:189|353:97|353:97|307:243|307:243,1,555.681818182126,10|0,0:0|0:0,0:0:0:0:
104,192,18189,5,2,0:0:0:0:
104,192,18303,1,0,0:0:0:0:
104,192,18417,1,0,0:0:0:0:
168,192,18530,1,0,0:0:0:0:
408,192,18644,5,10,0:0:0:0:
368,192,18672,1,0,0:0:0:0:
296,192,18757,1,0,0:0:0:0:
296,192,18871,1,0,0:0:0:0:
296,192,18985,1,0,0:0:0:0:
408,192,19098,5,2,0:0:0:0:
408,192,19212,1,0,0:0:0:0:
344,192,19326,1,0,0:0:0:0:
344,192,19439,1,0,0:0:0:0:
164,192,19552,5,10,0:0:0:0:
104,192,19617,1,8,0:0:0:0:
164,192,19682,1,8,0:0:0:0:
224,192,19747,1,8,0:0:0:0:
164,192,19812,1,8,0:0:0:0:
104,192,19877,1,8,0:0:0:0:
164,192,19942,1,8,0:0:0:0:
408,192,20007,5,2,0:0:0:0:
408,192,20120,1,0,0:0:0:0:
408,192,20234,1,0,0:0:0:0:
344,192,20347,1,0,0:0:0:0:
104,192,20462,5,10,0:0:0:0:
144,192,20490,1,0,0:0:0:0:
216,192,20575,1,0,0:0:0:0:
216,192,20689,1,0,0:0:0:0:
216,192,20803,1,0,0:0:0:0:
104,192,20916,5,2,0:0:0:0:
104,192,21030,1,0,0:0:0:0:
168,192,21144,1,0,0:0:0:0:
168,192,21257,1,0,0:0:0:0:
288,56,21370,5,10,0:0:0:0:
248,56,21398,1,0,0:0:0:0:
168,56,21483,1,0,0:0:0:0:
152,56,21512,1,0,0:0:0:0:
240,128,21597,1,8,0:0:0:0:
200,128,21625,1,0,0:0:0:0:
120,128,21710,1,8,0:0:0:0:
104,128,21739,1,0,0:0:0:0:
368,192,21825,5,10,0:0:0:0:
408,192,21853,1,0,0:0:0:0:
320,192,21938,1,0,0:0:0:0:
408,192,22052,1,8,0:0:0:0:
368,192,22080,1,0,0:0:0:0:
288,192,22166,1,0,0:0:0:0:
104,192,22279,5,10,0:0:0:0:
144,192,22336,1,0,0:0:0:0:
208,192,22393,1,0,0:0:0:0:
120,256,22507,1,8,0:0:0:0:
136,256,22535,1,0,0:0:0:0:
352,256,22620,1,8,0:0:0:0:
392,256,22648,1,0,0:0:0:0:
216,128,22734,5,10,0:0:0:0:
176,128,22762,1,0,0:0:0:0:
112,128,22847,1,0,0:0:0:0:
312,56,22961,1,8,0:0:0:0:
272,56,22989,1,0,0:0:0:0:
208,56,23074,1,0,0:0:0:0:
408,128,23188,5,10,0:0:0:0:
408,128,23245,1,0,0:0:0:0:
408,128,23302,1,0,0:0:0:0:
408,128,23501,1,0,0:0:0:0:
380,128,23558,1,0,0:0:0:0:
324,128,23614,1,0,0:0:0:0:
144,192,23643,5,10,0:0:0:0:
104,192,23671,1,0,0:0:0:0:
192,192,23756,1,0,0:0:0:0:
104,192,23870,1,8,0:0:0:0:
144,192,23898,1,0,0:0:0:0:
224,192,23984,1,0,0:0:0:0:
408,192,24097,5,10,0:0:0:0:
368,192,24154,1,0,0:0:0:0:
304,192,24211,1,0,0:0:0:0:
392,256,24325,1,8,0:0:0:0:
376,256,24353,1,0,0:0:0:0:
160,256,24438,1,8,0:0:0:0:
120,256,24466,1,0,0:0:0:0:
296,128,24552,5,10,0:0:0:0:
336,128,24580,1,0,0:0:0:0:
400,128,24665,1,0,0:0:0:0:
200,56,24779,1,8,0:0:0:0:
240,56,24807,1,0,0:0:0:0:
304,56,24892,1,0,0:0:0:0:
104,128,25006,5,10,0:0:0:0:
104,128,25063,1,0,0:0:0:0:
104,128,25120,1,0,0:0:0:0:
104,128,25319,1,0,0:0:0:0:
132,128,25376,1,0,0:0:0:0:
188,128,25432,1,0,0:0:0:0:
366,192,25461,5,10,0:0:0:0:
402,192,25489,1,0,0:0:0:0:
256,192,25575,1,8,0:0:0:0:
311,128,25688,1,8,0:0:0:0:
346,128,25716,1,0,0:0:0:0:
200,104,25802,1,0,0:0:0:0:
408,48,25916,5,10,0:0:0:0:
368,48,25972,1,0,0:0:0:0:
304,48,26029,1,8,0:0:0:0:
120,256,26143,1,8,0:0:0:0:
136,256,26171,1,0,0:0:0:0:
352,256,26256,1,0,0:0:0:0:
392,256,26284,1,0,0:0:0:0:
146,192,26370,5,10,0:0:0:0:
110,192,26398,1,0,0:0:0:0:
256,192,26484,1,8,0:0:0:0:
202,128,26597,1,8,0:0:0:0:
166,128,26625,1,0,0:0:0:0:
312,104,26711,1,0,0:0:0:0:
104,56,26825,5,10,0:0:0:0:
160,56,26882,1,0,0:0:0:0:
408,56,26938,1,8,0:0:0:0:
408,128,27137,1,0,0:0:0:0:
380,128,27194,1,0,0:0:0:0:
324,128,27250,1,0,0:0:0:0:
146,192,27279,5,10,0:0:0:0:
110,192,27307,1,0,0:0:0:0:
256,192,27393,1,8,0:0:0:0:
202,128,27506,1,8,0:0:0:0:
166,128,27534,1,0,0:0:0:0:
312,104,27620,1,0,0:0:0:0:
104,48,27734,5,10,0:0:0:0:
144,48,27790,1,0,0:0:0:0:
208,48,27847,1,8,0:0:0:0:
392,256,27961,1,8,0:0:0:0:
376,256,27989,1,0,0:0:0:0:
160,256,28074,1,0,0:0:0:0:
120,256,28102,1,0,0:0:0:0:
366,192,28188,5,10,0:0:0:0:
402,192,28216,1,0,0:0:0:0:
256,192,28302,1,8,0:0:0:0:
310,128,28415,1,8,0:0:0:0:
346,128,28443,1,0,0:0:0:0:
200,104,28529,1,0,0:0:0:0:
408,56,28643,5,10,0:0:0:0:
448,56,28671,1,0,0:0:0:0:
448,56,28757,1,8,0:0:0:0:
408,56,28785,1,0,0:0:0:0:
328,56,28870,1,8,0:0:0:0:
248,56,28899,1,0,0:0:0:0:
160,56,28984,1,8,0:0:0:0:
56,56,29012,1,0,0:0:0:0:
448,56,29097,5,4,0:2:0:0:
256,192,29211,12,0,31370,0:0:0:0:
