osu file format v14

[General]
AudioFilename: audio.mp3
AudioLeadIn: 0
PreviewTime: 59075
Countdown: 0
SampleSet: Normal
StackLeniency: 0.7
Mode: 1
LetterboxInBreaks: 0
WidescreenStoryboard: 1

[Editor]
Bookmarks: 195,6195,10695,12195,22695,24195,36195,48195,58695,60195,70695,72195,84195,96195,108195,118695,120195,130695,132195,144195,150195
DistanceSpacing: 1.1
BeatDivisor: 4
GridSize: 32
TimelineZoom: 0.8456005

[Metadata]
Title:fotografiruyu zakat
TitleUnicode:фотографирую закат
Artist:fem.love
ArtistUnicode:fem.love
Creator:CrayZeei
Version:kantan
Source:
Tags:разбитые сердца razbitye serdtsa serdca russian rock emo punk русский рок эмо панк fem love femlove фем лав фемлав фем.лав
BeatmapID:3028592
BeatmapSetID:1472132

[Difficulty]
HPDrainRate:8
CircleSize:5
OverallDifficulty:3
ApproachRate:5
SliderMultiplier:1.4
SliderTickRate:1

[Events]
//Background and Video events
0,0,"bg.jpg",0,70
//Break Periods
//Storyboard Layer 0 (Background)
//Storyboard Layer 1 (Fail)
//Storyboard Layer 2 (Pass)
//Storyboard Layer 3 (Foreground)
//Storyboard Layer 4 (Overlay)
//Storyboard Sound Samples

[TimingPoints]
195,375,4,1,0,30,1,0
1695,-111.111111111111,4,1,0,35,0,0
3195,-111.111111111111,4,1,0,40,0,0
4695,-111.111111111111,4,1,0,45,0,0
6195,-111.111111111111,4,1,0,50,0,0
10320,-111.111111111111,4,1,0,50,0,0
11070,-105.263157894737,4,1,0,60,0,0
12195,-95.2380952380952,4,1,0,70,0,1
12570,-95.2380952380952,4,1,0,70,0,1
22695,-95.2380952380952,4,1,0,70,0,0
23070,-95.2380952380952,4,1,0,74,0,0
24195,-95.2380952380952,4,1,0,70,0,1
34695,-95.2380952380952,4,1,0,70,0,1
35070,-95.2380952380952,4,1,0,68,0,1
36195,-100,4,1,0,60,0,0
36570,-99.8448411169044,4,1,0,60,0,0
48195,-100.103206405804,4,1,0,65,0,0
60195,-95.2380952380952,4,1,0,70,0,1
60570,-95.2380952380952,4,1,0,70,0,1
70695,-95.2380952380952,4,1,0,70,0,0
71070,-95.2380952380952,4,1,0,74,0,0
72195,-95.2380952380952,4,1,0,70,0,1
82695,-95.2380952380952,4,1,0,70,0,1
83070,-95.2380952380952,4,1,0,68,0,1
84195,-100,4,1,0,60,0,0
84288,-111.111111111111,4,1,0,50,0,0
96195,-100.051826846306,4,1,0,60,0,0
108195,-100.103206405804,4,1,0,65,0,0
120195,-95.2380952380952,4,1,0,70,0,1
120570,-95.2380952380952,4,1,0,70,0,1
130695,-95.2380952380952,4,1,0,70,0,0
131070,-95.2380952380952,4,1,0,74,0,0
132195,-95.2380952380952,4,1,0,70,0,1
142695,-95.2380952380952,4,1,0,70,0,1
143070,-95.2380952380952,4,1,0,68,0,1
144195,-100,4,1,0,60,0,0
144570,-100,4,1,0,50,0,0
145695,-111.111111111111,4,1,0,45,0,0
147195,-111.111111111111,4,1,0,40,0,0
148695,-111.111111111111,4,1,0,35,0,0

[HitObjects]
256,192,195,12,0,5820,0:0:0:0:
256,192,6195,5,0,0:0:0:0:
256,192,7320,1,2,0:0:0:0:
256,192,8070,1,2,0:0:0:0:
256,192,8632,1,2,0:0:0:0:
256,192,9195,1,2,0:0:0:0:
256,192,10320,1,2,0:0:0:0:
256,192,11070,1,0,0:0:0:0:
256,192,12195,1,4,0:0:0:0:
256,192,12570,1,2,0:0:0:0:
256,192,13320,1,2,0:0:0:0:
256,192,13695,1,0,0:0:0:0:
256,192,14445,1,0,0:0:0:0:
256,192,14820,1,2,0:0:0:0:
256,192,15195,1,2,0:0:0:0:
256,192,15570,1,0,0:0:0:0:
256,192,16320,1,2,0:0:0:0:
256,192,16695,1,0,0:0:0:0:
256,192,17445,1,2,0:0:0:0:
256,192,18195,1,0,0:0:0:0:
256,192,18570,1,2,0:0:0:0:
256,192,18945,1,0,0:0:0:0:
256,192,19320,1,0,0:0:0:0:
256,192,19695,1,2,0:0:0:0:
256,192,20445,1,2,0:0:0:0:
256,192,20820,1,2,0:0:0:0:
256,192,21195,1,0,0:0:0:0:
256,192,21570,1,2,0:0:0:0:
256,192,22320,1,2,0:0:0:0:
256,192,22695,1,0,0:0:0:0:
256,192,23070,1,2,0:0:0:0:
256,192,24195,1,6,0:0:0:0:
256,192,24570,1,2,0:0:0:0:
256,192,25320,1,2,0:0:0:0:
256,192,25695,1,0,0:0:0:0:
256,192,26445,1,2,0:0:0:0:
256,192,26820,1,2,0:0:0:0:
256,192,27195,1,0,0:0:0:0:
256,192,27570,1,2,0:0:0:0:
256,192,28320,1,2,0:0:0:0:
256,192,28695,1,0,0:0:0:0:
256,192,29445,1,2,0:0:0:0:
256,192,30195,1,0,0:0:0:0:
256,192,30570,1,2,0:0:0:0:
256,192,30945,1,2,0:0:0:0:
256,192,31320,1,2,0:0:0:0:
256,192,31695,1,0,0:0:0:0:
256,192,32445,1,2,0:0:0:0:
256,192,32820,1,2,0:0:0:0:
256,192,33195,1,2,0:0:0:0:
256,192,33570,1,0,0:0:0:0:
256,192,34320,1,2,0:0:0:0:
256,192,34695,1,0,0:0:0:0:
256,192,35070,1,2,0:0:0:0:
256,192,36195,1,2,0:0:0:0:
256,192,36570,1,2,0:0:0:0:
256,192,37695,1,0,0:0:0:0:
256,192,38070,1,2,0:0:0:0:
256,192,38820,1,2,0:0:0:0:
256,192,39195,1,0,0:0:0:0:
256,192,39570,1,2,0:0:0:0:
256,192,40320,1,0,0:0:0:0:
256,192,40695,1,2,0:0:0:0:
256,192,42195,1,4,0:0:0:0:
256,192,42570,1,2,0:0:0:0:
256,192,43320,1,0,0:0:0:0:
256,192,43695,1,0,0:0:0:0:
256,192,44070,1,2,0:0:0:0:
256,192,45195,1,0,0:0:0:0:
256,192,45570,1,2,0:0:0:0:
256,192,46320,1,2,0:0:0:0:
256,192,46695,1,0,0:0:0:0:
256,192,48195,1,4,0:0:0:0:
256,192,48570,1,2,0:0:0:0:
256,192,49320,1,0,0:0:0:0:
256,192,50070,1,2,0:0:0:0:
256,192,50445,1,0,0:0:0:0:
256,192,51195,1,0,0:0:0:0:
256,192,51570,1,2,0:0:0:0:
256,192,52695,1,0,0:0:0:0:
256,192,53445,1,2,0:0:0:0:
256,192,54195,1,4,0:0:0:0:
256,192,54570,1,2,0:0:0:0:
256,192,54945,1,0,0:0:0:0:
256,192,55695,1,0,0:0:0:0:
256,192,56070,1,2,0:0:0:0:
256,192,56820,1,2,0:0:0:0:
256,192,57195,1,0,0:0:0:0:
256,192,57945,1,2,0:0:0:0:
256,192,58695,1,0,0:0:0:0:
256,192,59070,1,2,0:0:0:0:
256,192,60195,1,4,0:0:0:0:
256,192,60570,1,2,0:0:0:0:
256,192,61320,1,2,0:0:0:0:
256,192,61695,1,0,0:0:0:0:
256,192,62445,1,0,0:0:0:0:
256,192,62820,1,2,0:0:0:0:
256,192,63195,1,2,0:0:0:0:
256,192,63570,1,0,0:0:0:0:
256,192,64320,1,2,0:0:0:0:
256,192,64695,1,0,0:0:0:0:
256,192,65445,1,2,0:0:0:0:
256,192,66195,1,0,0:0:0:0:
256,192,66570,1,2,0:0:0:0:
256,192,66945,1,0,0:0:0:0:
256,192,67320,1,0,0:0:0:0:
256,192,67695,1,2,0:0:0:0:
256,192,68445,1,2,0:0:0:0:
256,192,68820,1,2,0:0:0:0:
256,192,69195,1,0,0:0:0:0:
256,192,69570,1,2,0:0:0:0:
256,192,70320,1,2,0:0:0:0:
256,192,70695,1,0,0:0:0:0:
256,192,71070,1,2,0:0:0:0:
256,192,72195,1,6,0:0:0:0:
256,192,72570,1,2,0:0:0:0:
256,192,73320,1,2,0:0:0:0:
256,192,73695,1,0,0:0:0:0:
256,192,74445,1,2,0:0:0:0:
256,192,74820,1,2,0:0:0:0:
256,192,75195,1,0,0:0:0:0:
256,192,75570,1,2,0:0:0:0:
256,192,76320,1,2,0:0:0:0:
256,192,76695,1,0,0:0:0:0:
256,192,77445,1,2,0:0:0:0:
256,192,78195,1,0,0:0:0:0:
256,192,78570,1,2,0:0:0:0:
256,192,78945,1,2,0:0:0:0:
256,192,79320,1,2,0:0:0:0:
256,192,79695,1,0,0:0:0:0:
256,192,80445,1,2,0:0:0:0:
256,192,80820,1,2,0:0:0:0:
256,192,81195,1,2,0:0:0:0:
256,192,81570,1,0,0:0:0:0:
256,192,82320,1,2,0:0:0:0:
256,192,82695,1,0,0:0:0:0:
256,192,83070,1,2,0:0:0:0:
256,192,84195,1,2,0:0:0:0:
256,192,86070,1,2,0:0:0:0:
256,192,86632,1,0,0:0:0:0:
256,192,87195,1,2,0:0:0:0:
256,192,89070,1,2,0:0:0:0:
256,192,89632,1,2,0:0:0:0:
256,192,90195,1,0,0:0:0:0:
256,192,92070,1,2,0:0:0:0:
256,192,92632,1,0,0:0:0:0:
256,192,93195,1,0,0:0:0:0:
256,192,96195,1,6,0:0:0:0:
256,192,96570,1,2,0:0:0:0:
256,192,97695,1,0,0:0:0:0:
256,192,98070,1,2,0:0:0:0:
256,192,98820,1,2,0:0:0:0:
256,192,99195,1,0,0:0:0:0:
256,192,99570,1,2,0:0:0:0:
256,192,100320,1,0,0:0:0:0:
256,192,100695,1,2,0:0:0:0:
256,192,102195,1,4,0:0:0:0:
256,192,102570,1,2,0:0:0:0:
256,192,103320,1,0,0:0:0:0:
256,192,103695,1,0,0:0:0:0:
256,192,104070,1,2,0:0:0:0:
256,192,105195,1,0,0:0:0:0:
256,192,105570,1,2,0:0:0:0:
256,192,106320,1,2,0:0:0:0:
256,192,106695,1,0,0:0:0:0:
256,192,108195,1,4,0:0:0:0:
256,192,108570,1,2,0:0:0:0:
256,192,109320,1,0,0:0:0:0:
256,192,110070,1,2,0:0:0:0:
256,192,110445,1,0,0:0:0:0:
256,192,111195,1,0,0:0:0:0:
256,192,111570,1,2,0:0:0:0:
256,192,112695,1,0,0:0:0:0:
256,192,113445,1,2,0:0:0:0:
256,192,114195,1,4,0:0:0:0:
256,192,114570,1,2,0:0:0:0:
256,192,114945,1,0,0:0:0:0:
256,192,115695,1,0,0:0:0:0:
256,192,116070,1,2,0:0:0:0:
256,192,116820,1,2,0:0:0:0:
256,192,117195,1,0,0:0:0:0:
256,192,117945,1,2,0:0:0:0:
256,192,118695,1,0,0:0:0:0:
256,192,119070,1,2,0:0:0:0:
256,192,120195,1,4,0:0:0:0:
256,192,120570,1,2,0:0:0:0:
256,192,121320,1,2,0:0:0:0:
256,192,121695,1,0,0:0:0:0:
256,192,122445,1,0,0:0:0:0:
256,192,122820,1,2,0:0:0:0:
256,192,123195,1,2,0:0:0:0:
256,192,123570,1,0,0:0:0:0:
256,192,124320,1,2,0:0:0:0:
256,192,124695,1,0,0:0:0:0:
256,192,125445,1,2,0:0:0:0:
256,192,126195,1,0,0:0:0:0:
256,192,126570,1,2,0:0:0:0:
256,192,126945,1,0,0:0:0:0:
256,192,127320,1,0,0:0:0:0:
256,192,127695,1,2,0:0:0:0:
256,192,128445,1,2,0:0:0:0:
256,192,128820,1,2,0:0:0:0:
256,192,129195,1,0,0:0:0:0:
256,192,129570,1,2,0:0:0:0:
256,192,130320,1,2,0:0:0:0:
256,192,130695,1,0,0:0:0:0:
256,192,131070,1,2,0:0:0:0:
256,192,132195,1,6,0:0:0:0:
256,192,132570,1,2,0:0:0:0:
256,192,133320,1,2,0:0:0:0:
256,192,133695,1,0,0:0:0:0:
256,192,134445,1,2,0:0:0:0:
256,192,134820,1,2,0:0:0:0:
256,192,135195,1,0,0:0:0:0:
256,192,135570,1,2,0:0:0:0:
256,192,136320,1,2,0:0:0:0:
256,192,136695,1,0,0:0:0:0:
256,192,137445,1,2,0:0:0:0:
256,192,138195,1,0,0:0:0:0:
256,192,138570,1,2,0:0:0:0:
256,192,138945,1,2,0:0:0:0:
256,192,139320,1,2,0:0:0:0:
256,192,139695,1,0,0:0:0:0:
256,192,140445,1,2,0:0:0:0:
256,192,140820,1,2,0:0:0:0:
256,192,141195,1,2,0:0:0:0:
256,192,141570,1,0,0:0:0:0:
256,192,142320,1,2,0:0:0:0:
256,192,142695,1,0,0:0:0:0:
256,192,143070,1,2,0:0:0:0:
256,192,144195,1,2,0:0:0:0:
256,192,144570,12,0,150195,0:0:0:0:
