osu file format v14

[General]
AudioFilename: audio.mp3
AudioLeadIn: 0
PreviewTime: 59075
Countdown: 0
SampleSet: Normal
StackLeniency: 0.7
Mode: 1
LetterboxInBreaks: 0
WidescreenStoryboard: 1

[Editor]
Bookmarks: 195,6195,10695,12195,22695,24195,36195,48195,58695,60195,70695,72195,84195,96195,108195,118695,120195,130695,132195,144195,150195
DistanceSpacing: 1
BeatDivisor: 4
GridSize: 32
TimelineZoom: 0.9640009

[Metadata]
Title:fotografiruyu zakat
TitleUnicode:фотографирую закат
Artist:fem.love
ArtistUnicode:fem.love
Creator:CrayZeei
Version:futsuu
Source:
Tags:разбитые сердца razbitye serdtsa serdca russian rock emo punk русский рок эмо панк fem love femlove фем лав фемлав фем.лав
BeatmapID:3088864
BeatmapSetID:1472132

[Difficulty]
HPDrainRate:7
CircleSize:5
OverallDifficulty:4
ApproachRate:5
SliderMultiplier:1.4
SliderTickRate:1

[Events]
//Background and Video events
0,0,"bg.jpg",0,70
//Break Periods
//Storyboard Layer 0 (Background)
//Storyboard Layer 1 (Fail)
//Storyboard Layer 2 (Pass)
//Storyboard Layer 3 (Foreground)
//Storyboard Layer 4 (Overlay)
//Storyboard Sound Samples

[TimingPoints]
195,375,4,1,0,30,1,0
1695,-111.111111111111,4,1,0,35,0,0
3195,-111.111111111111,4,1,0,40,0,0
4695,-111.111111111111,4,1,0,45,0,0
6195,-111.111111111111,4,1,0,50,0,0
10320,-111.111111111111,4,1,0,50,0,0
10695,-107.52688172043,4,1,0,60,0,0
11070,-105.263157894737,4,1,0,60,0,0
11445,-100,4,1,0,60,0,0
12195,-95.2380952380952,4,1,0,70,0,1
12570,-95.2380952380952,4,1,0,70,0,1
22695,-95.2380952380952,4,1,0,70,0,0
22882,-95.2380952380952,4,1,0,72,0,0
23070,-95.2380952380952,4,1,0,74,0,0
23257,-95.2380952380952,4,1,0,76,0,0
23445,-95.2380952380952,4,1,0,78,0,0
24195,-95.2380952380952,4,1,0,70,0,1
34695,-95.2380952380952,4,1,0,70,0,1
34882,-96.1538461538461,4,1,0,69,0,1
35070,-97.0873786407767,4,1,0,68,0,1
35257,-98.0392156862745,4,1,0,67,0,1
35445,-99.009900990099,4,1,0,65,0,1
36195,-99.8448411169044,4,1,0,60,0,0
36570,-110.91958995246,4,1,0,60,0,0
47820,-107.52688172043,4,1,0,61,0,0
48195,-100.103206405804,4,1,0,65,0,0
59445,-100,4,1,0,65,0,0
60195,-90.9090909090909,4,1,0,70,0,1
60570,-95.2380952380952,4,1,0,70,0,1
70695,-95.2380952380952,4,1,0,70,0,0
70882,-95.2380952380952,4,1,0,72,0,0
71070,-95.2380952380952,4,1,0,74,0,0
71257,-95.2380952380952,4,1,0,76,0,0
71445,-95.2380952380952,4,1,0,78,0,0
72195,-95.2380952380952,4,1,0,70,0,1
82695,-95.2380952380952,4,1,0,70,0,1
82882,-96.1538461538461,4,1,0,69,0,1
83070,-97.0873786407767,4,1,0,68,0,1
83257,-98.0392156862745,4,1,0,67,0,1
83445,-99.009900990099,4,1,0,65,0,1
84195,-99.8448411169044,4,1,0,60,0,0
84288,-125,4,1,0,50,0,0
96195,-111.175098556725,4,1,0,60,0,0
107820,-107.52688172043,4,1,0,61,0,0
108195,-100.103206405804,4,1,0,65,0,0
119445,-100,4,1,0,65,0,0
120195,-90.9090909090909,4,1,0,70,0,1
120570,-95.2380952380952,4,1,0,70,0,1
130695,-95.2380952380952,4,1,0,70,0,0
130882,-95.2380952380952,4,1,0,72,0,0
131070,-95.2380952380952,4,1,0,74,0,0
131257,-95.2380952380952,4,1,0,76,0,0
131445,-95.2380952380952,4,1,0,78,0,0
132195,-95.2380952380952,4,1,0,70,0,1
142695,-95.2380952380952,4,1,0,70,0,1
142882,-96.1538461538461,4,1,0,69,0,1
143070,-97.0873786407767,4,1,0,68,0,1
143257,-98.0392156862745,4,1,0,67,0,1
143445,-99.009900990099,4,1,0,65,0,1
144195,-99.8448411169044,4,1,0,60,0,0
144570,-100,4,1,0,50,0,0
145695,-111.111111111111,4,1,0,45,0,0
147195,-111.111111111111,4,1,0,40,0,0
148695,-111.111111111111,4,1,0,35,0,0

[HitObjects]
256,192,195,12,0,5820,0:0:0:0:
256,192,6195,5,0,0:0:0:0:
256,192,7320,1,2,0:0:0:0:
256,192,8070,1,2,0:0:0:0:
256,192,8632,1,2,0:0:0:0:
256,192,9195,1,2,0:0:0:0:
256,192,10320,1,2,0:0:0:0:
256,192,10695,1,0,0:0:0:0:
256,192,11070,1,0,0:0:0:0:
256,192,11445,1,2,0:0:0:0:
256,192,12195,1,4,0:0:0:0:
256,192,12570,1,2,0:0:0:0:
256,192,12757,1,0,0:0:0:0:
256,192,13132,1,0,0:0:0:0:
256,192,13320,1,2,0:0:0:0:
256,192,13695,1,0,0:0:0:0:
256,192,13882,1,0,0:0:0:0:
256,192,14070,1,2,0:0:0:0:
256,192,14445,1,0,0:0:0:0:
256,192,14820,1,2,0:0:0:0:
256,192,15195,1,2,0:0:0:0:
256,192,15570,1,2,0:0:0:0:
256,192,15757,1,0,0:0:0:0:
256,192,15945,1,0,0:0:0:0:
256,192,16320,1,2,0:0:0:0:
256,192,16695,1,0,0:0:0:0:
256,192,16882,1,0,0:0:0:0:
256,192,17070,1,2,0:0:0:0:
256,192,17445,1,0,0:0:0:0:
256,192,18195,1,0,0:0:0:0:
256,192,18570,1,2,0:0:0:0:
256,192,18757,1,0,0:0:0:0:
256,192,19132,1,0,0:0:0:0:
256,192,19320,1,2,0:0:0:0:
256,192,19695,1,0,0:0:0:0:
256,192,19882,1,0,0:0:0:0:
256,192,20070,1,2,0:0:0:0:
256,192,20445,1,2,0:0:0:0:
256,192,20820,1,2,0:0:0:0:
256,192,21195,1,0,0:0:0:0:
256,192,21570,1,2,0:0:0:0:
256,192,21757,1,0,0:0:0:0:
256,192,21945,1,0,0:0:0:0:
256,192,22320,1,0,0:0:0:0:
256,192,22695,1,0,0:0:0:0:
256,192,22882,1,0,0:0:0:0:
256,192,23070,1,2,0:0:0:0:
256,192,23257,1,2,0:0:0:0:
256,192,23445,1,0,0:0:0:0:
256,192,24195,1,6,0:0:0:0:
256,192,24570,1,2,0:0:0:0:
256,192,24757,1,0,0:0:0:0:
256,192,25132,1,0,0:0:0:0:
256,192,25320,1,2,0:0:0:0:
256,192,25695,1,2,0:0:0:0:
256,192,25882,1,0,0:0:0:0:
256,192,26070,1,2,0:0:0:0:
256,192,26445,1,2,0:0:0:0:
256,192,26820,1,2,0:0:0:0:
256,192,27195,1,0,0:0:0:0:
256,192,27570,1,2,0:0:0:0:
256,192,27757,1,0,0:0:0:0:
256,192,27945,1,2,0:0:0:0:
256,192,28320,1,2,0:0:0:0:
256,192,28695,1,0,0:0:0:0:
256,192,28882,1,0,0:0:0:0:
256,192,29070,1,2,0:0:0:0:
256,192,29445,1,0,0:0:0:0:
256,192,30195,1,2,0:0:0:0:
256,192,30570,1,2,0:0:0:0:
256,192,30757,1,0,0:0:0:0:
256,192,31132,1,0,0:0:0:0:
256,192,31320,1,2,0:0:0:0:
256,192,31695,1,2,0:0:0:0:
256,192,31882,1,0,0:0:0:0:
256,192,32070,1,2,0:0:0:0:
256,192,32445,1,2,0:0:0:0:
256,192,32820,1,2,0:0:0:0:
256,192,33195,1,2,0:0:0:0:
256,192,33570,1,2,0:0:0:0:
256,192,33757,1,0,0:0:0:0:
256,192,33945,1,2,0:0:0:0:
256,192,34320,1,2,0:0:0:0:
256,192,34695,1,2,0:0:0:0:
256,192,34882,1,0,0:0:0:0:
256,192,35070,1,2,0:0:0:0:
256,192,35257,1,0,0:0:0:0:
256,192,35445,1,2,0:0:0:0:
256,192,36195,1,2,0:0:0:0:
256,192,36570,1,2,0:0:0:0:
256,192,37132,1,2,0:0:0:0:
256,192,37320,1,0,0:0:0:0:
256,192,37695,1,0,0:0:0:0:
256,192,37882,1,0,0:0:0:0:
256,192,38070,1,2,0:0:0:0:
256,192,38632,1,0,0:0:0:0:
256,192,38820,1,2,0:0:0:0:
256,192,39195,1,0,0:0:0:0:
256,192,39570,1,2,0:0:0:0:
256,192,40132,1,2,0:0:0:0:
256,192,40320,1,0,0:0:0:0:
256,192,40695,1,0,0:0:0:0:
256,192,41070,1,2,0:0:0:0:
256,192,41820,1,2,0:0:0:0:
256,192,42195,1,4,0:0:0:0:
256,192,42570,1,2,0:0:0:0:
256,192,43132,1,2,0:0:0:0:
256,192,43320,1,0,0:0:0:0:
256,192,43695,1,0,0:0:0:0:
256,192,43882,1,0,0:0:0:0:
256,192,44070,1,2,0:0:0:0:
256,192,44632,1,0,0:0:0:0:
256,192,44820,1,2,0:0:0:0:
256,192,45195,1,0,0:0:0:0:
256,192,45570,1,2,0:0:0:0:
256,192,46132,1,2,0:0:0:0:
256,192,46320,1,0,0:0:0:0:
256,192,46695,1,0,0:0:0:0:
256,192,47070,1,2,0:0:0:0:
256,192,47820,1,2,0:0:0:0:
256,192,48195,1,4,0:0:0:0:
256,192,48570,1,2,0:0:0:0:
256,192,49132,1,2,0:0:0:0:
256,192,49320,1,0,0:0:0:0:
256,192,49695,1,0,0:0:0:0:
256,192,49882,1,0,0:0:0:0:
256,192,50070,1,2,0:0:0:0:
256,192,50632,1,0,0:0:0:0:
256,192,50820,1,2,0:0:0:0:
256,192,51195,1,0,0:0:0:0:
256,192,51570,1,2,0:0:0:0:
256,192,52132,1,2,0:0:0:0:
256,192,52320,1,0,0:0:0:0:
256,192,52695,1,0,0:0:0:0:
256,192,52882,1,0,0:0:0:0:
256,192,53070,1,2,0:0:0:0:
256,192,53820,1,2,0:0:0:0:
256,192,54195,1,4,0:0:0:0:
256,192,54570,1,2,0:0:0:0:
256,192,55132,1,2,0:0:0:0:
256,192,55320,1,0,0:0:0:0:
256,192,55695,1,0,0:0:0:0:
256,192,55882,1,0,0:0:0:0:
256,192,56070,1,2,0:0:0:0:
256,192,56632,1,0,0:0:0:0:
256,192,56820,1,2,0:0:0:0:
256,192,57195,1,0,0:0:0:0:
256,192,57570,1,2,0:0:0:0:
256,192,58132,1,2,0:0:0:0:
256,192,58320,1,0,0:0:0:0:
256,192,58695,1,0,0:0:0:0:
256,192,59070,1,2,0:0:0:0:
256,192,59445,1,2,0:0:0:0:
256,192,60195,1,4,0:0:0:0:
256,192,60570,1,2,0:0:0:0:
256,192,60757,1,0,0:0:0:0:
256,192,61132,1,0,0:0:0:0:
256,192,61320,1,2,0:0:0:0:
256,192,61695,1,0,0:0:0:0:
256,192,61882,1,0,0:0:0:0:
256,192,62070,1,2,0:0:0:0:
256,192,62445,1,0,0:0:0:0:
256,192,62820,1,2,0:0:0:0:
256,192,63195,1,2,0:0:0:0:
256,192,63570,1,2,0:0:0:0:
256,192,63757,1,0,0:0:0:0:
256,192,63945,1,0,0:0:0:0:
256,192,64320,1,2,0:0:0:0:
256,192,64695,1,0,0:0:0:0:
256,192,64882,1,0,0:0:0:0:
256,192,65070,1,2,0:0:0:0:
256,192,65445,1,0,0:0:0:0:
256,192,66195,1,0,0:0:0:0:
256,192,66570,1,2,0:0:0:0:
256,192,66757,1,0,0:0:0:0:
256,192,67132,1,0,0:0:0:0:
256,192,67320,1,2,0:0:0:0:
256,192,67695,1,0,0:0:0:0:
256,192,67882,1,0,0:0:0:0:
256,192,68070,1,2,0:0:0:0:
256,192,68445,1,2,0:0:0:0:
256,192,68820,1,2,0:0:0:0:
256,192,69195,1,0,0:0:0:0:
256,192,69570,1,2,0:0:0:0:
256,192,69757,1,0,0:0:0:0:
256,192,69945,1,0,0:0:0:0:
256,192,70320,1,0,0:0:0:0:
256,192,70695,1,0,0:0:0:0:
256,192,70882,1,0,0:0:0:0:
256,192,71070,1,2,0:0:0:0:
256,192,71257,1,2,0:0:0:0:
256,192,71445,1,0,0:0:0:0:
256,192,72195,1,6,0:0:0:0:
256,192,72570,1,2,0:0:0:0:
256,192,72757,1,0,0:0:0:0:
256,192,73132,1,0,0:0:0:0:
256,192,73320,1,2,0:0:0:0:
256,192,73695,1,2,0:0:0:0:
256,192,73882,1,0,0:0:0:0:
256,192,74070,1,2,0:0:0:0:
256,192,74445,1,2,0:0:0:0:
256,192,74820,1,2,0:0:0:0:
256,192,75195,1,0,0:0:0:0:
256,192,75570,1,2,0:0:0:0:
256,192,75757,1,0,0:0:0:0:
256,192,75945,1,2,0:0:0:0:
256,192,76320,1,2,0:0:0:0:
256,192,76695,1,0,0:0:0:0:
256,192,76882,1,0,0:0:0:0:
256,192,77070,1,2,0:0:0:0:
256,192,77445,1,0,0:0:0:0:
256,192,78195,1,2,0:0:0:0:
256,192,78570,1,2,0:0:0:0:
256,192,78757,1,0,0:0:0:0:
256,192,79132,1,0,0:0:0:0:
256,192,79320,1,2,0:0:0:0:
256,192,79695,1,2,0:0:0:0:
256,192,79882,1,0,0:0:0:0:
256,192,80070,1,2,0:0:0:0:
256,192,80445,1,2,0:0:0:0:
256,192,80820,1,2,0:0:0:0:
256,192,81195,1,2,0:0:0:0:
256,192,81570,1,2,0:0:0:0:
256,192,81757,1,0,0:0:0:0:
256,192,81945,1,2,0:0:0:0:
256,192,82320,1,2,0:0:0:0:
256,192,82695,1,2,0:0:0:0:
256,192,82882,1,0,0:0:0:0:
256,192,83070,1,2,0:0:0:0:
256,192,83257,1,0,0:0:0:0:
256,192,83445,1,2,0:0:0:0:
256,192,84195,1,2,0:0:0:0:
256,192,86070,1,2,0:0:0:0:
256,192,86632,1,0,0:0:0:0:
256,192,87195,1,2,0:0:0:0:
256,192,89070,1,2,0:0:0:0:
256,192,89632,1,2,0:0:0:0:
256,192,90195,1,0,0:0:0:0:
256,192,92070,1,2,0:0:0:0:
256,192,92632,1,0,0:0:0:0:
256,192,93195,1,0,0:0:0:0:
256,192,96195,1,6,0:0:0:0:
256,192,96570,1,2,0:0:0:0:
256,192,97132,1,2,0:0:0:0:
256,192,97320,1,0,0:0:0:0:
256,192,97695,1,0,0:0:0:0:
256,192,97882,1,0,0:0:0:0:
256,192,98070,1,2,0:0:0:0:
256,192,98632,1,0,0:0:0:0:
256,192,98820,1,2,0:0:0:0:
256,192,99195,1,0,0:0:0:0:
256,192,99570,1,2,0:0:0:0:
256,192,100132,1,2,0:0:0:0:
256,192,100320,1,0,0:0:0:0:
256,192,100695,1,0,0:0:0:0:
256,192,101070,1,2,0:0:0:0:
256,192,101820,1,2,0:0:0:0:
256,192,102195,1,4,0:0:0:0:
256,192,102570,1,2,0:0:0:0:
256,192,103132,1,2,0:0:0:0:
256,192,103320,1,0,0:0:0:0:
256,192,103695,1,0,0:0:0:0:
256,192,103882,1,0,0:0:0:0:
256,192,104070,1,2,0:0:0:0:
256,192,104632,1,0,0:0:0:0:
256,192,104820,1,2,0:0:0:0:
256,192,105195,1,0,0:0:0:0:
256,192,105570,1,2,0:0:0:0:
256,192,106132,1,2,0:0:0:0:
256,192,106320,1,0,0:0:0:0:
256,192,106695,1,0,0:0:0:0:
256,192,107070,1,2,0:0:0:0:
256,192,107820,1,2,0:0:0:0:
256,192,108195,1,4,0:0:0:0:
256,192,108570,1,2,0:0:0:0:
256,192,109132,1,2,0:0:0:0:
256,192,109320,1,0,0:0:0:0:
256,192,109695,1,0,0:0:0:0:
256,192,109882,1,0,0:0:0:0:
256,192,110070,1,2,0:0:0:0:
256,192,110632,1,0,0:0:0:0:
256,192,110820,1,2,0:0:0:0:
256,192,111195,1,0,0:0:0:0:
256,192,111570,1,2,0:0:0:0:
256,192,112132,1,2,0:0:0:0:
256,192,112320,1,0,0:0:0:0:
256,192,112695,1,0,0:0:0:0:
256,192,112882,1,0,0:0:0:0:
256,192,113070,1,2,0:0:0:0:
256,192,113820,1,2,0:0:0:0:
256,192,114195,1,4,0:0:0:0:
256,192,114570,1,2,0:0:0:0:
256,192,115132,1,2,0:0:0:0:
256,192,115320,1,0,0:0:0:0:
256,192,115695,1,0,0:0:0:0:
256,192,115882,1,0,0:0:0:0:
256,192,116070,1,2,0:0:0:0:
256,192,116632,1,0,0:0:0:0:
256,192,116820,1,2,0:0:0:0:
256,192,117195,1,0,0:0:0:0:
256,192,117570,1,2,0:0:0:0:
256,192,118132,1,2,0:0:0:0:
256,192,118320,1,0,0:0:0:0:
256,192,118695,1,0,0:0:0:0:
256,192,119070,1,2,0:0:0:0:
256,192,119445,1,2,0:0:0:0:
256,192,120195,1,4,0:0:0:0:
256,192,120570,1,2,0:0:0:0:
256,192,120757,1,0,0:0:0:0:
256,192,121132,1,0,0:0:0:0:
256,192,121320,1,2,0:0:0:0:
256,192,121695,1,0,0:0:0:0:
256,192,121882,1,0,0:0:0:0:
256,192,122070,1,2,0:0:0:0:
256,192,122445,1,0,0:0:0:0:
256,192,122820,1,2,0:0:0:0:
256,192,123195,1,2,0:0:0:0:
256,192,123570,1,2,0:0:0:0:
256,192,123757,1,0,0:0:0:0:
256,192,123945,1,0,0:0:0:0:
256,192,124320,1,2,0:0:0:0:
256,192,124695,1,0,0:0:0:0:
256,192,124882,1,0,0:0:0:0:
256,192,125070,1,2,0:0:0:0:
256,192,125445,1,0,0:0:0:0:
256,192,126195,1,0,0:0:0:0:
256,192,126570,1,2,0:0:0:0:
256,192,126757,1,0,0:0:0:0:
256,192,127132,1,0,0:0:0:0:
256,192,127320,1,2,0:0:0:0:
256,192,127695,1,0,0:0:0:0:
256,192,127882,1,0,0:0:0:0:
256,192,128070,1,2,0:0:0:0:
256,192,128445,1,2,0:0:0:0:
256,192,128820,1,2,0:0:0:0:
256,192,129195,1,0,0:0:0:0:
256,192,129570,1,2,0:0:0:0:
256,192,129757,1,0,0:0:0:0:
256,192,129945,1,0,0:0:0:0:
256,192,130320,1,0,0:0:0:0:
256,192,130695,1,0,0:0:0:0:
256,192,130882,1,0,0:0:0:0:
256,192,131070,1,2,0:0:0:0:
256,192,131257,1,2,0:0:0:0:
256,192,131445,1,0,0:0:0:0:
256,192,132195,1,6,0:0:0:0:
256,192,132570,1,2,0:0:0:0:
256,192,132757,1,0,0:0:0:0:
256,192,133132,1,0,0:0:0:0:
256,192,133320,1,2,0:0:0:0:
256,192,133695,1,2,0:0:0:0:
256,192,133882,1,0,0:0:0:0:
256,192,134070,1,2,0:0:0:0:
256,192,134445,1,2,0:0:0:0:
256,192,134820,1,2,0:0:0:0:
256,192,135195,1,0,0:0:0:0:
256,192,135570,1,2,0:0:0:0:
256,192,135757,1,0,0:0:0:0:
256,192,135945,1,2,0:0:0:0:
256,192,136320,1,2,0:0:0:0:
256,192,136695,1,0,0:0:0:0:
256,192,136882,1,0,0:0:0:0:
256,192,137070,1,2,0:0:0:0:
256,192,137445,1,0,0:0:0:0:
256,192,138195,1,2,0:0:0:0:
256,192,138570,1,2,0:0:0:0:
256,192,138757,1,0,0:0:0:0:
256,192,139132,1,0,0:0:0:0:
256,192,139320,1,2,0:0:0:0:
256,192,139695,1,2,0:0:0:0:
256,192,139882,1,0,0:0:0:0:
256,192,140070,1,2,0:0:0:0:
256,192,140445,1,2,0:0:0:0:
256,192,140820,1,2,0:0:0:0:
256,192,141195,1,2,0:0:0:0:
256,192,141570,1,2,0:0:0:0:
256,192,141757,1,0,0:0:0:0:
256,192,141945,1,2,0:0:0:0:
256,192,142320,1,2,0:0:0:0:
256,192,142695,1,2,0:0:0:0:
256,192,142882,1,0,0:0:0:0:
256,192,143070,1,2,0:0:0:0:
256,192,143257,1,0,0:0:0:0:
256,192,143445,1,2,0:0:0:0:
256,192,144195,1,2,0:0:0:0:
256,192,144570,12,0,150195,0:0:0:0:
