osu file format v14

[General]
AudioFilename: audio.mp3
AudioLeadIn: 0
PreviewTime: 59177
Countdown: 0
SampleSet: Soft
StackLeniency: 0.7
Mode: 0
LetterboxInBreaks: 0
WidescreenStoryboard: 1

[Editor]
DistanceSpacing: 1.3
BeatDivisor: 4
GridSize: 8
TimelineZoom: 2.699999

[Metadata]
Title:1000-7
TitleUnicode:1000-7
Artist:fem.love
ArtistUnicode:fem.love
Creator:619
Version:normal
Source:
Tags:emo punk russian rock эмо панк рок русский love femlove фемлав фем.лав лав femtochkalove 10007
BeatmapID:4030171
BeatmapSetID:1519340

[Difficulty]
HPDrainRate:3
CircleSize:3.5
OverallDifficulty:4
ApproachRate:5
SliderMultiplier:1.4
SliderTickRate:1

[Events]
//Background and Video events
0,0,"zxc.jpg",0,0
//Break Periods
2,45155,50866
//Storyboard Layer 0 (Background)
//Storyboard Layer 1 (Fail)
//Storyboard Layer 2 (Pass)
//Storyboard Layer 3 (Foreground)
//Storyboard Layer 4 (Overlay)
//Storyboard Sound Samples

[TimingPoints]
511,444.444444444444,4,2,1,30,1,0
511,-111.111111111111,4,2,1,30,0,0
955,-111.111111111111,4,2,1,35,0,0
1399,-111.111111111111,4,2,1,40,0,0
1844,-111.111111111111,4,2,1,45,0,0
2288,-111.111111111111,4,2,1,60,0,0
3177,-111.111111111111,4,2,1,50,0,0
4066,-111.111111111111,4,2,1,60,0,0
4955,-111.111111111111,4,2,1,50,0,0
5844,-111.111111111111,4,2,1,60,0,0
6733,-111.111111111111,4,2,1,50,0,0
7622,-111.111111111111,4,2,1,60,0,0
8955,-111.111111111111,4,2,1,65,0,0
9399,-100,4,2,1,75,0,1
23177,-100,4,2,2,80,0,1
23288,-100,4,2,1,80,0,1
23399,-100,4,2,2,80,0,1
23622,-125,4,2,1,50,0,0
26733,-111.111111111111,4,2,1,60,0,0
27177,-111.111111111111,4,2,1,65,0,0
37622,-111.111111111111,4,2,2,65,0,0
37844,454.545454545454,4,2,1,50,1,0
37844,-125,4,2,1,50,0,0
38298,450.281425891181,4,2,1,50,1,0
38298,-142.857142857143,4,2,1,50,0,0
40099,422.535211267605,4,2,1,50,1,0
40099,-142.857142857143,4,2,1,50,0,0
40521,445.765230312036,4,2,1,50,1,0
40966,465.116279069767,4,2,1,50,1,0
41431,452.830188679245,4,2,1,50,1,0
41431,-142.857142857143,4,2,1,50,0,0
41883,410.958904109589,4,2,1,50,1,0
41883,-142.857142857143,4,2,1,50,0,0
42293,454.545454545454,4,2,1,50,1,0
42293,-142.857142857143,4,2,1,50,0,0
43202,447.76119402985,4,2,1,50,1,0
43202,-142.857142857143,4,2,1,50,0,0
43649,419.580419580419,4,2,1,50,1,0
43649,-142.857142857143,4,2,1,50,0,0
44068,443.62292051756,4,2,1,50,1,0
44955,444.444444444444,4,2,1,30,1,0
44955,-125,4,2,1,55,0,0
55622,-111.111111111111,4,2,1,60,0,0
59177,-100,4,2,1,75,0,1
72954,-100,4,2,1,80,0,1
73399,-100,4,2,1,75,0,1
87177,-100,4,2,2,80,0,1
87399,-100,4,2,2,80,0,1
87621,-125,4,2,1,50,0,0
90732,-111.111111111111,4,2,1,60,0,0
91177,-111.111111111111,4,2,1,65,0,0
101399,-111.111111111111,4,2,1,75,0,0
101621,-111.111111111111,4,2,2,75,0,0
101843,-111.111111111111,4,2,1,70,0,0
115621,-111.111111111111,4,2,1,75,0,0
115843,-111.111111111111,4,2,2,75,0,0
116066,-125,4,2,1,60,0,0
116510,-125,4,2,1,30,0,0

[Colours]
Combo1 : 138,85,49
Combo2 : 128,128,128
Combo3 : 173,173,173
Combo4 : 3,87,133
SliderBorder : 225,225,225

[HitObjects]
355,366,511,6,0,B|298:361|298:361|284:349|284:349|233:345,2,125.999996154785,2|2|2,0:0|0:3|0:0,0:0:0:0:
489,272,1844,1,2,0:3:0:0:
356,175,2288,6,0,B|305:179|305:179|291:191|291:191|221:197,1,125.999996154785,14|14,1:0|1:0,0:0:0:0:
79,248,3177,1,2,0:3:0:0:
79,248,4066,38,0,P|29:217|29:147,1,125.999996154785,14|14,1:0|1:0,0:0:0:0:
113,16,4955,1,2,0:3:0:0:
113,16,5844,6,0,L|256:16,1,125.999996154785,14|14,1:0|1:0,0:0:0:0:
402,8,6733,1,2,0:3:0:0:
402,8,7622,38,0,B|405:44|405:44|395:67|395:67|408:86|408:86|413:142,1,125.999996154785,14|14,1:0|1:0,0:0:0:0:
437,210,8288,1,0,0:0:0:0:
437,210,8510,2,0,L|510:218,1,62.9999980773926,14|2,3:0|1:0,0:0:0:0:
498,299,8955,2,0,L|425:307,1,62.9999980773926,6|0,1:2|0:0,0:0:0:0:
377,366,9399,22,0,B|329:361|329:361|306:340|306:340|241:335,1,140,6|10,3:1|3:0,0:0:0:0:
166,330,10066,1,2,0:3:0:0:
166,330,10288,2,0,P|159:290|171:247,1,70,2|2,1:2|3:0,0:0:0:0:
229,207,10733,1,10,3:0:0:0:
229,207,10955,1,6,0:3:0:0:
216,124,11177,6,0,P|146:107|64:135,1,140,2|8,3:2|3:0,0:0:0:0:
9,164,11844,1,2,0:3:0:0:
9,164,12066,2,0,L|9:240,1,70,2|2,1:2|3:3,0:0:0:0:
4,317,12510,1,8,3:0:0:0:
162,373,12955,38,0,B|258:373|195:337|294:337,1,140,2|10,3:2|3:0,0:0:0:0:
380,349,13622,1,2,0:3:0:0:
380,349,13844,2,0,P|415:357|450:347,1,70,2|2,1:2|3:0,0:0:0:0:
506,288,14288,1,10,3:0:0:0:
506,288,14510,1,6,0:3:0:0:
449,225,14733,6,0,P|379:204|299:242,1,140,2|10,3:2|3:0,0:0:0:0:
240,250,15399,1,2,0:3:0:0:
240,250,15622,2,0,P|209:230|185:176,1,70,2|2,1:2|3:0,0:0:0:0:
158,125,16066,1,10,3:0:0:0:
272,2,16510,38,0,B|339:8|339:8|341:15|341:15|420:22,1,140,6|10,3:1|3:0,0:0:0:0:
494,35,17177,1,2,0:3:0:0:
494,35,17399,2,0,P|505:63|488:112,1,70,2|2,1:2|3:0,0:0:0:0:
451,172,17844,2,0,P|440:200|457:249,1,70,8|6,3:0|0:3,0:0:0:0:
469,319,18288,6,0,B|326:309,1,140,2|10,3:2|3:0,0:0:0:0:
278,248,18955,1,2,0:3:0:0:
278,248,19177,2,0,P|243:258|219:297,1,70,2|2,1:2|3:0,0:0:0:0:
198,364,19622,1,10,3:0:0:0:
39,308,20066,38,0,P|14:245|47:174,1,140,2|10,3:2|3:0,0:0:0:0:
69,104,20733,1,2,0:3:0:0:
69,104,20955,2,0,L|-6:96,1,70,2|2,1:2|3:0,0:0:0:0:
8,13,21399,2,0,L|83:21,1,70,10|6,3:0|0:3,0:0:0:0:
157,48,21844,6,0,P|173:114|133:185,1,140,2|10,3:2|3:0,0:0:0:0:
76,227,22510,1,2,0:3:0:0:
76,227,22733,2,0,P|101:250|143:261,1,70,14|14,3:0|3:0,0:0:0:0:
173,335,23177,2,0,P|207:328|235:308,1,70,10|10,3:0|3:0,0:0:0:0:
259,227,23622,6,0,P|260:178|304:303,1,672,2|2,0:0|0:3,0:0:0:0:
168,277,26733,6,0,P|140:269|98:280,1,62.9999980773926,8|2,3:0|3:0,0:0:0:0:
34,238,27177,38,0,L|27:165,1,62.9999980773926,6|2,3:1|0:3,0:0:0:0:
53,99,27622,1,8,3:2:0:0:
53,99,27844,2,0,P|114:122|179:86,1,125.999996154785,2|2,1:2|0:3,0:0:0:0:
222,39,28510,1,10,3:0:0:0:
351,141,28955,6,0,L|333:221,1,62.9999980773926,2|2,3:2|0:3,0:0:0:0:
337,288,29399,1,8,3:2:0:0:
337,288,29622,2,0,P|390:310|461:279,1,125.999996154785,2|2,1:2|0:3,0:0:0:0:
502,224,30288,1,10,3:0:0:0:
502,224,30510,1,10,3:0:0:0:
510,142,30733,38,0,B|507:116|507:116|504:110|504:110|500:73,1,62.9999980773926,6|2,3:2|0:3,0:0:0:0:
464,12,31177,1,8,3:2:0:0:
464,12,31399,2,0,L|325:4,1,125.999996154785,2|2,1:2|0:3,0:0:0:0:
256,4,32066,1,10,3:0:0:0:
93,22,32510,6,0,P|86:50|100:95,1,62.9999980773926,2|2,3:2|0:3,0:0:0:0:
136,159,32955,1,8,3:2:0:0:
136,159,33177,2,0,P|193:182|266:140,1,125.999996154785,2|2,1:2|0:3,0:0:0:0:
300,94,33844,2,0,P|332:86|370:99,1,62.9999980773926,10|2,3:0|1:3,0:0:0:0:
441,105,34288,38,0,L|451:189,1,62.9999980773926,2|2,3:2|0:3,0:0:0:0:
492,236,34733,2,0,L|482:320,1,62.9999980773926,8|2,3:2|1:3,0:0:0:0:
444,369,35177,2,0,B|361:369|411:333|312:333,1,125.999996154785,2|8,3:2|3:2,0:0:0:0:
248,327,35844,1,2,1:3:0:0:
248,327,36066,6,0,P|214:327|181:345,1,62.9999980773926,10|2,3:2|1:3,0:0:0:0:
114,375,36510,1,14,3:0:0:0:
12,246,36955,2,0,P|4:217|26:169,1,62.9999980773926,10|14,3:2|3:0,0:0:0:0:
61,120,37399,2,0,P|90:112|138:133,1,62.9999980773926,14|14,3:0|3:0,0:0:0:0:
195,158,37844,37,2,0:0:0:0:
256,192,38298,12,2,44955,0:0:0:0:
256,192,52066,12,2,54732,0:0:0:0:
368,19,55622,6,0,L|300:34,1,62.9999980773926,2|2,1:2|0:3,0:0:0:0:
224,34,56066,2,0,L|162:20,1,62.9999980773926,2|2,0:0|3:0,0:0:0:0:
81,7,56510,1,8,1:1:0:0:
81,7,57399,38,0,P|73:35|85:75,1,62.9999980773926,2|0,1:3|0:0,0:0:0:0:
148,112,57844,2,0,P|156:140|144:180,1,62.9999980773926,2|0,1:3|0:0,0:0:0:0:
101,240,58288,1,2,3:1:0:0:
101,240,58510,1,2,3:0:0:0:
128,317,58733,2,0,L|198:324,1,62.9999980773926,14|2,3:0|3:1,0:0:0:0:
274,322,59177,22,0,P|303:262|257:188,1,140,6|10,3:1|3:0,0:0:0:0:
244,126,59844,1,2,0:3:0:0:
244,126,60066,2,0,L|321:113,1,70,2|2,1:2|3:0,0:0:0:0:
388,73,60510,1,10,3:0:0:0:
388,73,60733,1,6,0:3:0:0:
454,124,60955,6,0,B|464:272,1,140,2|10,3:2|3:0,0:0:0:0:
441,347,61622,1,2,0:3:0:0:
441,347,61844,2,0,B|411:349|411:349|408:353|408:353|357:358,1,70,2|2,1:2|3:0,0:0:0:0:
292,378,62288,1,10,3:0:0:0:
124,362,62733,38,0,P|82:315|128:265,1,140,2|10,3:2|3:0,0:0:0:0:
112,186,63399,1,2,0:3:0:0:
112,186,63622,2,0,P|78:196|33:178,1,70,2|2,1:2|3:0,0:0:0:0:
13,115,64066,1,10,3:0:0:0:
13,115,64288,1,6,0:3:0:0:
49,39,64510,6,0,P|112:19|197:49,1,140,2|10,3:2|3:0,0:0:0:0:
264,70,65177,1,2,0:3:0:0:
264,70,65399,2,0,P|274:99|259:146,1,70,2|2,1:2|3:0,0:0:0:0:
201,190,65844,1,10,3:0:0:0:
286,334,66288,38,0,B|330:337|330:337|355:329|355:329|375:342|375:342|431:347,1,140,6|10,3:1|3:0,0:0:0:0:
492,299,66955,1,2,0:3:0:0:
492,299,67177,2,0,L|503:218,1,70,2|2,1:2|3:0,0:0:0:0:
507,145,67622,2,0,L|499:70,1,70,10|6,3:0|0:3,0:0:0:0:
462,0,68066,6,0,B|366:0|429:36|330:36,1,140,2|10,3:2|3:0,0:0:0:0:
256,69,68733,1,2,0:3:0:0:
256,69,68955,2,0,P|222:76|169:61,1,70,2|2,1:2|3:0,0:0:0:0:
137,2,69399,1,10,3:0:0:0:
6,108,69844,38,0,L|6:253,1,140,2|10,3:2|3:0,0:0:0:0:
68,311,70510,1,2,0:3:0:0:
68,311,70733,2,0,P|106:311|143:290,1,70,2|2,1:2|3:0,0:0:0:0:
193,238,71177,2,0,P|231:237|268:259,1,70,10|6,3:0|0:3,0:0:0:0:
332,292,71622,6,0,P|392:272|392:187,1,140,2|10,3:2|3:0,0:0:0:0:
357,138,72288,1,2,0:3:0:0:
357,138,72510,2,0,B|328:140|328:140|319:146|319:146|282:149,1,70,2|2,1:2|1:3,0:0:0:0:
205,156,72955,1,10,3:0:0:0:
288,10,73399,38,0,B|317:12|317:12|326:18|326:18|363:21,1,70,6|6,3:1|0:3,0:0:0:0:
443,14,73844,1,10,3:0:0:0:
443,14,74066,2,0,P|499:63|499:141,1,140,6|6,0:3|3:0,0:0:0:0:
465,202,74733,1,10,3:0:0:0:
465,202,74955,1,6,1:3:0:0:
395,248,75177,6,0,B|345:243|345:243|316:222|316:222|263:217,1,140,2|10,3:2|3:0,0:0:0:0:
193,179,75844,1,6,0:3:0:0:
193,179,76066,2,0,P|159:173|108:186,1,70,2|6,1:2|3:0,0:0:0:0:
123,262,76510,2,0,P|157:268|208:255,1,70,10|6,3:0|1:3,0:0:0:0:
262,217,76955,38,0,B|315:221|315:221|344:243|344:243|393:247,1,140,2|10,3:2|3:0,0:0:0:0:
465,302,77622,1,6,0:3:0:0:
465,302,77844,2,0,P|479:274|481:232,1,70,2|6,1:2|3:0,0:0:0:0:
487,152,78288,1,10,3:0:0:0:
406,4,78733,6,0,L|266:13,1,140,2|10,3:2|3:0,0:0:0:0:
192,48,79399,1,6,0:3:0:0:
192,48,79622,2,0,B|194:79|194:79|199:84|199:84|203:128,1,70,2|6,1:2|3:0,0:0:0:0:
249,192,80066,1,10,3:0:0:0:
249,192,80288,1,14,3:0:0:0:
205,263,80510,38,0,P|172:272|121:252,1,70,6|6,3:1|0:3,0:0:0:0:
58,252,80955,1,10,3:0:0:0:
58,252,81177,2,0,L|58:102,1,140,6|6,0:3|3:0,0:0:0:0:
21,41,81844,1,10,3:0:0:0:
21,41,82066,1,6,1:3:0:0:
97,6,82288,6,0,B|155:11|155:11|167:28|167:28|250:35,1,140,2|10,3:2|3:0,0:0:0:0:
315,38,82955,1,6,0:3:0:0:
315,38,83177,2,0,L|404:31,1,70,2|6,1:2|3:0,0:0:0:0:
388,117,83622,2,0,L|318:122,1,70,10|6,3:0|1:3,0:0:0:0:
234,113,84066,38,0,P|203:168|240:236,1,140,2|10,3:2|3:0,0:0:0:0:
290,302,84733,1,6,0:3:0:0:
290,302,84955,2,0,P|320:318|368:318,1,70,2|6,1:2|3:0,0:0:0:0:
439,314,85399,1,10,3:0:0:0:
412,148,85844,6,0,B|381:150|381:150|371:158|371:158|344:160,2,70,2|6|10,3:2|0:3|3:0,0:0:0:0:
409,68,86510,1,6,0:3:0:0:
409,68,86733,2,0,B|382:66|382:66|372:58|372:58|341:56,1,70,10|10,3:2|3:2,0:0:0:0:
258,56,87177,2,0,B|227:58|227:58|217:66|217:66|190:68,1,70,14|14,3:0|3:0,0:0:0:0:
108,81,87621,6,0,P|61:110|310:188,1,672,2|2,0:0|0:3,0:0:0:0:
354,48,90733,6,0,P|385:40|420:48,1,62.9999980773926,8|2,3:0|0:3,0:0:0:0:
475,101,91177,38,0,L|481:237,1,125.999996154785,6|8,3:1|3:2,0:0:0:0:
451,303,91844,2,0,P|396:282|328:311,1,125.999996154785,2|2,1:2|0:3,0:0:0:0:
286,369,92510,1,10,3:0:0:0:
177,246,92955,6,0,B|151:243|151:243|144:237|144:237|101:233,2,62.9999980773926,2|2|8,3:2|0:3|3:2,0:0:0:0:
225,179,93622,2,0,B|276:174|276:174|301:152|301:152|343:148,1,125.999996154785,2|2,1:2|0:3,0:0:0:0:
424,146,94288,1,10,3:0:0:0:
424,146,94510,1,14,3:0:0:0:
456,70,94733,38,0,P|432:18|362:18,1,125.999996154785,6|8,3:2|3:2,0:0:0:0:
288,25,95399,2,0,B|253:31|253:31|228:46|228:46|204:39|204:39|158:47,1,125.999996154785,2|2,1:2|0:3,0:0:0:0:
90,72,96066,1,10,3:0:0:0:
11,215,96510,6,0,P|4:245|17:285,2,62.9999980773926,2|2|8,3:2|0:3|3:2,0:0:0:0:
78,167,97177,2,0,P|131:145|193:167,1,125.999996154785,2|2,1:2|0:3,0:0:0:0:
255,229,97844,1,10,3:0:0:0:
255,229,98066,1,6,3:0:0:0:
309,289,98288,38,0,P|340:295|377:285,1,62.9999980773926,2|2,3:2|0:3,0:0:0:0:
393,209,98733,2,0,P|424:202|461:212,1,62.9999980773926,8|2,3:2|3:0,0:0:0:0:
507,270,99177,2,0,L|512:145,1,125.999996154785,2|8,3:2|3:2,0:0:0:0:
491,69,99844,1,2,3:0:0:0:
491,69,100066,6,0,P|464:56|421:55,1,62.9999980773926,10|2,3:2|3:0,0:0:0:0:
350,63,100510,1,14,3:0:0:0:
190,100,100955,2,0,P|176:127|176:170,1,62.9999980773926,10|10,3:2|3:2,0:0:0:0:
194,242,101399,1,14,3:0:0:0:
194,242,101622,1,14,3:0:0:0:
160,316,101844,38,0,B|136:314|136:314|124:309|124:309|98:307,1,62.9999980773926,6|6,3:1|3:0,0:0:0:0:
31,270,102288,1,8,3:2:0:0:
31,270,102510,2,0,P|13:212|34:139,1,125.999996154785,6|6,1:3|3:0,0:0:0:0:
67,78,103177,1,10,3:0:0:0:
215,9,103622,6,0,B|269:13|269:13|276:21|276:21|349:27,1,125.999996154785,2|8,3:2|3:2,0:0:0:0:
418,19,104288,2,0,P|476:48|455:101,1,125.999996154785,6|6,1:3|3:0,0:0:0:0:
406,157,104955,1,10,3:0:0:0:
406,157,105177,1,6,1:3:0:0:
337,201,105399,38,0,P|307:207|265:197,1,62.9999980773926,2|6,3:2|3:0,0:0:0:0:
207,165,105844,1,8,3:2:0:0:
207,165,106066,2,0,B|178:167|178:167|163:183|163:183|88:190,1,125.999996154785,6|6,1:3|3:0,0:0:0:0:
10,201,106733,1,10,3:0:0:0:
87,345,107177,6,0,P|139:365|221:327,1,125.999996154785,2|8,3:2|3:2,0:0:0:0:
273,300,107844,2,0,B|276:262|276:262|267:239|267:239|280:217|280:217|286:158,1,125.999996154785,6|6,1:3|3:0,0:0:0:0:
277,102,108510,1,10,3:0:0:0:
277,102,108733,1,14,3:0:0:0:
326,37,108955,38,0,B|352:39|352:39|359:44|359:44|402:48,1,62.9999980773926,6|6,3:2|3:0,0:0:0:0:
471,37,109399,1,8,3:2:0:0:
471,37,109622,2,0,P|511:77|511:146,1,125.999996154785,6|6,1:3|3:0,0:0:0:0:
484,220,110288,1,10,3:0:0:0:
401,362,110733,6,0,P|338:362|270:318,1,125.999996154785,2|8,3:2|3:2,0:0:0:0:
219,281,111399,2,0,B|221:248|221:248|231:240|231:240|240:142,1,125.999996154785,6|6,1:3|3:0,0:0:0:0:
264,84,112066,1,10,3:0:0:0:
264,84,112288,1,6,1:3:0:0:
203,28,112510,38,0,B|174:30|174:30|168:36|168:36|143:38,1,62.9999980773926,2|6,3:2|3:0,0:0:0:0:
63,58,112955,1,8,3:2:0:0:
0,209,113399,2,0,P|0:239|21:277,1,62.9999980773926,2|6,3:2|3:0,0:0:0:0:
95,269,113844,2,0,P|108:240|108:209,1,62.9999980773926,8|6,3:2|3:0,0:0:0:0:
127,129,114288,6,0,B|160:126|205:143|166:151|212:171|257:168,1,125.999996154785,10|14,3:2|3:0,0:0:0:0:
328,171,114955,1,6,1:3:0:0:
328,171,115177,2,0,L|318:251,1,62.9999980773926,10|10,3:2|3:2,0:0:0:0:
251,278,115622,2,0,L|261:358,1,62.9999980773926,14|14,3:0|3:0,0:0:0:0:
334,378,116066,38,0,B|377:374|377:374|392:356|392:356|437:353,1,112,6|2,3:2|0:3,0:0:0:0:
