osu file format v14

[General]
AudioFilename: audio.mp3
AudioLeadIn: 0
PreviewTime: 59177
Countdown: 0
SampleSet: Soft
StackLeniency: 0.3
Mode: 0
LetterboxInBreaks: 0
WidescreenStoryboard: 1

[Editor]
DistanceSpacing: 1.8
BeatDivisor: 4
GridSize: 8
TimelineZoom: 2.699999

[Metadata]
Title:1000-7
TitleUnicode:1000-7
Artist:fem.love
ArtistUnicode:fem.love
Creator:619
Version:hard
Source:
Tags:emo punk russian rock эмо панк рок русский love femlove фемлав фем.лав лав femtochkalove 10007
BeatmapID:4030170
BeatmapSetID:1519340

[Difficulty]
HPDrainRate:4
CircleSize:3.8
OverallDifficulty:6
ApproachRate:7.5
SliderMultiplier:1.6
SliderTickRate:1

[Events]
//Background and Video events
0,0,"zxc.jpg",0,0
//Break Periods
2,44955,51241
//Storyboard Layer 0 (Background)
//Storyboard Layer 1 (Fail)
//Storyboard Layer 2 (Pass)
//Storyboard Layer 3 (Foreground)
//Storyboard Layer 4 (Overlay)
//Storyboard Sound Samples

[TimingPoints]
511,444.444444444444,4,2,1,30,1,0
511,-125,4,2,1,30,0,0
955,-125,4,2,1,35,0,0
1399,-125,4,2,1,40,0,0
1844,-125,4,2,1,45,0,0
2288,-111.111111111111,4,2,1,60,0,0
2622,-111.111111111111,4,2,1,5,0,0
2733,-111.111111111111,4,2,1,60,0,0
3066,-111.111111111111,4,2,1,5,0,0
3177,-111.111111111111,4,2,1,50,0,0
4066,-111.111111111111,4,2,1,60,0,0
4399,-111.111111111111,4,2,1,5,0,0
4510,-111.111111111111,4,2,1,60,0,0
4844,-111.111111111111,4,2,1,5,0,0
4955,-111.111111111111,4,2,1,50,0,0
5844,-111.111111111111,4,2,1,60,0,0
6177,-111.111111111111,4,2,1,5,0,0
6288,-111.111111111111,4,2,1,60,0,0
6622,-111.111111111111,4,2,1,5,0,0
6733,-111.111111111111,4,2,1,50,0,0
7622,-111.111111111111,4,2,1,60,0,0
7955,-111.111111111111,4,2,1,5,0,0
8066,-111.111111111111,4,2,1,60,0,0
8399,-111.111111111111,4,2,1,5,0,0
8510,-111.111111111111,4,2,1,60,0,0
8955,-90.9090909090909,4,2,1,65,0,0
9288,-90.9090909090909,4,2,1,5,0,0
9399,-100,4,2,1,75,0,1
9733,-100,4,2,1,5,0,1
9844,-100,4,2,1,75,0,1
11510,-100,4,2,1,5,0,1
11622,-100,4,2,1,75,0,1
16844,-100,4,2,1,5,0,1
16955,-100,4,2,1,75,0,1
18622,-100,4,2,1,5,0,1
18733,-100,4,2,1,75,0,1
23177,-100,4,2,2,80,0,1
23288,-100,4,2,1,80,0,1
23399,-100,4,2,2,80,0,1
23510,-100,4,2,1,80,0,1
23622,-333.333333333333,4,2,1,50,0,0
26733,-125,4,2,1,60,0,0
27177,-111.111111111111,4,2,1,65,0,0
37622,-111.111111111111,4,2,2,65,0,0
37733,-111.111111111111,4,2,1,65,0,0
37844,454.545454545454,4,2,1,50,1,0
37844,-133.333333333333,4,2,1,50,0,0
38298,450.281425891181,4,2,1,50,1,0
38298,-133.333333333333,4,2,1,50,0,0
40099,422.535211267605,4,2,1,50,1,0
40099,-133.333333333333,4,2,1,50,0,0
40521,445.765230312036,4,2,1,50,1,0
40966,465.116279069767,4,2,1,50,1,0
41431,452.830188679245,4,2,1,50,1,0
41431,-133.333333333333,4,2,1,50,0,0
41883,410.958904109589,4,2,1,50,1,0
41883,-133.333333333333,4,2,1,50,0,0
42293,454.545454545454,4,2,1,50,1,0
43202,447.76119402985,4,2,1,50,1,0
43202,-133.333333333333,4,2,1,50,0,0
43649,419.580419580419,4,2,1,50,1,0
43649,-133.333333333333,4,2,1,50,0,0
44068,443.62292051756,4,2,1,50,1,0
44955,444.444444444444,4,2,1,30,1,0
44955,-125,4,2,1,55,0,0
55622,-111.111111111111,4,2,1,60,0,0
59177,-99.9999999999999,4,2,1,75,0,1
63066,-99.9999999999999,4,2,1,5,0,1
63177,-99.9999999999999,4,2,1,75,0,1
64843,-99.9999999999999,4,2,1,5,0,1
64954,-99.9999999999999,4,2,1,75,0,1
70177,-99.9999999999999,4,2,1,5,0,1
70288,-99.9999999999999,4,2,1,75,0,1
72954,-99.9999999999999,4,2,1,80,0,1
73177,-99.9999999999999,4,2,2,80,0,1
73288,-99.9999999999999,4,2,1,80,0,1
73399,-99.9999999999999,4,2,1,75,0,1
75510,-99.9999999999999,4,2,1,5,0,1
75621,-99.9999999999999,4,2,1,75,0,1
77288,-99.9999999999999,4,2,1,5,0,1
77399,-99.9999999999999,4,2,1,75,0,1
82621,-99.9999999999999,4,2,1,5,0,1
82732,-99.9999999999999,4,2,1,75,0,1
84399,-99.9999999999999,4,2,1,5,0,1
84510,-99.9999999999999,4,2,1,75,0,1
87177,-99.9999999999999,4,2,2,80,0,1
87288,-99.9999999999999,4,2,1,80,0,1
87399,-99.9999999999999,4,2,2,80,0,1
87510,-99.9999999999999,4,2,1,80,0,1
87621,-333.333333333333,4,2,1,50,0,0
90732,-125,4,2,1,60,0,0
91177,-111.111111111111,4,2,1,65,0,0
101399,-111.111111111111,4,2,1,75,0,0
101621,-111.111111111111,4,2,2,75,0,0
101732,-111.111111111111,4,2,1,75,0,0
101843,-111.111111111111,4,2,1,70,0,0
115621,-111.111111111111,4,2,1,75,0,0
115843,-111.111111111111,4,2,2,75,0,0
115954,-111.111111111111,4,2,1,75,0,0
116066,-133.333333333333,4,2,1,60,0,0
116510,-133.333333333333,4,2,1,30,0,0

[Colours]
Combo1 : 138,85,49
Combo2 : 128,128,128
Combo3 : 173,173,173
Combo4 : 3,87,133
SliderBorder : 225,225,225

[HitObjects]
290,279,511,5,2,0:0:0:0:
214,230,955,1,2,0:3:0:0:
218,140,1399,1,2,0:0:0:0:
284,79,1844,1,2,0:3:0:0:
374,35,2288,6,0,B|404:35|435:49|413:61|437:74|476:74,1,107.999996704102,14|0,1:0|0:0,0:0:0:0:
494,64,2733,2,0,P|477:123|516:181,1,107.999996704102,14|0,1:0|0:0,0:0:0:0:
509,184,3177,2,0,P|442:202|367:182,1,143.999995605469,2|2,0:3|0:0,0:0:0:0:
218,102,4066,38,0,P|155:114|155:178,1,107.999996704102,14|0,1:0|0:0,0:0:0:0:
154,172,4510,2,0,P|173:228|154:270,1,107.999996704102,14|0,1:0|0:0,0:0:0:0:
151,295,4955,2,0,B|207:299|207:299|230:320|230:320|307:327,1,143.999995605469,2|2,0:3|0:0,0:0:0:0:
457,352,5844,6,0,P|503:334|476:289,1,107.999996704102,14|0,1:0|0:0,0:0:0:0:
461,279,6288,2,0,P|443:234|476:162,1,107.999996704102,14|0,1:0|0:0,0:0:0:0:
471,156,6733,2,0,B|478:139|500:129|500:129|376:123,1,143.999995605469,2|2,0:3|0:0,0:0:0:0:
224,137,7622,38,0,L|237:255,1,107.999996704102,14|0,1:0|0:0,0:0:0:0:
239,269,8066,2,0,P|194:288|132:262,1,107.999996704102,14|0,1:0|0:0,0:0:0:0:
124,250,8510,1,14,3:0:0:0:
56,304,8733,1,2,1:0:0:0:
0,214,8955,6,0,B|3:170|3:170|14:161|14:161|21:84,1,132.00000402832,6|0,1:2|0:0,0:0:0:0:
16,48,9399,6,0,P|75:67|142:34,1,120,6|0,3:1|0:0,0:0:0:0:
154,37,9844,2,0,P|195:29|240:41,1,80,10|2,3:0|0:3,0:0:0:0:
323,86,10288,1,2,1:2:0:0:
409,29,10510,1,2,3:0:0:0:
487,97,10733,2,0,P|497:136|486:178,1,80,10|6,3:0|0:3,0:0:0:0:
424,302,11177,6,0,P|371:321|301:292,1,120,2|0,3:2|0:0,0:0:0:0:
298,277,11622,2,0,P|257:269|212:281,1,80,8|2,3:0|0:3,0:0:0:0:
132,333,12066,1,2,1:2:0:0:
45,275,12288,1,2,3:3:0:0:
105,190,12510,2,0,P|146:182|191:194,1,80,8|2,3:0|0:3,0:0:0:0:
298,277,12955,38,0,P|325:201|302:112,1,160,2|10,3:2|3:0,0:0:0:0:
240,47,13622,1,2,0:3:0:0:
146,1,13844,2,0,B|111:7|111:7|105:12|105:12|57:20,1,80,2|2,1:2|3:0,0:0:0:0:
3,99,14288,2,0,B|36:104|36:104|42:110|42:110|90:118,1,80,10|6,3:0|0:3,0:0:0:0:
211,176,14733,6,0,B|324:156|230:127|364:104,1,160,2|10,3:2|3:0,0:0:0:0:
449,78,15399,1,2,0:3:0:0:
512,160,15622,2,0,P|521:197|504:252,1,80,2|2,1:2|3:0,0:0:0:0:
476,334,16066,1,10,3:0:0:0:
384,259,16288,1,14,3:0:0:0:
384,259,16399,1,2,1:0:0:0:
384,259,16510,38,0,B|346:265|346:265|339:281|339:281|265:294,1,120,6|0,3:1|0:0,0:0:0:0:
247,293,16955,2,0,B|218:288|218:288|212:276|212:276|156:266,1,80,10|2,3:0|0:3,0:0:0:0:
98,200,17399,1,2,1:2:0:0:
44,289,17622,1,2,3:0:0:0:
1,194,17844,2,0,P|-7:151|2:113,1,80,10|6,3:0|0:3,0:0:0:0:
93,5,18288,6,0,P|146:-6|230:14,1,120,2|0,3:2|0:0,0:0:0:0:
233,20,18733,2,0,P|240:58|232:97,1,80,10|2,3:0|0:3,0:0:0:0:
165,178,19177,1,2,1:2:0:0:
77,122,19399,1,2,3:0:0:0:
1,194,19622,2,0,P|-7:237|2:275,1,80,10|2,3:0|0:3,0:0:0:0:
97,378,20066,38,0,B|160:366|160:366|185:336|185:336|257:323,1,160,2|10,3:2|3:0,0:0:0:0:
300,240,20733,1,2,0:3:0:0:
392,286,20955,2,0,P|399:322|390:369,1,80,2|2,1:2|3:0,0:0:0:0:
495,364,21399,2,0,P|487:324|494:285,1,80,10|6,3:0|0:3,0:0:0:0:
511,142,21844,6,0,P|446:103|373:167,1,160,2|10,3:2|3:0,0:0:0:0:
300,240,22510,1,2,0:3:0:0:
189,174,22733,2,0,L|178:120,3,40,14|2|14|2,3:0|0:1|3:0|0:1,0:0:0:0:
183,107,23177,2,0,L|194:53,3,40,10|2|10|2,3:0|1:0|3:0|1:0,0:0:0:0:
194,45,23622,6,0,P|66:38|66:176,1,287.999991210938,2|2,0:0|0:3,0:0:0:0:
180,262,26733,6,0,L|248:274,1,64,8|2,3:0|3:0,0:0:0:0:
358,276,27177,38,0,P|367:242|347:192,1,71.9999978027344,6|2,3:1|0:3,0:0:0:0:
304,139,27622,1,8,3:2:0:0:
366,79,27844,2,0,P|402:46|483:84,1,143.999995605469,2|2,1:2|0:3,0:0:0:0:
505,161,28510,2,0,L|513:247,1,71.9999978027344,10|2,3:0|1:3,0:0:0:0:
501,318,28955,6,0,P|468:329|429:315,1,71.9999978027344,2|2,3:2|0:3,0:0:0:0:
358,276,29399,1,8,3:2:0:0:
307,205,29622,2,0,P|224:179|173:215,1,143.999995605469,2|2,1:2|0:3,0:0:0:0:
128,275,30288,1,10,3:0:0:0:
34,227,30510,1,10,3:0:0:0:
34,227,30622,1,2,0:1:0:0:
34,227,30733,38,0,B|31:199|31:199|26:191|26:191|22:142,1,71.9999978027344,6|2,3:2|0:3,0:0:0:0:
3,72,31177,1,8,3:2:0:0:
53,1,31399,2,0,B|96:7|96:7|109:22|109:22|190:37,1,143.999995605469,2|2,1:2|0:3,0:0:0:0:
275,42,32066,2,0,P|284:80|269:122,1,71.9999978027344,10|2,3:0|1:3,0:0:0:0:
196,145,32510,6,0,P|187:183|202:225,1,71.9999978027344,2|2,3:2|0:3,0:0:0:0:
237,289,32955,1,8,3:2:0:0:
282,362,33177,2,0,B|331:353|331:353|349:339|349:339|372:347|372:347|431:336,1,143.999995605469,2|2,1:2|0:3,0:0:0:0:
482,280,33844,1,10,3:0:0:0:
414,227,34066,1,2,1:3:0:0:
442,115,34288,38,0,P|479:108|515:116,2,71.9999978027344,2|2|8,3:2|0:3|3:2,0:0:0:0:
368,163,34955,1,2,1:3:0:0:
296,116,35177,2,0,L|285:30,1,71.9999978027344,2|2,3:2|0:3,0:0:0:0:
200,44,35622,2,0,L|190:115,1,71.9999978027344,8|2,3:2|1:3,0:0:0:0:
209,228,36066,6,0,P|243:236|285:225,1,71.9999978027344,10|2,3:2|1:3,0:0:0:0:
280,343,36510,2,0,P|246:335|204:346,1,71.9999978027344,14|2,3:0|3:0,0:0:0:0:
100,377,36955,1,10,3:2:0:0:
13,317,37177,1,14,3:0:0:0:
13,317,37288,1,2,0:1:0:0:
13,317,37399,2,0,P|10:296|22:258,3,35.9999989013672,14|2|14|2,3:0|1:0|3:0|1:0,0:0:0:0:
25,261,37844,38,0,P|33:233|17:193,1,60.0000022888184,2|2,0:0|0:3,0:0:0:0:
5,127,38298,2,0,P|-3:99|13:59,1,60.0000022888184,2|2,0:0|0:3,0:0:0:0:
73,3,38748,5,8,0:1:0:0:
73,3,39648,38,0,B|97:5|97:5|103:8|103:8|140:11,1,60.0000022888184,2|2,0:0|0:3,0:0:0:0:
187,74,40099,2,0,B|215:71|215:71|220:68|220:68|245:65,1,60.0000022888184,2|2,0:0|0:3,0:0:0:0:
365,41,40521,5,8,0:1:0:0:
365,41,41431,38,0,P|373:73|358:108,1,60.0000022888184,2|2,0:0|0:3,0:0:0:0:
300,154,41883,2,0,P|292:186|307:221,1,60.0000022888184,2|2,0:0|0:3,0:0:0:0:
347,316,42293,5,8,0:1:0:0:
347,316,43202,38,0,L|262:334,1,60.0000022888184,2|2,0:0|0:3,0:0:0:0:
185,330,43649,2,0,L|126:317,1,60.0000022888184,2|2,0:0|0:3,0:0:0:0:
24,251,44068,5,8,0:1:0:0:
256,192,52066,12,2,55177,0:0:0:0:
149,15,55622,38,0,B|183:17|183:17|187:22|187:22|231:26,1,71.9999978027344,2|2,1:2|0:3,0:0:0:0:
248,113,56066,2,0,B|282:110|282:110|286:105|286:105|330:101,1,71.9999978027344,2|2,0:0|3:0,0:0:0:0:
409,86,56510,1,8,1:1:0:0:
409,86,57399,6,0,L|414:10,1,71.9999978027344,2|0,1:3|0:0,0:0:0:0:
507,14,57844,2,0,L|511:85,1,71.9999978027344,2|0,1:3|0:0,0:0:0:0:
495,199,58288,2,0,P|462:207|419:195,1,71.9999978027344,2|2,3:1|3:0,0:0:0:0:
326,138,58733,1,14,3:0:0:0:
237,211,58955,1,2,3:1:0:0:
125,149,59177,6,0,B|132:56,1,80,6|2,3:1|0:3,0:0:0:0:
26,68,59622,2,0,B|32:147,1,80,10|2,3:0|0:3,0:0:0:0:
79,240,60066,1,2,1:2:0:0:
0,307,60288,1,2,3:0:0:0:
87,363,60510,2,0,L|178:360,1,80,10|6,3:0|0:3,0:0:0:0:
288,282,60955,6,0,P|300:248|281:201,1,80,2|2,3:2|0:3,0:0:0:0:
189,170,61399,2,0,P|177:136|196:89,1,80,10|2,3:0|0:3,0:0:0:0:
247,8,61844,1,2,1:2:0:0:
306,93,62066,1,2,3:0:0:0:
362,5,62288,2,0,P|401:-6|450:13,1,80,10|2,3:0|0:3,0:0:0:0:
512,127,62733,38,0,L|521:249,1,120,2|0,3:2|0:0,0:0:0:0:
507,271,63177,2,0,P|470:282|427:268,1,80,10|2,3:0|0:3,0:0:0:0:
339,220,63622,1,2,1:2:0:0:
266,294,63844,1,2,3:0:0:0:
181,234,64066,2,0,B|174:152,1,80,10|6,3:0|0:3,0:0:0:0:
141,14,64510,6,0,P|83:-1|25:14,1,120,2|0,3:2|0:0,0:0:0:0:
5,33,64955,2,0,P|-7:71|10:120,1,80,10|2,3:0|0:3,0:0:0:0:
77,180,65399,1,2,1:2:0:0:
3,253,65622,1,2,3:0:0:0:
59,340,65844,2,0,P|99:351|143:335,1,80,10|14,3:0|3:0,0:0:0:0:
164,333,66177,1,2,1:0:0:0:
164,333,66288,38,0,L|172:243,1,80,6|2,3:1|0:3,0:0:0:0:
215,158,66733,1,10,3:0:0:0:
131,95,66955,1,2,0:3:0:0:
190,10,67177,2,0,P|228:2|289:21,1,80,2|2,1:2|3:0,0:0:0:0:
339,85,67622,1,10,3:0:0:0:
415,15,67844,1,6,0:3:0:0:
508,125,68066,6,0,P|520:164|497:222,1,80,2|2,3:2|0:3,0:0:0:0:
477,299,68510,2,0,P|439:309|389:291,1,80,10|2,3:0|0:3,0:0:0:0:
320,232,68955,1,2,1:2:0:0:
271,323,69177,1,2,3:0:0:0:
188,259,69399,2,0,P|179:221|193:176,1,80,10|2,3:0|0:3,0:0:0:0:
261,56,69844,38,0,P|216:16|148:6,1,120,2|0,3:2|0:0,0:0:0:0:
130,7,70288,2,0,P|88:19|63:47,1,80,10|2,3:0|0:3,0:0:0:0:
0,128,70733,1,2,1:2:0:0:
61,211,70955,1,2,3:0:0:0:
135,138,71177,2,0,B|169:141|169:141|176:149|176:149|215:153,1,80,10|6,3:0|0:3,0:0:0:0:
352,121,71622,6,0,P|361:159|349:202,1,80,2|2,3:2|0:3,0:0:0:0:
232,244,72066,2,0,P|223:282|235:325,1,80,10|2,3:0|0:3,0:0:0:0:
347,378,72510,1,2,1:2:0:0:
472,335,72733,1,2,1:3:0:0:
472,335,72844,1,2,0:1:0:0:
472,335,72955,2,0,P|480:319|480:287,3,40,10|2|14|2,3:0|1:0|3:0|1:0,0:0:0:0:
478,269,73399,38,0,B|456:176,1,80,6|6,3:1|0:3,0:0:0:0:
370,123,73844,1,10,3:0:0:0:
434,31,74066,2,0,P|473:22|516:34,2,80,6|2|6,0:3|1:2|3:0,0:0:0:0:
370,123,74733,1,10,3:0:0:0:
301,34,74955,1,6,1:3:0:0:
171,125,75177,6,0,P|149:172|190:247,1,120,2|0,3:2|0:0,0:0:0:0:
185,257,75622,2,0,P|146:267|100:254,1,80,10|6,3:0|0:3,0:0:0:0:
10,203,76066,1,2,1:2:0:0:
79,117,76288,1,6,3:0:0:0:
25,18,76510,2,0,P|66:4|120:12,1,80,10|6,3:0|1:3,0:0:0:0:
261,22,76955,38,0,B|293:22|329:38|294:54|332:69|365:69,1,120,2|0,3:2|0:0,0:0:0:0:
383,51,77399,2,0,L|388:134,1,80,10|6,3:0|0:3,0:0:0:0:
339,232,77844,1,2,1:2:0:0:
431,295,78066,1,6,3:0:0:0:
345,366,78288,2,0,P|308:378|258:356,1,80,10|6,3:0|1:3,0:0:0:0:
113,330,78733,6,0,B|116:293|116:293|119:289|119:289|123:251,1,80,2|6,3:2|0:3,0:0:0:0:
178,153,79177,1,10,3:0:0:0:
94,79,79399,1,6,0:3:0:0:
184,11,79622,2,0,L|268:7,1,80,2|6,1:2|3:0,0:0:0:0:
375,4,80066,1,10,3:0:0:0:
488,82,80288,1,14,3:0:0:0:
488,82,80399,1,2,1:0:0:0:
488,82,80510,38,0,P|499:119|479:172,1,80,6|6,3:1|0:3,0:0:0:0:
397,223,80955,1,10,3:0:0:0:
435,328,81177,2,0,P|472:338|519:327,2,80,6|2|6,0:3|1:2|3:0,0:0:0:0:
335,276,81844,1,10,3:0:0:0:
269,367,82066,1,6,1:3:0:0:
143,268,82288,6,0,P|123:206|155:147,1,120,2|0,3:2|0:0,0:0:0:0:
168,142,82733,2,0,P|209:133|263:154,1,80,10|6,3:0|0:3,0:0:0:0:
342,197,83177,1,2,1:2:0:0:
429,127,83399,1,6,3:0:0:0:
363,35,83622,2,0,P|322:26|268:47,1,80,10|6,3:0|1:3,0:0:0:0:
168,142,84066,38,0,P|115:167|61:140,1,120,2|0,3:2|0:0,0:0:0:0:
45,120,84510,2,0,P|52:157|35:203,1,80,10|6,3:0|0:3,0:0:0:0:
1,302,84955,1,2,1:2:0:0:
87,374,85177,1,6,3:0:0:0:
167,295,85399,2,0,B|200:297|200:297|209:304|209:304|258:308,1,80,10|6,3:0|1:3,0:0:0:0:
404,309,85844,6,0,L|410:229,1,80,2|6,3:2|0:3,0:0:0:0:
445,105,86288,1,10,3:0:0:0:
356,12,86510,1,6,0:3:0:0:
235,55,86733,2,0,P|228:73|228:99,3,40,10|2|10|2,3:2|0:1|3:2|0:1,0:0:0:0:
245,129,87177,2,0,P|252:147|252:173,3,40,14|2|14|2,3:0|1:0|3:0|1:0,0:0:0:0:
250,197,87622,6,0,P|205:271|55:193,1,287.999991210938,2|2,0:0|0:3,0:0:0:0:
129,63,90733,6,0,P|162:57|201:67,1,64,8|2,3:0|0:3,0:0:0:0:
300,100,91177,38,0,P|377:130|427:97,1,143.999995605469,6|8,3:1|3:2,0:0:0:0:
493,48,91844,2,0,B|498:115|498:115|506:122|506:122|514:207,1,143.999995605469,2|2,1:2|0:3,0:0:0:0:
457,254,92510,2,0,L|383:263,1,71.9999978027344,10|2,3:0|3:0,0:0:0:0:
307,223,92955,6,0,P|298:189|310:149,1,71.9999978027344,2|2,3:2|0:3,0:0:0:0:
361,86,93399,1,8,3:2:0:0:
297,27,93622,2,0,B|198:27|261:63|161:63,1,143.999995605469,2|2,1:2|0:3,0:0:0:0:
86,20,94288,1,10,3:0:0:0:
9,106,94510,1,14,3:0:0:0:
9,106,94622,1,2,0:1:0:0:
9,106,94733,38,0,P|3:143|15:187,1,71.9999978027344,6|2,3:2|0:3,0:0:0:0:
70,237,95177,1,8,3:2:0:0:
83,322,95399,2,0,P|147:276|148:200,1,143.999995605469,2|2,1:2|0:3,0:0:0:0:
117,136,96066,1,10,3:0:0:0:
183,79,96288,1,2,3:0:0:0:
253,130,96510,6,0,P|276:182|242:272,1,143.999995605469,2|8,3:2|3:2,0:0:0:0:
231,346,97177,2,0,B|218:333|217:308|217:308|266:279|335:315,1,143.999995605469,2|2,1:2|0:3,0:0:0:0:
402,307,97844,2,0,P|412:274|396:229,1,71.9999978027344,10|6,3:0|3:0,0:0:0:0:
371,127,98288,38,0,L|451:117,2,71.9999978027344,2|2|8,3:2|0:3|3:2,0:0:0:0:
299,175,98955,1,2,3:0:0:0:
228,124,99177,2,0,L|148:114,1,71.9999978027344,2|2,3:2|0:3,0:0:0:0:
72,95,99622,1,8,3:2:0:0:
14,159,99844,1,2,3:0:0:0:
63,262,100066,6,0,P|99:271|139:261,1,71.9999978027344,10|2,3:2|3:0,0:0:0:0:
237,217,100510,2,0,P|273:208|313:218,1,71.9999978027344,14|2,3:0|3:0,0:0:0:0:
390,294,100955,1,10,3:2:0:0:
451,200,101177,1,10,3:2:0:0:
451,200,101288,1,2,0:1:0:0:
451,200,101399,2,0,L|455:151,3,35.9999989013672,14|2|14|2,3:0|1:0|3:0|1:0,0:0:0:0:
452,127,101844,38,0,B|388:132|388:132|384:137|384:137|296:145,1,143.999995605469,6|8,3:1|3:2,0:0:0:0:
219,130,102510,2,0,P|176:77|236:27,1,143.999995605469,6|6,1:3|3:0,0:0:0:0:
308,5,103177,2,0,P|340:-2|386:6,1,71.9999978027344,10|6,3:0|1:3,0:0:0:0:
468,31,103622,6,0,L|481:113,1,71.9999978027344,2|6,3:2|3:0,0:0:0:0:
487,196,104066,1,8,3:2:0:0:
428,269,104288,2,0,B|378:260|378:260|365:239|365:239|275:223,1,143.999995605469,6|6,1:3|3:0,0:0:0:0:
205,216,104955,1,10,3:0:0:0:
132,156,105177,1,6,1:3:0:0:
49,235,105399,38,0,P|39:270|59:319,1,71.9999978027344,2|6,3:2|3:0,0:0:0:0:
114,370,105844,1,8,3:2:0:0:
197,327,106066,2,0,B|298:327|225:368|358:368,1,143.999995605469,6|6,1:3|3:0,0:0:0:0:
424,361,106733,2,0,P|432:325|417:283,1,71.9999978027344,10|6,3:0|1:3,0:0:0:0:
341,246,107177,6,0,P|332:211|342:176,1,71.9999978027344,2|6,3:2|3:0,0:0:0:0:
424,130,107622,1,8,3:2:0:0:
391,42,107844,2,0,L|242:27,1,143.999995605469,6|6,1:3|3:0,0:0:0:0:
157,1,108510,1,10,3:0:0:0:
76,83,108733,1,14,3:0:0:0:
76,83,108844,1,2,1:0:0:0:
76,83,108955,38,0,P|66:116|80:158,1,71.9999978027344,6|6,3:2|3:0,0:0:0:0:
144,214,109399,1,8,3:2:0:0:
218,157,109622,2,0,B|270:166|270:166|271:179|271:179|372:196,1,143.999995605469,6|6,1:3|3:0,0:0:0:0:
435,225,110288,2,0,P|445:258|431:300,1,71.9999978027344,10|6,3:0|1:3,0:0:0:0:
348,327,110733,6,0,B|314:329|314:329|306:336|306:336|278:339,1,71.9999978027344,2|6,3:2|3:0,0:0:0:0:
204,285,111177,1,8,3:2:0:0:
143,357,111399,2,0,P|67:358|49:285,1,143.999995605469,6|6,1:3|3:0,0:0:0:0:
61,211,112066,1,10,3:0:0:0:
148,178,112288,1,6,1:3:0:0:
72,92,112510,38,0,B|41:94|41:94|34:102|34:102|-6:105,2,71.9999978027344,2|6|8,3:2|3:0|3:2,0:0:0:0:
153,45,113177,1,6,3:0:0:0:
244,63,113399,2,0,P|259:96|259:142,1,71.9999978027344,2|6,3:2|3:0,0:0:0:0:
249,224,113844,1,8,3:2:0:0:
172,277,114066,1,6,3:0:0:0:
260,351,114288,6,0,P|296:361|346:335,1,71.9999978027344,10|6,3:2|1:3,0:0:0:0:
422,284,114733,2,0,P|386:274|336:300,1,71.9999978027344,14|6,3:0|1:3,0:0:0:0:
260,350,115177,1,10,3:2:0:0:
172,277,115399,1,10,3:2:0:0:
172,277,115510,1,2,0:1:0:0:
172,277,115622,2,0,P|168:259|181:221,3,35.9999989013672,14|2|14|2,3:0|1:0|3:0|1:0,0:0:0:0:
179,213,116066,38,0,B|223:220|223:220|243:244|243:244|304:255,1,120.000004577637,6|2,3:2|0:3,0:0:0:0:
