osu file format v14

[General]
AudioFilename: audio.mp3
AudioLeadIn: 0
PreviewTime: 59177
Countdown: 0
SampleSet: Soft
StackLeniency: 0.7
Mode: 0
LetterboxInBreaks: 0
WidescreenStoryboard: 1

[Editor]
DistanceSpacing: 1
BeatDivisor: 4
GridSize: 8
TimelineZoom: 2.699999

[Metadata]
Title:1000-7
TitleUnicode:1000-7
Artist:fem.love
ArtistUnicode:fem.love
Creator:619
Version:easy
Source:
Tags:emo punk russian rock эмо панк рок русский love femlove фемлав фем.лав лав femtochkalove 10007
BeatmapID:4030169
BeatmapSetID:1519340

[Difficulty]
HPDrainRate:2
CircleSize:2.5
OverallDifficulty:2
ApproachRate:3
SliderMultiplier:1.2
SliderTickRate:1

[Events]
//Background and Video events
0,0,"zxc.jpg",0,0
//Break Periods
2,45155,50626
//Storyboard Layer 0 (Background)
//Storyboard Layer 1 (Fail)
//Storyboard Layer 2 (Pass)
//Storyboard Layer 3 (Foreground)
//Storyboard Layer 4 (Overlay)
//Storyboard Sound Samples

[TimingPoints]
511,444.444444444444,4,2,1,30,1,0
511,-111.111111111111,4,2,1,30,0,0
955,-111.111111111111,4,2,1,35,0,0
1399,-111.111111111111,4,2,1,40,0,0
1844,-111.111111111111,4,2,1,45,0,0
2288,-111.111111111111,4,2,1,60,0,0
8955,-111.111111111111,4,2,1,65,0,0
9399,-100,4,2,1,75,0,1
23177,-100,4,2,1,80,0,1
23622,-111.111111111111,4,2,1,50,0,0
26733,-111.111111111111,4,2,1,60,0,0
27177,-111.111111111111,4,2,1,65,0,0
37622,-111.111111111111,4,2,2,65,0,0
37844,454.545454545454,4,2,1,50,1,0
37844,-111.111111111111,4,2,1,50,0,0
38298,450.281425891181,4,2,1,50,1,0
40099,422.535211267605,4,2,1,50,1,0
40521,445.765230312036,4,2,1,50,1,0
40966,465.116279069767,4,2,1,50,1,0
41431,452.830188679245,4,2,1,50,1,0
41883,410.958904109589,4,2,1,50,1,0
42293,454.545454545454,4,2,1,50,1,0
43202,447.76119402985,4,2,1,50,1,0
43649,419.580419580419,4,2,1,50,1,0
44068,443.62292051756,4,2,1,50,1,0
44955,444.444444444444,4,2,1,30,1,0
44955,-111.111111111111,4,2,1,55,0,0
55621,-111.111111111111,4,2,1,60,0,0
59177,-100,4,2,1,75,0,1
72954,-100,4,2,1,80,0,1
73399,-100,4,2,1,75,0,1
87177,-100,4,2,2,80,0,1
87621,-111.111111111111,4,2,1,50,0,0
90732,-111.111111111111,4,2,1,60,0,0
91177,-111.111111111111,4,2,1,65,0,0
101399,-111.111111111111,4,2,1,75,0,0
101843,-111.111111111111,4,2,1,70,0,0
115621,-111.111111111111,4,2,1,75,0,0
115843,-111.111111111111,4,2,2,75,0,0
116066,-111.111111111111,4,2,1,60,0,0
116510,-111.111111111111,4,2,1,30,0,0

[Colours]
Combo1 : 138,85,49
Combo2 : 128,128,128
Combo3 : 173,173,173
Combo4 : 3,87,133
SliderBorder : 225,225,225

[HitObjects]
102,200,511,6,0,B|71:202|71:202|59:215|59:215|-9:221,2,107.999996704102,2|2|2,0:0|0:3|0:0,0:0:0:0:
203,237,1844,1,2,0:3:0:0:
293,177,2288,6,0,P|308:116|279:59,1,107.999996704102,14|14,1:0|1:0,0:0:0:0:
292,75,4066,38,0,L|166:75,1,107.999996704102,14|14,1:0|1:0,0:0:0:0:
184,75,5844,6,0,B|137:48|137:48|84:79,1,107.999996704102,14|14,1:0|1:0,0:0:0:0:
90,75,7622,38,0,P|42:57|42:3,2,107.999996704102,14|14|14,1:0|1:0|3:0,0:0:0:0:
178,12,8955,2,0,P|204:9|253:19,1,53.9999983520508,6|0,1:2|0:0,0:0:0:0:
286,35,9399,22,0,L|407:20,2,120,6|10|2,3:1|3:0|1:2,0:0:0:0:
185,100,10733,1,10,3:0:0:0:
260,192,11177,2,0,P|313:212|375:187,1,120,2|8,3:2|3:0,0:0:0:0:
488,177,12066,2,0,P|500:207|500:244,1,60,2|2,1:2|3:3,0:0:0:0:
487,292,12510,1,8,3:0:0:0:
387,359,12955,6,0,B|337:354|337:354|323:339|323:339|255:334,1,120,2|10,3:2|3:0,0:0:0:0:
160,299,13844,1,2,1:2:0:0:
58,362,14288,1,10,3:0:0:0:
0,256,14733,2,0,B|6:219|6:219|20:201|20:201|12:178|12:178|20:136,1,120,2|10,3:2|3:0,0:0:0:0:
82,41,15622,2,0,L|148:55,1,60,2|2,1:2|3:0,0:0:0:0:
199,64,16066,1,10,3:0:0:0:
309,111,16510,38,0,P|341:69|305:18,2,120,6|10|2,3:1|3:0|1:2,0:0:0:0:
195,152,17844,1,10,3:0:0:0:
80,186,18288,2,0,P|62:239|84:303,1,120,2|10,3:2|3:0,0:0:0:0:
176,370,19177,2,0,P|206:375|245:367,1,60,2|2,1:2|3:0,0:0:0:0:
291,349,19622,1,10,3:0:0:0:
400,299,20066,6,0,B|397:268|397:268|379:253|379:253|373:174,1,120,2|10,3:2|3:0,0:0:0:0:
308,86,20955,1,2,1:2:0:0:
418,39,21399,1,10,3:0:0:0:
502,125,21844,2,0,P|520:183|498:245,1,120,2|10,3:2|3:0,0:0:0:0:
400,299,22733,2,0,B|380:297|380:297|372:292|372:292|335:289,1,60,14|14,3:0|3:0,0:0:0:0:
281,287,23177,1,10,3:0:0:0:
196,353,23622,6,0,B|119:361|50:321|29:246|29:246|78:174|160:166|222:199|222:199|167:147|167:52|240:15,1,647.99998022461,2|2,0:0|0:3,0:0:0:0:
344,13,26733,2,0,P|350:40|332:85,1,53.9999983520508,8|2,3:0|3:0,0:0:0:0:
335,118,27177,6,0,P|386:132|444:115,1,107.999996704102,6|8,3:1|3:2,0:0:0:0:
492,118,27844,2,0,P|506:169|490:227,1,107.999996704102,2|2,1:2|0:3,0:0:0:0:
469,269,28510,1,10,3:0:0:0:
409,359,28955,2,0,B|367:355|367:355|357:343|357:343|301:338,1,107.999996704102,2|8,3:2|3:2,0:0:0:0:
252,338,29622,2,0,B|209:342|209:342|199:354|199:354|151:359,1,107.999996704102,2|2,1:2|0:3,0:0:0:0:
96,366,30288,1,10,3:0:0:0:
4,308,30733,38,0,P|4:255|31:206,1,107.999996704102,6|8,3:2|3:2,0:0:0:0:
81,191,31399,2,0,P|81:138|54:89,1,107.999996704102,2|2,1:2|0:3,0:0:0:0:
13,56,32066,1,10,3:0:0:0:
115,23,32510,2,0,B|229:38,1,107.999996704102,2|8,3:2|3:2,0:0:0:0:
276,38,33177,2,0,B|383:23,1,107.999996704102,2|2,1:2|0:3,0:0:0:0:
437,19,33844,1,10,3:0:0:0:
487,114,34288,6,0,B|483:155|483:155|470:165|470:165|464:235,1,107.999996704102,2|8,3:2|3:2,0:0:0:0:
357,216,35177,2,0,B|352:166|352:166|339:156|339:156|336:114,1,107.999996704102,2|8,3:2|3:2,0:0:0:0:
275,25,36066,2,0,P|226:11|162:34,1,107.999996704102,10|14,3:2|3:0,0:0:0:0:
92,99,36955,1,10,3:2:0:0:
173,169,37399,2,0,P|198:173|245:162,1,53.9999983520508,14|14,3:0|3:0,0:0:0:0:
272,143,37844,37,2,0:0:0:0:
256,192,38298,12,2,44955,0:0:0:0:
256,192,52066,12,2,54732,0:0:0:0:
440,96,55622,6,0,B|396:67|396:67|335:67,1,107.999996704102,2|2,1:2|0:0,0:0:0:0:
245,117,56510,2,0,B|201:146|201:146|145:146,1,107.999996704102,8|2,1:1|0:0,0:0:0:0:
43,111,57399,2,0,B|45:77|45:77|54:71|54:71|59:9,2,107.999996704102,2|2|2,1:3|1:3|3:1,0:0:0:0:
87,209,58733,2,0,L|93:283,1,53.9999983520508,14|2,3:0|3:1,0:0:0:0:
109,319,59177,22,0,P|53:340|-11:309,2,120,6|10|2,3:1|3:0|1:2,0:0:0:0:
199,239,60510,1,10,3:0:0:0:
280,150,60955,2,0,B|338:160|338:160|349:176|349:176|390:183,1,120,2|10,3:2|3:0,0:0:0:0:
509,193,61844,2,0,P|518:221|495:267,1,60,2|2,1:2|3:0,0:0:0:0:
478,300,62288,1,10,3:0:0:0:
369,350,62733,6,0,P|312:368|247:344,1,120,2|10,3:2|3:0,0:0:0:0:
170,266,63622,1,2,1:2:0:0:
77,341,64066,1,10,3:0:0:0:
6,244,64510,2,0,L|17:115,1,120,2|10,3:2|3:0,0:0:0:0:
65,14,65399,2,0,P|94:8|135:19,1,60,2|2,1:2|3:0,0:0:0:0:
177,40,65844,1,10,3:0:0:0:
263,123,66288,38,0,P|284:175|255:242,2,120,6|10|2,3:1|3:0|1:2,0:0:0:0:
177,40,67622,1,10,3:0:0:0:
91,123,68066,2,0,P|70:175|99:242,1,120,2|10,3:2|3:0,0:0:0:0:
172,320,68955,2,0,P|204:326|234:319,1,60,2|2,1:2|3:0,0:0:0:0:
286,300,69399,1,10,3:0:0:0:
405,292,69844,6,0,B|409:261|409:261|404:231|404:231|421:207|421:207|429:159,1,120,2|10,3:2|3:0,0:0:0:0:
437,58,70733,1,2,1:2:0:0:
334,120,71177,1,10,3:0:0:0:
265,21,71622,2,0,B|221:25|221:25|209:39|209:39|124:46,1,120,2|10,3:2|3:0,0:0:0:0:
34,70,72510,2,0,L|28:147,1,60,2|2,1:2|1:3,0:0:0:0:
30,190,72955,1,10,3:0:0:0:
112,276,73399,38,0,P|169:291|236:269,1,120,6|10,3:1|3:0,0:0:0:0:
332,219,74288,2,0,P|363:213|414:229,2,60,2|6|10,1:2|3:0|3:0,0:0:0:0:
226,275,75177,2,0,B|221:227|221:227|201:206|201:206|198:163,1,120,2|10,3:2|3:0,0:0:0:0:
234,48,76066,2,0,L|305:52,1,60,2|6,1:2|3:0,0:0:0:0:
353,54,76510,1,10,3:0:0:0:
470,79,76955,6,0,P|493:137|464:189,1,120,2|10,3:2|3:0,0:0:0:0:
380,266,77844,1,2,1:2:0:0:
307,170,78288,1,10,3:0:0:0:
196,217,78733,2,0,B|188:255|188:255|193:275|193:275|181:290|181:290|170:355,1,120,2|10,3:2|3:0,0:0:0:0:
54,331,79622,2,0,L|42:266,1,60,2|6,1:2|3:0,0:0:0:0:
35,212,80066,1,10,3:0:0:0:
88,104,80510,38,0,P|145:88|214:112,1,120,6|10,3:1|3:0,0:0:0:0:
318,133,81399,2,0,P|350:140|395:124,2,60,2|6|10,1:2|3:0|3:0,0:0:0:0:
202,103,82288,2,0,L|195:228,1,120,2|10,3:2|3:0,0:0:0:0:
228,338,83177,2,0,L|293:345,1,60,2|6,1:2|3:0,0:0:0:0:
347,350,83622,1,10,3:0:0:0:
454,296,84066,6,0,B|450:261|450:261|430:244|430:244|423:169,1,120,2|10,3:2|3:0,0:0:0:0:
413,66,84955,1,2,1:2:0:0:
331,154,85399,1,10,3:0:0:0:
268,51,85844,2,0,B|229:47|229:47|209:55|209:55|193:43|193:43|127:36,1,120,2|10,3:2|3:0,0:0:0:0:
40,78,86733,2,0,B|41:106|41:106|45:113|45:113|47:151,1,60,10|10,3:2|3:2,0:0:0:0:
63,194,87177,1,14,3:0:0:0:
126,282,87622,6,0,P|404:269|266:50,1,647.99998022461,2|2,0:0|0:3,0:0:0:0:
159,41,90732,1,8,3:0:0:0:
61,87,91177,6,0,L|61:200,1,107.999996704102,6|8,3:1|3:2,0:0:0:0:
32,241,91844,2,0,P|77:277|141:277,1,107.999996704102,2|2,1:2|0:3,0:0:0:0:
179,274,92510,1,10,3:0:0:0:
286,261,92955,2,0,B|309:213|309:213|286:163,1,107.999996704102,2|8,3:2|3:2,0:0:0:0:
273,110,93622,2,0,L|144:134,1,107.999996704102,2|2,1:2|0:3,0:0:0:0:
119,155,94288,1,10,3:0:0:0:
10,158,94733,38,0,P|-5:109|17:46,1,107.999996704102,6|8,3:2|3:2,0:0:0:0:
56,29,95399,2,0,B|95:33|95:33|105:44|105:44|180:50,1,107.999996704102,2|2,1:2|0:3,0:0:0:0:
211,37,96066,1,10,3:0:0:0:
311,80,96510,2,0,B|314:116|314:116|307:131|307:131|316:145|316:145|321:195,1,107.999996704102,2|8,3:2|3:2,0:0:0:0:
339,234,97177,2,0,P|387:257|440:228,1,107.999996704102,2|2,1:2|0:3,0:0:0:0:
484,215,97844,1,10,3:0:0:0:
498,108,98288,6,0,L|491:-8,2,107.999996704102,2|8|2,3:2|3:2|3:2,0:0:0:0:
484,215,99622,1,8,3:2:0:0:
421,303,100066,2,0,B|385:299|385:299|367:277|367:277|309:272,1,107.999996704102,10|14,3:2|3:0,0:0:0:0:
223,232,100955,2,0,P|195:232|164:256,1,53.9999983520508,10|10,3:2|3:2,0:0:0:0:
132,280,101399,1,14,3:0:0:0:
30,242,101844,38,0,P|12:192|40:129,1,107.999996704102,6|8,3:1|3:2,0:0:0:0:
51,92,102510,2,0,L|166:92,1,107.999996704102,6|6,1:3|3:0,0:0:0:0:
213,94,103177,1,10,3:0:0:0:
305,150,103622,2,0,B|327:203|327:203|298:264,1,107.999996704102,2|8,3:2|3:2,0:0:0:0:
271,290,104288,2,0,L|389:308,1,107.999996704102,6|6,1:3|3:0,0:0:0:0:
430,316,104955,1,10,3:0:0:0:
501,235,105399,6,0,P|515:184|496:121,1,107.999996704102,2|8,3:2|3:2,0:0:0:0:
474,85,106066,2,0,B|438:88|438:88|423:97|423:97|406:89|406:89|353:94,1,107.999996704102,6|6,1:3|3:0,0:0:0:0:
317,104,106733,1,10,3:0:0:0:
236,32,107177,2,0,B|186:13|186:13|125:36,1,107.999996704102,2|8,3:2|3:2,0:0:0:0:
85,54,107844,2,0,P|67:104|99:169,1,107.999996704102,6|6,1:3|3:0,0:0:0:0:
122,192,108510,1,10,3:0:0:0:
222,231,108955,38,0,B|263:227|263:227|276:214|276:214|341:208,1,107.999996704102,6|8,3:2|3:2,0:0:0:0:
372,186,109622,2,0,P|417:216|417:278,1,107.999996704102,6|6,1:3|3:0,0:0:0:0:
400,315,110288,1,10,3:0:0:0:
306,369,110733,2,0,L|190:369,1,107.999996704102,2|8,3:2|3:2,0:0:0:0:
144,374,111399,2,0,B|96:351|96:351|78:295,1,107.999996704102,6|6,1:3|3:0,0:0:0:0:
68,245,112066,1,10,3:0:0:0:
130,157,112510,6,0,P|183:143|245:163,1,107.999996704102,2|8,3:2|3:2,0:0:0:0:
320,219,113399,2,0,L|320:279,2,53.9999983520508,2|6|8,3:2|3:0|3:2,0:0:0:0:
394,140,114288,38,0,P|400:115|391:80,1,53.9999983520508,10|6,3:2|1:3,0:0:0:0:
369,39,114733,1,14,3:0:0:0:
270,82,115177,1,10,3:2:0:0:
179,22,115622,2,0,L|111:22,1,53.9999983520508,14|14,3:0|3:0,0:0:0:0:
71,21,116066,6,0,P|24:33|35:82,1,107.999996704102,6|2,3:2|0:3,0:0:0:0:
