osu file format v14

[General]
AudioFilename: audio.mp3
AudioLeadIn: 0
PreviewTime: 59177
Countdown: 0
SampleSet: Soft
StackLeniency: 0.3
Mode: 0
LetterboxInBreaks: 0
WidescreenStoryboard: 1

[Editor]
DistanceSpacing: 2.8
BeatDivisor: 4
GridSize: 8
TimelineZoom: 3.899998

[Metadata]
Title:1000-7
TitleUnicode:1000-7
Artist:fem.love
ArtistUnicode:fem.love
Creator:619
Version:dead inside
Source:
Tags:emo punk russian rock эмо панк рок русский love femlove фемлав фем.лав лав femtochkalove 10007
BeatmapID:3487556
BeatmapSetID:1519340

[Difficulty]
HPDrainRate:5
CircleSize:3.8
OverallDifficulty:7.5
ApproachRate:8.4
SliderMultiplier:2
SliderTickRate:1

[Events]
//Background and Video events
0,0,"zxc.jpg",0,0
//Break Periods
2,44955,51376
//Storyboard Layer 0 (Background)
//Storyboard Layer 1 (Fail)
//Storyboard Layer 2 (Pass)
//Storyboard Layer 3 (Foreground)
//Storyboard Layer 4 (Overlay)
//Storyboard Sound Samples

[TimingPoints]
511,444.444444444444,4,2,1,30,1,0
511,-125,4,2,1,30,0,0
955,-125,4,2,1,35,0,0
1399,-125,4,2,1,40,0,0
1844,-125,4,2,1,45,0,0
2288,-111.111111111111,4,2,1,60,0,0
2622,-111.111111111111,4,2,1,5,0,0
2733,-111.111111111111,4,2,1,60,0,0
3066,-111.111111111111,4,2,1,5,0,0
3177,-142.857142857143,4,2,1,50,0,0
4066,-111.111111111111,4,2,1,60,0,0
4399,-111.111111111111,4,2,1,5,0,0
4510,-111.111111111111,4,2,1,60,0,0
4844,-111.111111111111,4,2,1,5,0,0
4955,-142.857142857143,4,2,1,50,0,0
5844,-111.111111111111,4,2,1,60,0,0
6177,-111.111111111111,4,2,1,5,0,0
6288,-111.111111111111,4,2,1,60,0,0
6622,-111.111111111111,4,2,1,5,0,0
6733,-142.857142857143,4,2,1,50,0,0
7622,-111.111111111111,4,2,1,60,0,0
7955,-111.111111111111,4,2,1,5,0,0
8066,-111.111111111111,4,2,1,60,0,0
8399,-111.111111111111,4,2,1,5,0,0
8510,-111.111111111111,4,2,1,60,0,0
8955,-83.3333333333333,4,2,1,65,0,0
9288,-83.3333333333333,4,2,1,5,0,0
9399,-100,4,2,1,75,0,1
9733,-100,4,2,1,5,0,1
9844,-100,4,2,1,75,0,1
10399,-100,4,2,1,5,0,1
10510,-100,4,2,1,75,0,1
10622,-100,4,2,1,5,0,1
10733,-100,4,2,1,75,0,1
10844,-100,4,2,1,5,0,1
10955,-100,4,2,1,75,0,1
11510,-100,4,2,1,5,0,1
11622,-100,4,2,1,75,0,1
12844,-100,4,2,1,5,0,1
12955,-100,4,2,1,75,0,1
13288,-100,4,2,1,5,0,1
13399,-100,4,2,1,75,0,1
13955,-100,4,2,1,5,0,1
14066,-100,4,2,1,75,0,1
14177,-100,4,2,1,5,0,1
14288,-100,4,2,1,75,0,1
14399,-100,4,2,1,5,0,1
14510,-100,4,2,1,75,0,1
15066,-100,4,2,1,5,0,1
15177,-100,4,2,1,75,0,1
16844,-100,4,2,1,5,0,1
16955,-100,4,2,1,75,0,1
17510,-100,4,2,1,5,0,1
17622,-100,4,2,1,75,0,1
17733,-100,4,2,1,5,0,1
17844,-100,4,2,1,75,0,1
17955,-100,4,2,1,5,0,1
18066,-100,4,2,1,75,0,1
18622,-100,4,2,1,5,0,1
18733,-100,4,2,1,75,0,1
19955,-100,4,2,1,5,0,1
20066,-100,4,2,1,75,0,1
20399,-100,4,2,1,5,0,1
20510,-100,4,2,1,75,0,1
21066,-100,4,2,1,5,0,1
21177,-100,4,2,1,75,0,1
21288,-100,4,2,1,5,0,1
21399,-100,4,2,1,75,0,1
21510,-100,4,2,1,5,0,1
21622,-100,4,2,1,75,0,1
22177,-100,4,2,1,5,0,1
22288,-100,4,2,1,75,0,1
23177,-100,4,2,2,80,0,1
23288,-100,4,2,1,80,0,1
23399,-100,4,2,2,80,0,1
23510,-100,4,2,1,80,0,1
23622,-1000,4,2,1,50,0,0
26733,-83.3333333333333,4,2,1,60,0,0
27177,-111.111111111111,4,2,1,65,0,0
37622,-111.111111111111,4,2,2,65,0,0
37733,-111.111111111111,4,2,1,65,0,0
37844,454.545454545454,4,2,1,50,1,0
37844,-111.111111111111,4,2,1,50,0,0
38298,450.281425891181,4,2,1,50,1,0
40099,422.535211267605,4,2,1,50,1,0
40521,445.765230312036,4,2,1,50,1,0
40966,465.116279069767,4,2,1,50,1,0
41431,452.830188679245,4,2,1,50,1,0
41883,410.958904109589,4,2,1,50,1,0
42293,454.545454545454,4,2,1,50,1,0
43202,447.76119402985,4,2,1,50,1,0
43649,419.580419580419,4,2,1,50,1,0
44068,443.62292051756,4,2,1,50,1,0
44955,444.444444444444,4,2,1,30,1,0
44955,-200,4,2,1,55,0,0
55621,-133.333333333333,4,2,1,60,0,0
59177,-100,4,2,1,75,0,1
59510,-100,4,2,1,5,0,1
59621,-100,4,2,1,75,0,1
60177,-100,4,2,1,5,0,1
60288,-100,4,2,1,75,0,1
60399,-100,4,2,1,5,0,1
60510,-100,4,2,1,75,0,1
60621,-100,4,2,1,5,0,1
60732,-100,4,2,1,75,0,1
61288,-100,4,2,1,5,0,1
61399,-100,4,2,1,75,0,1
62621,-100,4,2,1,5,0,1
62732,-100,4,2,1,75,0,1
63066,-100,4,2,1,5,0,1
63177,-100,4,2,1,75,0,1
63732,-100,4,2,1,5,0,1
63843,-100,4,2,1,75,0,1
63954,-100,4,2,1,5,0,1
64066,-100,4,2,1,75,0,1
64177,-100,4,2,1,5,0,1
64288,-100,4,2,1,75,0,1
64843,-100,4,2,1,5,0,1
64954,-100,4,2,1,75,0,1
66621,-100,4,2,1,5,0,1
66732,-100,4,2,1,75,0,1
67288,-100,4,2,1,5,0,1
67399,-100,4,2,1,75,0,1
67510,-100,4,2,1,5,0,1
67621,-100,4,2,1,75,0,1
67732,-100,4,2,1,5,0,1
67843,-100,4,2,1,75,0,1
68399,-100,4,2,1,5,0,1
68510,-100,4,2,1,75,0,1
69732,-100,4,2,1,5,0,1
69843,-100,4,2,1,75,0,1
70177,-100,4,2,1,5,0,1
70288,-100,4,2,1,75,0,1
70843,-100,4,2,1,5,0,1
70954,-100,4,2,1,75,0,1
71066,-100,4,2,1,5,0,1
71177,-100,4,2,1,75,0,1
71288,-100,4,2,1,5,0,1
71399,-100,4,2,1,75,0,1
71954,-100,4,2,1,5,0,1
72066,-100,4,2,1,75,0,1
72621,-100,4,2,1,5,0,1
72732,-100,4,2,1,75,0,1
72954,-100,4,2,1,80,0,1
73177,-100,4,2,2,80,0,1
73288,-100,4,2,1,80,0,1
73399,-90.9090909090909,4,2,1,75,0,1
76843,-90.9090909090909,4,2,1,5,0,1
76954,-90.9090909090909,4,2,1,75,0,1
79066,-90.9090909090909,4,2,1,5,0,1
79177,-90.9090909090909,4,2,1,75,0,1
83954,-90.9090909090909,4,2,1,5,0,1
84066,-90.9090909090909,4,2,1,75,0,1
84399,-90.9090909090909,4,2,1,5,0,1
84510,-90.9090909090909,4,2,1,75,0,1
86177,-90.9090909090909,4,2,1,5,0,1
86288,-90.9090909090909,4,2,1,75,0,1
86954,-90.9090909090909,4,2,1,75,0,1
87177,-90.9090909090909,4,2,2,80,0,1
87288,-90.9090909090909,4,2,1,80,0,1
87399,-90.9090909090909,4,2,2,80,0,1
87510,-90.9090909090909,4,2,1,80,0,1
87621,-1000,4,2,1,50,0,0
90732,-83.3333333333333,4,2,1,60,0,0
91066,-83.3333333333333,4,2,1,5,0,0
91177,-111.111111111111,4,2,1,65,0,0
101399,-111.111111111111,4,2,1,75,0,0
101621,-111.111111111111,4,2,2,75,0,0
101732,-111.111111111111,4,2,1,75,0,0
101843,-111.111111111111,4,2,1,70,0,0
115621,-111.111111111111,4,2,1,75,0,0
115843,-111.111111111111,4,2,2,75,0,0
115954,-111.111111111111,4,2,1,75,0,0
116066,-142.857142857143,4,2,1,60,0,0
116510,-142.857142857143,4,2,1,30,0,0

[Colours]
Combo1 : 138,85,49
Combo2 : 128,128,128
Combo3 : 173,173,173
Combo4 : 3,87,133
SliderBorder : 225,225,225

[HitObjects]
151,334,511,5,2,0:0:0:0:
193,217,955,1,2,0:3:0:0:
319,217,1399,1,2,0:0:0:0:
361,334,1844,1,2,0:3:0:0:
490,271,2288,6,0,P|515:211|477:138,1,134.999995880127,14|0,1:0|0:0,0:0:0:0:
417,94,2733,2,0,B|369:102|369:102|348:126|348:126|274:138,1,134.999995880127,14|0,1:0|0:0,0:0:0:0:
217,132,3177,38,0,P|186:85|249:75,1,139.999995727539,2|2,0:3|0:0,0:0:0:0:
284,340,4066,6,0,P|217:357|133:328,1,134.999995880127,14|0,1:0|0:0,0:0:0:0:
66,320,4510,2,0,B|101:342|101:342|134:307|108:252,1,134.999995880127,14|0,1:0|0:0,0:0:0:0:
82,181,4955,38,0,B|82:167|64:150|64:150|178:143,1,139.999995727539,2|2,0:3|0:0,0:0:0:0:
437,144,5844,6,0,B|444:185|444:185|435:206|435:206|449:222|449:222|460:281,1,134.999995880127,14|0,1:0|0:0,0:0:0:0:
437,358,6288,2,0,L|298:375,1,134.999995880127,14|0,1:0|0:0,0:0:0:0:
227,355,6733,38,0,P|190:312|232:249,1,139.999995727539,2|2,0:3|0:0,0:0:0:0:
397,41,7622,6,0,B|374:5|374:5|266:10,1,134.999995880127,14|0,1:0|0:0,0:0:0:0:
203,53,8066,2,0,P|239:25|260:100,1,134.999995880127,14|0,1:0|0:0,0:0:0:0:
207,144,8510,37,14,3:0:0:0:
99,61,8733,1,2,1:0:0:0:
13,238,8955,6,0,P|99:284|159:226,1,179.999994506836,6|0,1:2|0:0,0:0:0:0:
207,144,9399,6,0,B|263:151|263:151|284:177|284:177|363:188,1,150,6|0,3:1|0:0,0:0:0:0:
424,125,9844,2,0,B|385:129|385:129|372:144|372:144|314:152,1,100,10|2,3:0|0:3,0:0:0:0:
132,161,10288,2,0,P|117:138|117:105,1,50,2|0,1:2|0:0,0:0:0:0:
209,34,10510,2,0,P|196:58|168:74,1,50,2|0,3:0|0:0,0:0:0:0:
57,31,10733,2,0,P|84:29|112:46,1,50,10|0,3:0|0:0,0:0:0:0:
207,144,10955,1,6,0:3:0:0:
442,50,11177,6,0,P|379:17|308:56,1,150,2|0,3:2|0:0,0:0:0:0:
331,149,11622,2,0,P|376:166|434:136,1,100,8|2,3:0|0:3,0:0:0:0:
237,73,12066,1,2,1:2:0:0:
202,218,12288,1,2,3:3:0:0:
23,43,12510,2,0,P|93:20|170:49,1,150,8|0,3:0|0:0,0:0:0:0:
98,179,12955,38,0,P|53:145|112:105,1,150,2|0,3:2|0:0,0:0:0:0:
91,202,13399,2,0,P|47:179|34:113,1,100,10|2,3:0|0:3,0:0:0:0:
226,88,13844,2,0,P|231:111|220:147,1,50,2|0,1:2|0:0,0:0:0:0:
159,242,14066,2,0,P|176:226|213:217,1,50,2|0,3:0|0:0,0:0:0:0:
325,223,14288,2,0,P|302:215|276:188,1,50,10|0,3:0|0:0,0:0:0:0:
156,110,14510,1,6,0:3:0:0:
402,155,14733,6,0,P|428:225|398:296,1,150,2|0,3:2|0:0,0:0:0:0:
315,343,15177,2,0,P|264:328|223:287,1,100,10|2,3:0|0:3,0:0:0:0:
156,110,15622,1,2,1:2:0:0:
35,199,15844,1,2,3:0:0:0:
233,181,16066,1,10,3:0:0:0:
82,48,16288,1,14,3:0:0:0:
63,40,16399,1,2,1:0:0:0:
50,55,16510,38,0,B|45:100|45:100|54:124|54:124|39:145|39:145|33:209,1,150,6|0,3:1|0:0,0:0:0:0:
83,285,16955,2,0,P|129:303|179:279,1,100,10|2,3:0|0:3,0:0:0:0:
297,128,17399,2,0,P|303:101|285:63,1,50,2|0,1:2|0:0,0:0:0:0:
181,129,17622,2,0,P|201:147|243:151,1,50,2|0,3:0|0:0,0:0:0:0:
239,29,17844,2,0,P|212:37|188:71,1,50,10|0,3:0|0:0,0:0:0:0:
87,151,18066,1,6,0:3:0:0:
233,353,18288,6,0,B|288:343|288:343|312:312|312:312|382:300,1,150,2|0,3:2|0:0,0:0:0:0:
464,325,18733,2,0,B|430:319|430:319|416:300|416:300|374:293,1,100,10|2,3:0|0:3,0:0:0:0:
185,227,19177,1,2,1:2:0:0:
308,142,19399,1,2,3:0:0:0:
71,57,19622,2,0,P|7:101|55:141,1,150,10|0,3:0|0:0,0:0:0:0:
190,135,20066,38,0,B|232:113|226:72|226:72|181:54|148:103,1,150,2|0,3:2|0:0,0:0:0:0:
106,173,20510,2,0,P|137:211|184:226,1,100,10|2,3:0|0:3,0:0:0:0:
384,234,20955,2,0,P|394:213|394:177,1,50,2|0,1:2|0:0,0:0:0:0:
330,80,21177,2,0,P|343:99|374:117,1,50,2|0,3:0|0:0,0:0:0:0:
489,108,21399,2,0,P|465:109|434:127,1,50,10|0,3:0|0:0,0:0:0:0:
312,191,21622,1,6,0:3:0:0:
78,102,21844,6,0,P|141:77|238:126,1,150,2|0,3:2|0:0,0:0:0:0:
196,199,22288,2,0,P|150:211|92:195,1,100,10|2,3:0|0:3,0:0:0:0:
330,80,22733,1,14,3:0:0:0:
369,84,22844,1,2,0:1:0:0:
401,107,22955,1,14,3:0:0:0:
419,142,23066,1,2,0:1:0:0:
422,181,23177,37,10,3:0:0:0:
413,198,23288,1,2,1:0:0:0:
401,214,23399,1,10,3:0:0:0:
387,228,23510,1,2,1:0:0:0:
377,238,23622,22,0,B|339:231|339:231|308:199|308:199|272:193,1,120,2|2,0:0|0:3,0:0:0:0:
149,83,26733,6,0,B|201:73|201:73|207:58|207:58|283:45,1,119.999996337891,8|2,3:0|3:0,0:0:0:0:
438,40,27177,38,0,P|450:82|430:136,1,89.9999972534181,6|2,3:1|0:3,0:0:0:0:
357,287,27622,1,8,3:2:0:0:
446,299,27844,2,0,B|404:291|404:291|371:263|371:263|370:255|370:255|341:224|341:224|297:217,1,179.999994506836,2|2,1:2|0:3,0:0:0:0:
118,200,28510,1,10,3:0:0:0:
207,301,28733,1,2,1:3:0:0:
149,83,28955,6,0,P|108:79|44:107,1,89.9999972534181,2|2,3:2|0:3,0:0:0:0:
208,198,29399,1,8,3:2:0:0:
275,138,29622,2,0,B|327:138|369:184|338:184|375:217|444:217,1,179.999994506836,2|2,1:2|0:3,0:0:0:0:
257,258,30288,1,10,3:0:0:0:
434,55,30510,1,10,3:0:0:0:
442,65,30622,1,2,0:1:0:0:
443,51,30733,38,0,B|409:53|409:53|400:61|400:61|355:65,1,89.9999972534181,6|2,3:2|0:3,0:0:0:0:
177,87,31177,1,8,3:2:0:0:
88,69,31399,2,0,B|137:38|137:38|143:90|143:90|150:95|150:95|145:103|145:103|152:167,1,179.999994506836,2|2,1:2|0:3,0:0:0:0:
156,335,32066,1,10,3:0:0:0:
57,242,32288,1,2,1:3:0:0:
278,290,32510,6,0,P|286:332|274:388,1,89.9999972534181,2|2,3:2|0:3,0:0:0:0:
186,222,32955,1,8,3:2:0:0:
266,182,33177,2,0,P|304:119|224:116,1,179.999994506836,2|2,1:2|0:3,0:0:0:0:
120,257,33844,1,10,3:0:0:0:
66,133,34066,1,2,1:3:0:0:
253,5,34288,38,0,B|291:8|291:8|300:18|300:18|352:22,1,89.9999972534181,2|2,3:2|0:3,0:0:0:0:
501,99,34733,1,8,3:2:0:0:
397,185,34955,1,2,1:3:0:0:
249,82,35177,2,0,B|211:85|211:85|202:95|202:95|150:99,1,89.9999972534181,2|2,3:2|0:3,0:0:0:0:
1,176,35622,1,8,3:2:0:0:
108,256,35844,1,2,1:3:0:0:
249,82,36066,5,10,3:2:0:0:
203,237,36288,1,2,1:3:0:0:
329,81,36510,1,14,3:0:0:0:
371,237,36733,1,2,3:0:0:0:
287,0,36955,1,10,3:2:0:0:
88,105,37177,1,14,3:0:0:0:
79,115,37288,1,2,0:1:0:0:
88,124,37399,38,0,P|112:141|154:141,1,44.999998626709,14|2,3:0|1:0,0:0:0:0:
209,102,37622,2,0,P|227:87|248:81,1,44.999998626709,14|2,3:0|1:0,0:0:0:0:
329,81,37844,5,2,0:0:0:0:
443,164,38298,37,2,0:0:0:0:
346,339,38748,5,8,0:1:0:0:
103,21,39648,37,2,0:0:0:0:
35,94,39873,1,2,0:3:0:0:
123,154,40099,5,2,0:0:0:0:
58,230,40310,1,2,0:3:0:0:
143,343,40521,37,8,0:1:0:0:
332,370,40966,5,2,0:3:0:0:
467,215,41431,37,2,0:0:0:0:
438,119,41657,1,2,0:3:0:0:
329,100,41883,5,2,0:0:0:0:
264,176,42088,1,2,0:3:0:0:
345,284,42293,37,8,0:1:0:0:
28,29,43202,5,2,0:0:0:0:
20,42,43425,1,2,0:3:0:0:
153,130,43649,37,2,0:0:0:0:
147,117,43858,1,2,0:3:0:0:
21,183,44068,5,8,0:1:0:0:
256,192,52066,12,2,55177,0:0:0:0:
3,56,55622,37,2,1:2:0:0:
62,113,55844,1,2,0:3:0:0:
117,51,56066,1,2,0:0:0:0:
129,40,56288,1,2,3:0:0:0:
229,91,56510,5,8,1:1:0:0:
308,114,56733,1,0,0:0:0:0:
357,48,56955,1,2,0:0:0:0:
349,34,57177,1,2,3:0:0:0:
229,91,57399,37,2,1:3:0:0:
229,91,57844,5,2,1:3:0:0:
229,91,58288,37,2,3:1:0:0:
281,231,58510,1,2,3:0:0:0:
428,85,58733,1,14,3:0:0:0:
361,260,58955,1,2,3:1:0:0:
130,199,59177,22,0,P|96:136|136:68,1,150,6|0,3:1|0:0,0:0:0:0:
229,91,59622,2,0,P|249:138|223:184,1,100,10|2,3:0|0:3,0:0:0:0:
72,311,60066,2,0,P|47:318|9:297,1,50,2|0,1:2|0:0,0:0:0:0:
149,306,60288,2,0,P|167:324|168:367,1,50,2|0,3:0|0:0,0:0:0:0:
107,240,60510,2,0,P|113:214|150:192,1,50,10|0,3:0|0:0,0:0:0:0:
229,91,60733,1,6,0:3:0:0:
412,260,60955,6,0,P|355:299|288:245,1,150,2|0,3:2|0:0,0:0:0:0:
311,162,61399,2,0,P|355:141|411:184,1,100,10|2,3:0|0:3,0:0:0:0:
219,250,61844,1,2,1:2:0:0:
150,116,62066,1,2,3:0:0:0:
13,324,62288,2,0,P|57:368|112:304,1,150,10|0,3:0|0:0,0:0:0:0:
180,184,62733,38,0,P|250:180|296:253,1,150,2|0,3:2|0:0,0:0:0:0:
272,336,63177,2,0,P|256:288|279:237,1,100,10|2,3:0|0:3,0:0:0:0:
366,66,63622,2,0,P|395:66|424:87,1,50,2|0,1:2|0:0,0:0:0:0:
427,199,63844,2,0,P|412:173|416:138,1,50,2|0,3:0|0:0,0:0:0:0:
512,79,64066,2,0,P|497:104|464:118,1,50,10|0,3:0|0:0,0:0:0:0:
334,151,64288,1,6,0:3:0:0:
458,367,64510,6,0,P|510:352|475:283,1,150,2|0,3:2|0:0,0:0:0:0:
380,255,64955,2,0,B|338:258|338:258|333:269|333:269|271:274,1,100,10|2,3:0|0:3,0:0:0:0:
87,275,65399,1,2,1:2:0:0:
191,167,65622,1,2,3:0:0:0:
153,363,65844,1,10,3:0:0:0:
29,205,66066,1,14,3:0:0:0:
27,185,66177,1,2,1:0:0:0:
46,178,66288,38,0,B|88:174|88:174|119:184|119:184|143:170|143:170|193:166,1,150,6|0,3:1|0:0,0:0:0:0:
290,164,66733,2,0,P|320:192|272:230,1,100,10|2,3:0|0:3,0:0:0:0:
100,296,67177,2,0,P|77:302|45:290,1,50,2|0,1:2|0:0,0:0:0:0:
170,257,67399,2,0,P|186:273|192:307,1,50,2|0,3:0|0:0,0:0:0:0:
100,214,67622,2,0,P|106:191|132:169,1,50,10|0,3:0|0:0,0:0:0:0:
255,101,67844,1,6,0:3:0:0:
455,250,68066,6,0,P|404:294|345:243,1,150,2|0,3:2|0:0,0:0:0:0:
347,151,68510,2,0,P|365:128|356:168,1,100,10|2,3:0|0:3,0:0:0:0:
212,287,68955,1,2,1:2:0:0:
141,154,69177,1,2,3:0:0:0:
370,54,69399,2,0,P|435:77|464:169,1,150,10|0,3:0|0:0,0:0:0:0:
350,243,69844,38,0,P|287:265|294:205,1,150,2|0,3:2|0:0,0:0:0:0:
316,304,70288,2,0,P|271:286|252:228,1,100,10|2,3:0|0:3,0:0:0:0:
321,53,70733,2,0,P|351:48|384:64,1,50,2|0,1:2|0:0,0:0:0:0:
244,56,70955,2,0,P|224:32|221:-4,1,50,2|0,3:0|0:0,0:0:0:0:
285,120,71177,2,0,P|274:148|243:169,1,50,10|0,3:0|0:0,0:0:0:0:
153,266,71399,1,6,0:3:0:0:
73,28,71622,6,0,B|84:6|111:0|111:0|145:25|145:55|111:114,1,150,2|0,3:2|0:0,0:0:0:0:
68,173,72066,2,0,P|34:186|44:139,1,100,10|2,3:0|0:3,0:0:0:0:
237,112,72510,2,0,B|259:113|259:113|262:117|262:117|284:119,1,50,2|0,1:2|0:0,0:0:0:0:
408,141,72733,1,2,1:3:0:0:
417,152,72844,1,2,0:1:0:0:
427,141,72955,37,10,3:0:0:0:
450,108,73066,1,2,1:0:0:0:
444,68,73177,1,14,3:0:0:0:
424,33,73288,1,2,1:0:0:0:
385,10,73399,6,0,B|346:13|346:13|331:31|331:31|269:37,1,110.000003356934,6|6,3:1|0:3,0:0:0:0:
63,50,73844,1,10,3:0:0:0:
163,180,74066,1,6,0:3:0:0:
313,150,74288,1,2,1:2:0:0:
150,171,74510,1,6,3:0:0:0:
102,318,74733,1,10,3:0:0:0:
166,166,74955,1,6,1:3:0:0:
326,346,75177,38,0,P|275:362|210:337,1,110.000003356934,2|6,3:2|0:3,0:0:0:0:
55,201,75622,1,10,3:0:0:0:
171,83,75844,1,6,0:3:0:0:
277,191,76066,1,2,1:2:0:0:
161,73,76288,1,6,3:0:0:0:
250,273,76510,2,0,P|339:253|363:182,1,165.000005035401,10|0,3:0|0:0,0:0:0:0:
441,112,76955,6,0,P|397:86|330:85,1,110.000003356934,2|6,3:2|0:3,0:0:0:0:
132,157,77399,1,10,3:0:0:0:
250,273,77622,1,6,0:3:0:0:
262,119,77844,1,2,1:2:0:0:
263,284,78066,1,6,3:0:0:0:
380,185,78288,1,10,3:0:0:0:
264,302,78510,1,6,1:3:0:0:
39,212,78733,38,0,P|0:147|48:69,1,165.000005035401,2|0,3:2|0:0,0:0:0:0:
136,24,79177,2,0,B|179:27|179:27|185:37|185:37|251:43,1,110.000003356934,10|6,3:0|0:3,0:0:0:0:
460,26,79622,1,2,1:2:0:0:
315,191,79844,1,6,3:0:0:0:
469,35,80066,1,10,3:0:0:0:
498,252,80288,1,14,3:0:0:0:
508,239,80399,1,2,1:0:0:0:
493,230,80510,6,0,P|439:213|376:244,1,110.000003356934,6|6,3:1|0:3,0:0:0:0:
182,305,80955,1,10,3:0:0:0:
327,382,81177,1,6,0:3:0:0:
154,228,81399,1,2,1:2:0:0:
315,191,81622,1,6,3:0:0:0:
84,180,81844,1,10,3:0:0:0:
180,46,82066,1,6,1:3:0:0:
0,208,82288,38,0,P|35:254|103:266,1,110.000003356934,2|6,3:2|0:3,0:0:0:0:
304,265,82733,1,10,3:0:0:0:
384,121,82955,1,6,0:3:0:0:
345,348,83177,1,2,1:2:0:0:
428,205,83399,1,6,3:0:0:0:
282,38,83622,2,0,B|238:38|179:65|243:82|179:110|132:110,1,165.000005035401,10|0,3:0|0:0,0:0:0:0:
42,63,84066,6,0,P|99:35|136:119,1,165.000005035401,2|0,3:2|0:0,0:0:0:0:
93,207,84510,2,0,B|135:210|135:210|142:216|142:216|203:221,1,110.000003356934,10|6,3:0|0:3,0:0:0:0:
419,246,84955,1,2,1:2:0:0:
312,120,85177,1,6,3:0:0:0:
161,294,85399,1,10,3:0:0:0:
224,141,85622,1,6,1:3:0:0:
179,378,85844,38,0,P|101:357|76:278,1,165.000005035401,2|0,3:2|0:0,0:0:0:0:
32,182,86288,2,0,B|52:169|83:172|83:172|87:164|87:164|115:167|134:155,1,110.000003356934,10|6,3:0|0:3,0:0:0:0:
397,75,86733,1,10,3:2:0:0:
500,272,86955,1,10,3:2:0:0:
489,291,87066,1,2,0:1:0:0:
468,299,87177,5,14,3:0:0:0:
424,295,87288,1,2,1:0:0:0:
396,260,87399,1,14,3:0:0:0:
405,216,87510,1,2,1:0:0:0:
433,196,87622,6,0,B|399:190|399:190|368:158|368:158|328:151,1,120,2|2,0:0|0:3,0:0:0:0:
202,73,90733,6,0,B|201:115|201:115|217:158|217:158|226:160|226:160|241:199|241:199|241:242,1,179.999994506836,8|0,3:0|0:0,0:0:0:0:
184,362,91177,38,0,P|147:373|89:356,1,89.9999972534181,6|2,3:1|0:3,0:0:0:0:
2,208,91622,1,8,3:2:0:0:
2,297,91844,2,0,B|44:289|44:289|77:261|77:261|78:253|78:253|107:222|107:222|151:215,1,179.999994506836,2|2,1:2|0:3,0:0:0:0:
324,172,92510,1,10,3:0:0:0:
206,105,92733,1,2,3:0:0:0:
347,280,92955,6,0,P|391:260|423:214,1,89.9999972534181,2|2,3:2|0:3,0:0:0:0:
421,48,93399,1,8,3:2:0:0:
344,96,93622,2,0,P|338:17|412:36,1,179.999994506836,2|2,1:2|0:3,0:0:0:0:
498,192,94288,1,10,3:0:0:0:
274,343,94510,1,14,3:0:0:0:
285,335,94622,1,2,0:1:0:0:
272,329,94733,38,0,B|238:326|238:326|226:316|226:316|160:310,1,89.9999972534181,6|2,3:2|0:3,0:0:0:0:
8,289,95177,1,8,3:2:0:0:
74,228,95399,2,0,B|186:228|113:173|240:173,1,179.999994506836,2|2,1:2|0:3,0:0:0:0:
413,216,96066,1,10,3:0:0:0:
304,295,96288,1,2,3:0:0:0:
425,106,96510,6,0,P|469:119|509:159,1,89.9999972534181,2|2,3:2|0:3,0:0:0:0:
331,208,96955,1,8,3:2:0:0:
244,233,97177,2,0,P|192:204|257:127,1,179.999994506836,2|2,1:2|0:3,0:0:0:0:
425,106,97844,1,10,3:0:0:0:
463,281,98066,1,6,3:0:0:0:
245,124,98288,38,0,B|212:126|212:126|202:134|202:134|153:138,1,89.9999972534181,2|2,3:2|0:3,0:0:0:0:
41,0,98733,1,8,3:2:0:0:
162,59,98955,1,2,3:0:0:0:
41,248,99177,2,0,B|73:250|73:250|83:258|83:258|132:262,1,89.9999972534181,2|2,3:2|0:3,0:0:0:0:
245,124,99622,1,8,3:2:0:0:
121,178,99844,1,2,3:0:0:0:
308,303,100066,5,10,3:2:0:0:
355,129,100288,1,2,3:0:0:0:
195,284,100510,1,14,3:0:0:0:
164,106,100733,1,2,3:0:0:0:
349,213,100955,1,10,3:2:0:0:
135,332,101177,1,10,3:2:0:0:
126,333,101288,1,2,0:1:0:0:
118,328,101399,37,14,3:0:0:0:
94,314,101510,1,2,1:0:0:0:
79,291,101622,1,14,3:0:0:0:
73,264,101733,1,2,1:0:0:0:
81,238,101844,6,0,L|181:230,1,89.9999972534181,6|6,3:1|3:0,0:0:0:0:
349,213,102288,1,8,3:2:0:0:
393,135,102510,2,0,P|440:216|401:288,1,179.999994506836,6|6,1:3|3:0,0:0:0:0:
287,147,103177,1,10,3:0:0:0:
429,37,103399,1,6,1:3:0:0:
268,254,103622,38,0,P|223:240|189:198,1,89.9999972534181,2|6,3:2|3:0,0:0:0:0:
107,52,104066,1,8,3:2:0:0:
44,116,104288,2,0,B|87:112|87:112|162:52|162:52|203:48,1,179.999994506836,6|6,1:3|3:0,0:0:0:0:
361,134,104955,1,10,3:0:0:0:
194,209,105177,1,6,1:3:0:0:
426,345,105399,6,0,P|438:299|417:248,1,89.9999972534181,2|6,3:2|3:0,0:0:0:0:
272,163,105844,1,8,3:2:0:0:
194,209,106066,2,0,P|179:288|255:272,1,179.999994506836,6|6,1:3|3:0,0:0:0:0:
361,134,106733,1,10,3:0:0:0:
200,52,106955,1,6,1:3:0:0:
468,31,107177,38,0,P|484:71|451:123,1,89.9999972534181,2|6,3:2|3:0,0:0:0:0:
326,226,107622,1,8,3:2:0:0:
248,272,107844,2,0,B|262:292|297:295|297:295|290:251|290:251|297:238|297:238|284:226|284:226|273:161,1,179.999994506836,6|6,1:3|3:0,0:0:0:0:
217,11,108510,1,10,3:0:0:0:
13,189,108733,1,14,3:0:0:0:
16,197,108844,1,2,1:0:0:0:
21,204,108955,6,0,P|63:220|114:193,1,89.9999972534181,6|6,3:2|3:0,0:0:0:0:
254,107,109399,1,8,3:2:0:0:
327,54,109622,2,0,B|369:38|369:38|385:184,1,179.999994506836,6|6,1:3|3:0,0:0:0:0:
364,351,110288,1,10,3:0:0:0:
496,228,110510,1,6,1:3:0:0:
254,107,110733,38,0,P|210:96|149:120,1,89.9999972534181,2|6,3:2|3:0,0:0:0:0:
33,226,111177,1,8,3:2:0:0:
38,315,111399,2,0,P|101:358|189:307,1,179.999994506836,6|6,1:3|3:0,0:0:0:0:
183,133,112066,1,10,3:0:0:0:
34,31,112288,1,6,1:3:0:0:
303,9,112510,6,0,P|328:46|330:91,1,89.9999972534181,2|6,3:2|3:0,0:0:0:0:
258,256,112955,1,8,3:2:0:0:
239,77,113177,1,6,3:0:0:0:
89,301,113399,2,0,P|64:264|62:219,1,89.9999972534181,2|6,3:2|3:0,0:0:0:0:
134,54,113844,1,8,3:2:0:0:
153,233,114066,1,6,3:0:0:0:
382,90,114288,37,10,3:2:0:0:
276,5,114510,1,6,1:3:0:0:
352,217,114733,1,14,3:0:0:0:
479,167,114955,1,6,1:3:0:0:
257,128,115177,1,10,3:2:0:0:
236,264,115399,1,10,3:2:0:0:
229,247,115510,1,2,0:1:0:0:
246,250,115622,5,14,3:0:0:0:
286,269,115733,1,2,1:0:0:0:
306,309,115844,1,14,3:0:0:0:
287,349,115955,1,2,1:0:0:0:
251,376,116066,38,0,B|212:380|172:363|206:350|158:332|111:336,1,139.999995727539,6|2,3:2|0:3,0:0:0:0:
